  0
SECTION
  2
HEADER
  9
$ACADVER
  1
AC1032
  9
$ACADMAINTVER
 90
      159
  9
$DWGCODEPAGE
  3
ANSI_1252
  9
$LASTSAVEDBY
  1
shearn
  9
$REQUIREDVERSIONS
160
                 0
  9
$INSBASE
 10
0.0
 20
0.0
 30
0.0
  9
$EXTMIN
 10
-0.0493507989328918
 20
-0.0000000000000031
 30
0.0
  9
$EXTMAX
 10
33.9506492010671
 20
22.0
 30
0.0
  9
$LIMMIN
 10
0.0
 20
0.0
  9
$LIMMAX
 10
12.0
 20
9.0
  9
$ORTHOMODE
 70
     0
  9
$REGENMODE
 70
     1
  9
$FILLMODE
 70
     1
  9
$QTEXTMODE
 70
     0
  9
$MIRRTEXT
 70
     1
  9
$LTSCALE
 40
1.0
  9
$ATTMODE
 70
     1
  9
$TEXTSIZE
 40
0.0
  9
$TRACEWID
 40
0.05
  9
$TEXTSTYLE
  7
STANDARD
  9
$CLAYER
  8
0
  9
$CELTYPE
  6
ByLayer
  9
$CECOLOR
 62
   256
  9
$CELTSCALE
 40
1.0
  9
$DISPSILH
 70
     0
  9
$DIMSCALE
 40
1.0
  9
$DIMASZ
 40
0.18
  9
$DIMEXO
 40
0.0625
  9
$DIMDLI
 40
0.38
  9
$DIMRND
 40
0.0
  9
$DIMDLE
 40
0.0
  9
$DIMEXE
 40
0.18
  9
$DIMTP
 40
0.0
  9
$DIMTM
 40
0.0
  9
$DIMTXT
 40
0.18
  9
$DIMCEN
 40
0.09
  9
$DIMTSZ
 40
0.0
  9
$DIMTOL
 70
     0
  9
$DIMLIM
 70
     0
  9
$DIMTIH
 70
     0
  9
$DIMTOH
 70
     0
  9
$DIMSE1
 70
     0
  9
$DIMSE2
 70
     0
  9
$DIMTAD
 70
     1
  9
$DIMZIN
 70
     0
  9
$DIMBLK
  1

  9
$DIMASO
 70
     1
  9
$DIMSHO
 70
     1
  9
$DIMPOST
  1

  9
$DIMAPOST
  1

  9
$DIMALT
 70
     0
  9
$DIMALTD
 70
     2
  9
$DIMALTF
 40
25.4
  9
$DIMLFAC
 40
1.0
  9
$DIMTOFL
 70
     0
  9
$DIMTVP
 40
0.0
  9
$DIMTIX
 70
     0
  9
$DIMSOXD
 70
     0
  9
$DIMSAH
 70
     0
  9
$DIMBLK1
  1

  9
$DIMBLK2
  1

  9
$DIMSTYLE
  2
STANDARD
  9
$DIMCLRD
 70
     0
  9
$DIMCLRE
 70
     0
  9
$DIMCLRT
 70
     0
  9
$DIMTFAC
 40
1.0
  9
$DIMGAP
 40
0.09
  9
$DIMJUST
 70
     0
  9
$DIMSD1
 70
     0
  9
$DIMSD2
 70
     0
  9
$DIMTOLJ
 70
     1
  9
$DIMTZIN
 70
     0
  9
$DIMALTZ
 70
     0
  9
$DIMALTTZ
 70
     0
  9
$DIMUPT
 70
     0
  9
$DIMDEC
 70
     4
  9
$DIMTDEC
 70
     4
  9
$DIMALTU
 70
     2
  9
$DIMALTTD
 70
     2
  9
$DIMTXSTY
  7
STANDARD
  9
$DIMAUNIT
 70
     0
  9
$DIMADEC
 70
     0
  9
$DIMALTRND
 40
0.0
  9
$DIMAZIN
 70
     3
  9
$DIMDSEP
 70
    46
  9
$DIMATFIT
 70
     3
  9
$DIMFRAC
 70
     0
  9
$DIMLDRBLK
  1

  9
$DIMLUNIT
 70
     2
  9
$DIMLWD
 70
    -2
  9
$DIMLWE
 70
    -2
  9
$DIMTMOVE
 70
     2
  9
$DIMFXL
 40
1.0
  9
$DIMFXLON
 70
     0
  9
$DIMJOGANG
 40
0.7853981633974483
  9
$DIMTFILL
 70
     0
  9
$DIMTFILLCLR
 70
     0
  9
$DIMARCSYM
 70
     0
  9
$DIMLTYPE
  6
ByBlock
  9
$DIMLTEX1
  6
ByBlock
  9
$DIMLTEX2
  6
ByBlock
  9
$DIMTXTDIRECTION
 70
     0
  9
$LUNITS
 70
     2
  9
$LUPREC
 70
     4
  9
$SKETCHINC
 40
0.1
  9
$FILLETRAD
 40
0.5
  9
$AUNITS
 70
     0
  9
$AUPREC
 70
     0
  9
$MENU
  1
.
  9
$ELEVATION
 40
0.0
  9
$PELEVATION
 40
0.0
  9
$THICKNESS
 40
0.0
  9
$LIMCHECK
 70
     0
  9
$CHAMFERA
 40
0.0
  9
$CHAMFERB
 40
0.0
  9
$CHAMFERC
 40
0.0
  9
$CHAMFERD
 40
0.0
  9
$SKPOLY
 70
     0
  9
$TDCREATE
 40
2457459.257291667
  9
$TDUCREATE
 40
2457459.465625000
  9
$TDUPDATE
 40
2460041.688784722
  9
$TDUUPDATE
 40
2460041.855451389
  9
$TDINDWG
 40
0.0460600810
  9
$TDUSRTIMER
 40
2457691.739380266
  9
$USRTIMER
 70
     1
  9
$ANGBASE
 50
0.0
  9
$ANGDIR
 70
     0
  9
$PDMODE
 70
     0
  9
$PDSIZE
 40
0.0
  9
$PLINEWID
 40
0.0
  9
$SPLFRAME
 70
     0
  9
$SPLINETYPE
 70
     6
  9
$SPLINESEGS
 70
     8
  9
$HANDSEED
  5
7CCA
  9
$SURFTAB1
 70
     6
  9
$SURFTAB2
 70
     6
  9
$SURFTYPE
 70
     6
  9
$SURFU
 70
     6
  9
$SURFV
 70
     6
  9
$UCSBASE
  2

  9
$UCSNAME
  2

  9
$UCSORG
 10
0.0
 20
0.0
 30
0.0
  9
$UCSXDIR
 10
1.0
 20
0.0
 30
0.0
  9
$UCSYDIR
 10
0.0
 20
1.0
 30
0.0
  9
$UCSORTHOREF
  2

  9
$UCSORTHOVIEW
 70
     0
  9
$UCSORGTOP
 10
0.0
 20
0.0
 30
0.0
  9
$UCSORGBOTTOM
 10
0.0
 20
0.0
 30
0.0
  9
$UCSORGLEFT
 10
0.0
 20
0.0
 30
0.0
  9
$UCSORGRIGHT
 10
0.0
 20
0.0
 30
0.0
  9
$UCSORGFRONT
 10
0.0
 20
0.0
 30
0.0
  9
$UCSORGBACK
 10
0.0
 20
0.0
 30
0.0
  9
$PUCSBASE
  2

  9
$PUCSNAME
  2

  9
$PUCSORG
 10
0.0
 20
0.0
 30
0.0
  9
$PUCSXDIR
 10
1.0
 20
0.0
 30
0.0
  9
$PUCSYDIR
 10
0.0
 20
1.0
 30
0.0
  9
$PUCSORTHOREF
  2

  9
$PUCSORTHOVIEW
 70
     0
  9
$PUCSORGTOP
 10
0.0
 20
0.0
 30
0.0
  9
$PUCSORGBOTTOM
 10
0.0
 20
0.0
 30
0.0
  9
$PUCSORGLEFT
 10
0.0
 20
0.0
 30
0.0
  9
$PUCSORGRIGHT
 10
0.0
 20
0.0
 30
0.0
  9
$PUCSORGFRONT
 10
0.0
 20
0.0
 30
0.0
  9
$PUCSORGBACK
 10
0.0
 20
0.0
 30
0.0
  9
$USERI1
 70
     0
  9
$USERI2
 70
     0
  9
$USERI3
 70
     0
  9
$USERI4
 70
     0
  9
$USERI5
 70
     0
  9
$USERR1
 40
0.0
  9
$USERR2
 40
0.0
  9
$USERR3
 40
0.0
  9
$USERR4
 40
0.0
  9
$USERR5
 40
0.0
  9
$WORLDVIEW
 70
     1
  9
$SHADEDGE
 70
     3
  9
$SHADEDIF
 70
    70
  9
$TILEMODE
 70
     1
  9
$MAXACTVP
 70
    64
  9
$PINSBASE
 10
0.0
 20
0.0
 30
0.0
  9
$PLIMCHECK
 70
     0
  9
$PEXTMIN
 10
1.000000000000000E+20
 20
1.000000000000000E+20
 30
1.000000000000000E+20
  9
$PEXTMAX
 10
-1.000000000000000E+20
 20
-1.000000000000000E+20
 30
-1.000000000000000E+20
  9
$PLIMMIN
 10
0.0
 20
0.0
  9
$PLIMMAX
 10
0.0
 20
0.0
  9
$UNITMODE
 70
     0
  9
$VISRETAIN
 70
     1
  9
$PLINEGEN
 70
     0
  9
$PSLTSCALE
 70
     1
  9
$TREEDEPTH
 70
  3020
  9
$CMLSTYLE
  2
STANDARD
  9
$CMLJUST
 70
     0
  9
$CMLSCALE
 40
1.0
  9
$PROXYGRAPHICS
 70
     1
  9
$MEASUREMENT
 70
     0
  9
$CELWEIGHT
370
    -1
  9
$ENDCAPS
280
     0
  9
$JOINSTYLE
280
     0
  9
$LWDISPLAY
290
     0
  9
$INSUNITS
 70
     0
  9
$HYPERLINKBASE
  1

  9
$STYLESHEET
  1

  9
$XEDIT
290
     1
  9
$CEPSNTYPE
380
     0
  9
$PSTYLEMODE
290
     1
  9
$FINGERPRINTGUID
  2
{5D8831F8-8998-734F-B102-5BAA1CD21D75}
  9
$VERSIONGUID
  2
{C76577C2-508A-444D-BBCD-51C9F139CB66}
  9
$EXTNAMES
290
     1
  9
$PSVPSCALE
 40
0.0
  9
$OLESTARTUP
290
     0
  9
$SORTENTS
280
   127
  9
$INDEXCTL
280
     0
  9
$HIDETEXT
280
     0
  9
$XCLIPFRAME
280
     2
  9
$HALOGAP
280
     0
  9
$OBSCOLOR
 70
   257
  9
$OBSLTYPE
280
     0
  9
$INTERSECTIONDISPLAY
280
     0
  9
$INTERSECTIONCOLOR
 70
   257
  9
$DIMASSOC
280
     2
  9
$PROJECTNAME
  1

  9
$CAMERADISPLAY
290
     0
  9
$LENSLENGTH
 40
50.0
  9
$CAMERAHEIGHT
 40
0.0
  9
$STEPSPERSEC
 40
2.0
  9
$STEPSIZE
 40
6.0
  9
$3DDWFPREC
 40
2.0
  9
$PSOLWIDTH
 40
0.25
  9
$PSOLHEIGHT
 40
4.0
  9
$LOFTANG1
 40
1.5707963267949
  9
$LOFTANG2
 40
1.5707963267949
  9
$LOFTMAG1
 40
0.0
  9
$LOFTMAG2
 40
0.0
  9
$LOFTPARAM
 70
     7
  9
$LOFTNORMALS
280
     1
  9
$LATITUDE
 40
37.795
  9
$LONGITUDE
 40
-122.394
  9
$NORTHDIRECTION
 40
0.0
  9
$TIMEZONE
 70
 -8000
  9
$LIGHTGLYPHDISPLAY
280
     1
  9
$TILEMODELIGHTSYNCH
280
     1
  9
$CMATERIAL
347
7BC8
  9
$SOLIDHIST
280
     0
  9
$SHOWHIST
280
     1
  9
$DWFFRAME
280
     2
  9
$DGNFRAME
280
     0
  9
$REALWORLDSCALE
290
     1
  9
$INTERFERECOLOR
 62
     1
  9
$INTERFEREOBJVS
345
7BEA
  9
$INTERFEREVPVS
346
7BE7
  9
$CSHADOW
280
     0
  9
$SHADOWPLANELOCATION
 40
0.0
  0
ENDSEC
  0
SECTION
  2
CLASSES
  0
CLASS
  1
RASTERVARIABLES
  2
AcDbRasterVariables
  3
ISM
 90
        0
 91
        1
280
     0
281
     0
  0
CLASS
  1
ACDBDICTIONARYWDFLT
  2
AcDbDictionaryWithDefault
  3
ObjectDBX Classes
 90
        0
 91
        1
280
     0
281
     0
  0
CLASS
  1
MATERIAL
  2
AcDbMaterial
  3
ObjectDBX Classes
 90
     1153
 91
        3
280
     0
281
     0
  0
CLASS
  1
VISUALSTYLE
  2
AcDbVisualStyle
  3
ObjectDBX Classes
 90
     4095
 91
       24
280
     0
281
     0
  0
CLASS
  1
TABLESTYLE
  2
AcDbTableStyle
  3
ObjectDBX Classes
 90
     4095
 91
        1
280
     0
281
     0
  0
CLASS
  1
SCALE
  2
AcDbScale
  3
ObjectDBX Classes
 90
     1153
 91
       17
280
     0
281
     0
  0
CLASS
  1
MLEADERSTYLE
  2
AcDbMLeaderStyle
  3
ACDB_MLEADERSTYLE_CLASS
 90
     4095
 91
        1
280
     0
281
     0
  0
CLASS
  1
ACDBSECTIONVIEWSTYLE
  2
AcDbSectionViewStyle
  3
ObjectDBX Classes
 90
     1025
 91
        1
280
     0
281
     0
  0
CLASS
  1
ACDBDETAILVIEWSTYLE
  2
AcDbDetailViewStyle
  3
ObjectDBX Classes
 90
     1025
 91
        1
280
     0
281
     0
  0
CLASS
  1
DICTIONARYVAR
  2
AcDbDictionaryVar
  3
ObjectDBX Classes
 90
        0
 91
        5
280
     0
281
     0
  0
CLASS
  1
CELLSTYLEMAP
  2
AcDbCellStyleMap
  3
ObjectDBX Classes
 90
     1152
 91
        1
280
     0
281
     0
  0
ENDSEC
  0
SECTION
  2
TABLES
  0
TABLE
  2
VPORT
  5
4376
330
0
100
AcDbSymbolTable
 70
     1
1001
ACAD
1000
DbSaveVer
1071
      209
  0
VPORT
  5
7B50
330
4376
100
AcDbSymbolTableRecord
100
AcDbViewportTableRecord
  2
*Active
 70
     0
 10
0.0
 20
0.0
 11
1.0
 21
1.0
 12
23.46908913098814
 22
3.255205863423732
 13
0.0
 23
0.0
 14
0.5
 24
0.5
 15
10.0
 25
10.0
 16
0.0
 26
0.0
 36
1.0
 17
0.0
 27
0.0
 37
0.0
 40
42.05052507201776
 41
1.831501831501831
 42
50.0
 43
0.0
 44
0.0
 50
0.0
 51
0.0
 71
     0
 72
   100
 73
     1
 74
     0
 75
     0
 76
     1
 77
     0
 78
     0
281
     0
 65
     1
110
0.0
120
0.0
130
0.0
111
1.0
121
0.0
131
0.0
112
0.0
122
1.0
132
0.0
 79
     0
146
0.0
348
7BE6
 60
     3
 61
     5
292
     1
282
     1
141
0.0
142
0.0
 63
   250
421
  3355443
1001
ACAD_NAV_VCDISPLAY
1070
     3
  0
ENDTAB
  0
TABLE
  2
LTYPE
  5
4373
330
0
100
AcDbSymbolTable
 70
     3
  0
LTYPE
  5
43C8
330
4373
100
AcDbSymbolTableRecord
100
AcDbLinetypeTableRecord
  2
ByBlock
 70
     0
  3

 72
    65
 73
     0
 40
0.0
  0
LTYPE
  5
43C9
330
4373
100
AcDbSymbolTableRecord
100
AcDbLinetypeTableRecord
  2
ByLayer
 70
     0
  3

 72
    65
 73
     0
 40
0.0
  0
LTYPE
  5
43CA
330
4373
100
AcDbSymbolTableRecord
100
AcDbLinetypeTableRecord
  2
CONTINUOUS
 70
     0
  3
Solid line
 72
    65
 73
     0
 40
0.0
  0
LTYPE
  5
43E2
330
4373
100
AcDbSymbolTableRecord
100
AcDbLinetypeTableRecord
  2
HIDDENX2
 70
     0
  3
Hidden (2x) ____ ____ ____ ____ ____ ____ ____
 72
    65
 73
     2
 40
0.75
 49
0.5
 74
     0
 49
-0.25
 74
     0
  0
LTYPE
  5
7B5C
330
4373
100
AcDbSymbolTableRecord
100
AcDbLinetypeTableRecord
  2
Dashed
 70
     0
  3
Dashed, __ __ __ __ __ __ __ __ __ __ __ __ __ _
 72
    65
 73
     2
 40
0.75
 49
0.5
 74
     0
 49
-0.25
 74
     0
  0
ENDTAB
  0
TABLE
  2
LAYER
  5
4370
102
{ACAD_XDICTIONARY
360
7B51
102
}
330
0
100
AcDbSymbolTable
 70
    15
  0
LAYER
  5
43C2
330
4370
100
AcDbSymbolTableRecord
100
AcDbLayerTableRecord
  2
0
 70
     0
 62
     7
  6
CONTINUOUS
370
    -3
390
7BC6
347
7BD8
348
0
  0
LAYER
  5
43E3
330
4370
100
AcDbSymbolTableRecord
100
AcDbLayerTableRecord
  2
TITLEBLOCK
 70
     0
 62
     7
  6
CONTINUOUS
370
    -3
390
7BC6
347
7BD8
348
0
  0
LAYER
  5
43E4
330
4370
100
AcDbSymbolTableRecord
100
AcDbLayerTableRecord
  2
TEXT
 70
     0
 62
     7
  6
CONTINUOUS
370
    -3
390
7BC6
347
7BD8
348
0
  0
LAYER
  5
43E5
330
4370
100
AcDbSymbolTableRecord
100
AcDbLayerTableRecord
  2
BACKWASHER
 70
     0
 62
     7
  6
HIDDENX2
370
    -3
390
7BC6
347
7BD8
348
0
  0
LAYER
  5
43E6
330
4370
100
AcDbSymbolTableRecord
100
AcDbLayerTableRecord
  2
STUD
 70
     0
 62
     1
  6
CONTINUOUS
370
    -3
390
7BC6
347
7BD8
348
0
  0
LAYER
  5
43E7
330
4370
100
AcDbSymbolTableRecord
100
AcDbLayerTableRecord
  2
HARDWARE
 70
     0
 62
     7
  6
CONTINUOUS
370
    -3
390
7BC6
347
7BD8
348
0
  0
LAYER
  5
7B33
330
4370
100
AcDbSymbolTableRecord
100
AcDbLayerTableRecord
  2
BORDER
 70
     0
 62
     7
  6
CONTINUOUS
370
    -3
390
7BC6
347
7BD8
348
0
1001
ACAECLAYERSTANDARD
1000

1000

1001
ACCMTRANSPARENCY
1071
        0
  0
LAYER
  5
7B58
330
4370
100
AcDbSymbolTableRecord
100
AcDbLayerTableRecord
  2
Plate
 70
     0
 62
     7
  6
CONTINUOUS
370
    -3
390
7BC6
347
7BD8
348
0
  0
LAYER
  5
7B59
330
4370
100
AcDbSymbolTableRecord
100
AcDbLayerTableRecord
  2
Gasket
 70
     0
 62
     5
  6
CONTINUOUS
370
    -3
390
7BC6
347
7BD8
348
0
  0
LAYER
  5
7B5A
330
4370
100
AcDbSymbolTableRecord
100
AcDbLayerTableRecord
  2
Dimension
 70
     0
 62
     7
  6
CONTINUOUS
370
    -3
390
7BC6
347
7BD8
348
0
  0
LAYER
  5
7B5B
330
4370
100
AcDbSymbolTableRecord
100
AcDbLayerTableRecord
  2
PrevBezel
 70
     0
 62
     8
  6
Dashed
370
    -3
390
7BC6
347
7BD8
348
0
  0
LAYER
  5
7B5D
330
4370
100
AcDbSymbolTableRecord
100
AcDbLayerTableRecord
  2
PrevCutout
 70
     0
 62
     4
  6
Dashed
370
    -3
390
7BC6
347
7BD8
348
0
  0
LAYER
  5
7B5E
330
4370
100
AcDbSymbolTableRecord
100
AcDbLayerTableRecord
  2
NewBezel
 70
     0
 62
     6
  6
Dashed
370
    -3
390
7BC6
347
7BD8
348
0
  0
LAYER
  5
7B5F
330
4370
100
AcDbSymbolTableRecord
100
AcDbLayerTableRecord
  2
BackPlate
 70
     0
 62
    30
  6
CONTINUOUS
370
    -3
390
7BC6
347
7BD8
348
0
  0
LAYER
  5
7C15
330
4370
100
AcDbSymbolTableRecord
100
AcDbLayerTableRecord
  2
Defpoints
 70
     0
 62
     7
  6
CONTINUOUS
290
     0
370
    -3
390
7BC6
347
7BD8
348
0
  0
ENDTAB
  0
TABLE
  2
STYLE
  5
4371
330
0
100
AcDbSymbolTable
 70
     1
  0
STYLE
  5
43C3
330
4371
100
AcDbSymbolTableRecord
100
AcDbTextStyleTableRecord
  2
STANDARD
 70
     0
 40
0.0
 41
1.0
 50
0.0
 71
     0
 42
0.0
  3
simplex.shx
  4

  0
ENDTAB
  0
TABLE
  2
VIEW
  5
4374
330
0
100
AcDbSymbolTable
 70
     0
  0
ENDTAB
  0
TABLE
  2
UCS
  5
4375
330
0
100
AcDbSymbolTable
 70
     0
  0
ENDTAB
  0
TABLE
  2
APPID
  5
4377
330
0
100
AcDbSymbolTable
 70
    11
  0
APPID
  5
43C4
330
4377
100
AcDbSymbolTableRecord
100
AcDbRegAppTableRecord
  2
ACAD
 70
     0
  0
APPID
  5
43CB
330
4377
100
AcDbSymbolTableRecord
100
AcDbRegAppTableRecord
  2
AcadAnnotative
 70
     0
  0
APPID
  5
43E8
330
4377
100
AcDbSymbolTableRecord
100
AcDbRegAppTableRecord
  2
ACCMTRANSPARENCY
 70
     0
  0
APPID
  5
43E9
330
4377
100
AcDbSymbolTableRecord
100
AcDbRegAppTableRecord
  2
GRADIENTCOLOR1ACI
 70
     0
  0
APPID
  5
43EA
330
4377
100
AcDbSymbolTableRecord
100
AcDbRegAppTableRecord
  2
GRADIENTCOLOR2ACI
 70
     0
  0
APPID
  5
43EB
330
4377
100
AcDbSymbolTableRecord
100
AcDbRegAppTableRecord
  2
ACAD_MLEADERVER
 70
     0
  0
APPID
  5
43EC
330
4377
100
AcDbSymbolTableRecord
100
AcDbRegAppTableRecord
  2
ACAD_NAV_VCDISPLAY
 70
     0
  0
APPID
  5
43ED
330
4377
100
AcDbSymbolTableRecord
100
AcDbRegAppTableRecord
  2
ACAECLAYERSTANDARD
 70
     0
  0
APPID
  5
43EE
330
4377
100
AcDbSymbolTableRecord
100
AcDbRegAppTableRecord
  2
ACAD_PSEXT
 70
     0
  0
APPID
  5
43EF
330
4377
100
AcDbSymbolTableRecord
100
AcDbRegAppTableRecord
  2
ACAD_EXEMPT_FROM_CAD_STANDARDS
 70
     0
  0
APPID
  5
43F0
330
4377
100
AcDbSymbolTableRecord
100
AcDbRegAppTableRecord
  2
CONTENTBLOCKICON
 70
     0
  0
ENDTAB
  0
TABLE
  2
DIMSTYLE
  5
4378
330
0
100
AcDbSymbolTable
 70
     2
100
AcDbDimStyleTable
 71
     0
  0
DIMSTYLE
105
43C5
330
4378
100
AcDbSymbolTableRecord
100
AcDbDimStyleTableRecord
  2
STANDARD
 70
     0
 73
     0
 74
     0
 77
     1
 79
     3
279
     2
340
43C3
345
43C8
346
43C8
347
43C8
  0
DIMSTYLE
105
7B60
102
{ACAD_REACTORS
330
7B9E
330
7B9F
330
7BA0
330
7BA1
330
7BA2
330
7BA3
102
}
330
4378
100
AcDbSymbolTableRecord
100
AcDbDimStyleTableRecord
  2
DimStyle
 70
     0
 73
     0
 74
     0
170
     1
340
43C3
345
43C8
346
43C8
347
43C8
  0
ENDTAB
  0
TABLE
  2
BLOCK_RECORD
  5
436F
330
0
100
AcDbSymbolTable
 70
    18
  0
BLOCK_RECORD
  5
43DD
330
436F
100
AcDbSymbolTableRecord
100
AcDbBlockTableRecord
  2
*Model_Space
340
43E0
 70
     0
280
     1
281
     0
  0
BLOCK_RECORD
  5
43D9
330
436F
100
AcDbSymbolTableRecord
100
AcDbBlockTableRecord
  2
*Paper_Space
340
43DC
 70
     0
280
     1
281
     0
  0
BLOCK_RECORD
  5
43FF
330
436F
100
AcDbSymbolTableRecord
100
AcDbBlockTableRecord
  2
1INHALFWASHER
340
0
102
{BLKREFS
331
7CAF
331
7CB7
331
7CBF
331
7CC1
331
7CC3
331
7CC5
331
12AE
102
}
 70
     0
280
     1
281
     0
1001
ACAD
1000
DesignCenter Data
1002
{
1070
     1
1070
     0
1002
}
  0
BLOCK_RECORD
  5
4401
330
436F
100
AcDbSymbolTableRecord
100
AcDbBlockTableRecord
  2
1INWASHER
340
0
102
{BLKREFS
331
12AF
102
}
 70
     0
280
     1
281
     0
1001
ACAD
1000
DesignCenter Data
1002
{
1070
     1
1070
     0
1002
}
  0
BLOCK_RECORD
  5
4403
330
436F
100
AcDbSymbolTableRecord
100
AcDbBlockTableRecord
  2
1_2INWASHER
340
0
102
{BLKREFS
331
12B0
102
}
 70
     0
280
     1
281
     0
1001
ACAD
1000
DesignCenter Data
1002
{
1070
     1
1070
     0
1002
}
  0
BLOCK_RECORD
  5
4405
330
436F
100
AcDbSymbolTableRecord
100
AcDbBlockTableRecord
  2
3_4INWASHER
340
0
102
{BLKREFS
331
12B1
102
}
 70
     0
280
     1
281
     0
1001
ACAD
1000
DesignCenter Data
1002
{
1070
     1
1070
     0
1002
}
  0
BLOCK_RECORD
  5
4409
330
436F
100
AcDbSymbolTableRecord
100
AcDbBlockTableRecord
  2
LOCKNUT
340
0
102
{BLKREFS
331
7CB0
331
7CB8
331
7CC0
331
7CC2
331
7CC4
331
7CC6
331
12B3
102
}
 70
     0
280
     1
281
     0
1001
ACAD
1000
DesignCenter Data
1002
{
1070
     1
1070
     0
1002
}
  0
BLOCK_RECORD
  5
4411
330
436F
100
AcDbSymbolTableRecord
100
AcDbBlockTableRecord
  2
*U5
340
0
102
{BLKREFS
331
1235
102
}
 70
     0
280
     1
281
     0
  0
BLOCK_RECORD
  5
4413
330
436F
100
AcDbSymbolTableRecord
100
AcDbBlockTableRecord
  2
*U6
340
0
102
{BLKREFS
331
1262
102
}
 70
     0
280
     1
281
     0
  0
BLOCK_RECORD
  5
7AEF
330
436F
100
AcDbSymbolTableRecord
100
AcDbBlockTableRecord
  2
HEARN_LOGO
340
0
102
{BLKREFS
331
7B3C
102
}
 70
     1
280
     1
281
     0
1001
ACAD
1000
DesignCenter Data
1002
{
1070
     1
1070
     1
1002
}
  0
BLOCK_RECORD
  5
7AF5
330
436F
100
AcDbSymbolTableRecord
100
AcDbBlockTableRecord
  2
A$C39c31aca
340
0
102
{BLKREFS
331
7B3D
102
}
 70
     1
280
     1
281
     0
1001
ACAD
1000
DesignCenter Data
1002
{
1070
     1
1070
     1
1002
}
  0
BLOCK_RECORD
  5
7C16
330
436F
100
AcDbSymbolTableRecord
100
AcDbBlockTableRecord
  2
*D9
340
0
 70
     0
280
     1
281
     0
  0
BLOCK_RECORD
  5
7C2D
330
436F
100
AcDbSymbolTableRecord
100
AcDbBlockTableRecord
  2
*D10
340
0
 70
     0
280
     1
281
     0
  0
BLOCK_RECORD
  5
7C44
330
436F
100
AcDbSymbolTableRecord
100
AcDbBlockTableRecord
  2
*D11
340
0
 70
     0
280
     1
281
     0
  0
BLOCK_RECORD
  5
7C5B
330
436F
100
AcDbSymbolTableRecord
100
AcDbBlockTableRecord
  2
*D12
340
0
 70
     0
280
     1
281
     0
  0
BLOCK_RECORD
  5
7C72
330
436F
100
AcDbSymbolTableRecord
100
AcDbBlockTableRecord
  2
*D13
340
0
 70
     0
280
     1
281
     0
  0
BLOCK_RECORD
  5
7C89
330
436F
100
AcDbSymbolTableRecord
100
AcDbBlockTableRecord
  2
*D14
340
0
 70
     0
280
     1
281
     0
  0
ENDTAB
  0
ENDSEC
  0
SECTION
  2
BLOCKS
  0
BLOCK
  5
43DE
330
43DD
100
AcDbEntity
  8
0
100
AcDbBlockBegin
  2
*Model_Space
 70
     0
 10
0.0
 20
0.0
 30
0.0
  3
*Model_Space
  1

  0
ENDBLK
  5
43DF
330
43DD
100
AcDbEntity
  8
0
100
AcDbBlockEnd
  0
BLOCK
  5
43DA
330
43D9
100
AcDbEntity
 67
     1
  8
0
100
AcDbBlockBegin
  2
*Paper_Space
 70
     0
 10
0.0
 20
0.0
 30
0.0
  3
*Paper_Space
  1

  0
ENDBLK
  5
43DB
330
43D9
100
AcDbEntity
 67
     1
  8
0
100
AcDbBlockEnd
  0
BLOCK
  5
4400
330
43FF
100
AcDbEntity
  8
0
100
AcDbBlockBegin
  2
1INHALFWASHER
 70
     0
 10
0.0
 20
0.0
 30
0.0
  3
1INHALFWASHER
  1

  0
CIRCLE
  5
1270
330
43FF
100
AcDbEntity
  8
HARDWARE
  6
Continuous
100
AcDbCircle
 10
0.0
 20
0.0
 30
0.0
 40
0.1015625
  0
CIRCLE
  5
1271
330
43FF
100
AcDbEntity
  8
HARDWARE
  6
HIDDENX2
100
AcDbCircle
 10
0.0
 20
0.0
 30
0.0
 40
0.1015625
  0
LWPOLYLINE
  5
1272
330
43FF
100
AcDbEntity
  8
HARDWARE
100
AcDbPolyline
 90
        2
 70
     1
 43
0.0
 10
0.15421861147683
 20
-0.475622350057436
 10
0.15421861147683
 20
0.475622350057437
 42
1.375500145015949
  0
ENDBLK
  5
1273
330
43FF
100
AcDbEntity
  8
0
100
AcDbBlockEnd
  0
BLOCK
  5
4402
330
4401
100
AcDbEntity
  8
0
100
AcDbBlockBegin
  2
1INWASHER
 70
     0
 10
0.0
 20
0.0
 30
0.0
  3
1INWASHER
  1

  0
CIRCLE
  5
1276
330
4401
100
AcDbEntity
  8
HARDWARE
  6
Continuous
100
AcDbCircle
 10
0.0
 20
0.0
 30
0.0
 40
0.1015625
  0
CIRCLE
  5
1277
330
4401
100
AcDbEntity
  8
HARDWARE
  6
HIDDENX2
100
AcDbCircle
 10
0.0
 20
0.0
 30
0.0
 40
0.1015625
  0
CIRCLE
  5
1278
330
4401
100
AcDbEntity
  8
HARDWARE
100
AcDbCircle
 10
0.0
 20
0.0
 30
0.0
 40
0.5
  0
ENDBLK
  5
1279
330
4401
100
AcDbEntity
  8
0
100
AcDbBlockEnd
  0
BLOCK
  5
4404
330
4403
100
AcDbEntity
  8
0
100
AcDbBlockBegin
  2
1_2INWASHER
 70
     0
 10
0.0
 20
0.0
 30
0.0
  3
1_2INWASHER
  1

  0
CIRCLE
  5
127C
330
4403
100
AcDbEntity
  8
HARDWARE
  6
Continuous
100
AcDbCircle
 10
0.0
 20
0.0
 30
0.0
 40
0.1015625
  0
CIRCLE
  5
127D
330
4403
100
AcDbEntity
  8
HARDWARE
  6
HIDDENX2
100
AcDbCircle
 10
0.0
 20
0.0
 30
0.0
 40
0.1015625
  0
CIRCLE
  5
127E
330
4403
100
AcDbEntity
  8
HARDWARE
100
AcDbCircle
 10
0.0
 20
0.0
 30
0.0
 40
0.25
  0
ENDBLK
  5
127F
330
4403
100
AcDbEntity
  8
0
100
AcDbBlockEnd
  0
BLOCK
  5
4406
330
4405
100
AcDbEntity
  8
0
100
AcDbBlockBegin
  2
3_4INWASHER
 70
     0
 10
0.0
 20
0.0
 30
0.0
  3
3_4INWASHER
  1

  0
CIRCLE
  5
1282
330
4405
100
AcDbEntity
  8
HARDWARE
  6
Continuous
100
AcDbCircle
 10
0.0
 20
0.0
 30
0.0
 40
0.1015625
  0
CIRCLE
  5
1283
330
4405
100
AcDbEntity
  8
HARDWARE
  6
HIDDENX2
100
AcDbCircle
 10
0.0
 20
0.0
 30
0.0
 40
0.1015625
  0
CIRCLE
  5
1284
330
4405
100
AcDbEntity
  8
HARDWARE
100
AcDbCircle
 10
0.0
 20
0.0
 30
0.0
 40
0.375
  0
ENDBLK
  5
1285
330
4405
100
AcDbEntity
  8
0
100
AcDbBlockEnd
  0
BLOCK
  5
440A
330
4409
100
AcDbEntity
  8
0
100
AcDbBlockBegin
  2
LOCKNUT
 70
     0
 10
0.0
 20
0.0
 30
0.0
  3
LOCKNUT
  1

  0
CIRCLE
  5
128D
330
4409
100
AcDbEntity
  8
BACKWASHER
  6
Continuous
100
AcDbCircle
 10
0.0
 20
0.0
 30
0.0
 40
0.1015625
  0
CIRCLE
  5
128E
330
4409
100
AcDbEntity
  8
BACKWASHER
  6
Continuous
100
AcDbCircle
 10
0.0
 20
0.0
 30
0.0
 40
0.1316
  0
CIRCLE
  5
128F
330
4409
100
AcDbEntity
  8
BACKWASHER
  6
HIDDENX2
100
AcDbCircle
 10
0.0
 20
0.0
 30
0.0
 40
0.1015625
  0
LWPOLYLINE
  5
1290
330
4409
100
AcDbEntity
  8
BACKWASHER
  6
Continuous
100
AcDbPolyline
 90
        6
 70
     1
 43
0.0
 10
-0.188000000000004
 20
0.108541850607647
 10
-0.188000000000004
 20
-0.108541850607653
 10
0.0
 20
-0.217083701215296
 10
0.188000000000002
 20
-0.108541850607653
 10
0.188000000000002
 20
0.108541850607647
 10
0.0
 20
0.2170837012153
  0
ENDBLK
  5
1291
330
4409
100
AcDbEntity
  8
0
100
AcDbBlockEnd
  0
BLOCK
  5
4412
330
4411
100
AcDbEntity
  8
0
100
AcDbBlockBegin
  2
*U5
 70
     1
 10
0.0
 20
0.0
 30
0.0
  3
*U5
  1

  0
TEXT
  5
4318
330
4411
100
AcDbEntity
  8
TEXT
100
AcDbText
 10
33.2808484595739
 20
0.124999985098835
 30
0.0
 40
0.075000002980232
  1
INCHES
100
AcDbText
  0
ENDBLK
  5
431A
330
4411
100
AcDbEntity
  8
0
100
AcDbBlockEnd
  0
BLOCK
  5
4414
330
4413
100
AcDbEntity
  8
0
100
AcDbBlockBegin
  2
*U6
 70
     1
 10
0.0
 20
0.0
 30
0.0
  3
*U6
  1

  0
TEXT
  5
431C
330
4413
100
AcDbEntity
  8
0
100
AcDbText
 10
14.0066015820195
 20
0.0572981177625293
 30
0.0
 40
0.05
  1
THIS DRAWING IS PROPERTY OF HEARN ENGINEERING, LLC.  THIS DRAWING MAY ONLY BE USED FOR MATERIAL SUPPLIED BY HEARN ENGINEERING, LLC.
100
AcDbText
  0
ENDBLK
  5
431E
330
4413
100
AcDbEntity
  8
0
100
AcDbBlockEnd
  0
BLOCK
  5
7AF0
330
7AEF
100
AcDbEntity
  8
0
100
AcDbBlockBegin
  2
HEARN_LOGO
 70
     0
 10
0.0
 20
0.0
 30
0.0
  3
HEARN_LOGO
  1

  0
HATCH
  5
7AF1
330
7AEF
100
AcDbEntity
  8
0
 62
   154
100
AcDbHatch
 10
0.0
 20
0.0
 30
0.0
210
0.0
220
0.0
230
1.0
  2
SOLID
 70
     1
 71
     0
 91
        7
 92
        7
 72
     0
 73
     1
 93
       30
 10
1.09599693735768
 20
1.028934240499709
 10
1.09599693735768
 20
1.208582075455389
 10
1.12063634584985
 20
1.223969208687919
 10
1.12063634584985
 20
1.264573772664189
 10
0.9713238548598679
 20
1.264573772664189
 10
0.9713238548598679
 20
1.223969208687919
 10
0.9959632633520449
 20
1.208582075455389
 10
0.9959632633520449
 20
0.972671278821174
 10
0.58334797312396
 20
0.972671278821174
 10
0.58334797312396
 20
1.208582075455389
 10
0.6079873816161341
 20
1.223969208687919
 10
0.6079873816161341
 20
1.264573772664189
 10
0.458674890626153
 20
1.264573772664189
 10
0.458674890626153
 20
1.223969208687919
 10
0.4833142991183271
 20
1.208582075455389
 10
0.4833142991183271
 20
0.834526907737867
 10
0.4833142991183271
 20
0.6548790727821899
 10
0.458674890626153
 20
0.639491939549658
 10
0.458674890626153
 20
0.598887375573391
 10
0.6079873816161341
 20
0.598887375573391
 10
0.6079873816161341
 20
0.639491939549658
 10
0.58334797312396
 20
0.6548790727821899
 10
0.58334797312396
 20
0.892887933663934
 10
0.9959632633520449
 20
0.892887933663934
 10
0.9959632633520449
 20
0.6548790727821899
 10
0.9713238548598679
 20
0.639491939549658
 10
0.9713238548598679
 20
0.598887375573391
 10
1.12063634584985
 20
0.598887375573391
 10
1.12063634584985
 20
0.639491939549658
 10
1.09599693735768
 20
0.6548790727821899
 97
        0
 92
        7
 72
     0
 73
     1
 93
       28
 10
1.622755221772469
 20
0.9343758469606219
 10
1.590911194180179
 20
0.9343758469606219
 10
1.578843873484169
 20
0.915052452567294
 10
1.36258704206654
 20
0.9150831872181679
 10
1.36258704206654
 20
1.07105984006135
 10
1.69952525596032
 20
1.07105984006135
 10
1.71159257665633
 20
1.05173644566802
 10
1.74343660424861
 20
1.05173644566802
 10
1.74343660424861
 20
1.168834392729769
 10
1.71159257665633
 20
1.168834392729769
 10
1.69952525596032
 20
1.149510998336439
 10
1.251697169931419
 20
1.149510998336439
 10
1.251697169931419
 20
1.116272058649969
 10
1.2718670161896
 20
1.103676134857689
 10
1.2718670161896
 20
0.644722239052145
 10
1.251697169931419
 20
0.6321263152598641
 10
1.251697169931419
 20
0.598887375573391
 10
1.69952525596032
 20
0.598887375573391
 10
1.71159257665633
 20
0.5795639811800629
 10
1.74343660424861
 20
0.5795639811800629
 10
1.74343660424861
 20
0.6966619282418111
 10
1.71159257665633
 20
0.6966619282418111
 10
1.69952525596032
 20
0.677338533848484
 10
1.36258704206654
 20
0.677338533848484
 10
1.36258704206654
 20
0.836632028943076
 10
1.578843873484169
 20
0.836601294292201
 10
1.590911194180179
 20
0.8172778998988739
 10
1.622755221772469
 20
0.8172778998988739
 97
        0
 92
        7
 72
     0
 73
     1
 93
       33
 10
2.14381011665405
 20
1.088401949723579
 10
2.14381011665405
 20
1.105225628632639
 10
2.16064750156929
 20
1.105225628632639
 10
2.171872424846109
 20
1.11644144779078
 10
2.171872424846109
 20
1.131395773678669
 10
2.15784127075008
 20
1.149510998336439
 10
2.00417130538177
 20
1.149510998336439
 10
1.99014015128574
 20
1.131395773678669
 10
1.99014015128574
 20
1.11644144779078
 10
2.001365074562559
 20
1.105225628632639
 10
2.01820245947779
 20
1.105225628632639
 10
2.01820245947779
 20
1.088401949723579
 10
1.81652302142136
 20
0.653226970511952
 10
1.787510186288689
 20
0.624361221997029
 10
1.77403211991383
 20
0.624361221997029
 10
1.77403211991383
 20
0.598887375573391
 10
1.92713509630381
 20
0.598887375573391
 10
1.92713509630381
 20
0.6219146596412321
 10
1.911900002186849
 20
0.6326599017140671
 10
1.896217105279579
 20
0.6326599017140671
 10
1.943312561062499
 20
0.738586783683159
 10
2.20365161014235
 20
0.738586783683159
 10
2.255660087087079
 20
0.643934717406424
 10
2.24938948068612
 20
0.6376692061834111
 10
2.24938948068612
 20
0.6326599017140671
 10
2.245322337480829
 20
0.6326599017140671
 10
2.242105285249579
 20
0.6303909295160431
 10
2.23151337560894
 20
0.6198076263260171
 10
2.23151337560894
 20
0.598887375573391
 10
2.387980456218029
 20
0.598887375573391
 10
2.387980456218029
 20
0.624361221997029
 10
2.374502389843169
 20
0.624361221997029
 10
2.34548955471049
 20
0.6532269705119531
 97
        0
 92
       23
 72
     0
 73
     1
 93
        3
 10
2.077345699658479
 20
1.04295827475454
 10
2.18136242565847
 20
0.8109677579554389
 10
1.97518627276329
 20
0.8109677579554389
 97
        0
 92
        5
 93
       23
 72
     4
 94
        3
 73
     0
 74
     0
 95
       15
 96
       11
 40
0.0
 40
0.0
 40
0.0
 40
0.0
 40
0.0851553307409796
 40
0.171033711273708
 40
0.263077495763238
 40
0.3581969501234401
 40
0.436073267657124
 40
0.5087496361452061
 40
0.5922095367760951
 40
0.6960680638153721
 40
0.6960680638153721
 40
0.6960680638153721
 40
0.6960680638153721
 10
2.818584656806269
 20
0.8352322750842679
 10
2.83836465904261
 20
0.8406498204453571
 10
2.87809261455688
 20
0.8515309112829799
 10
2.93238994077431
 20
0.8862852322005721
 10
2.96824259076785
 20
0.946183875295299
 10
2.962447663545809
 20
1.010809876457949
 10
2.951601990113089
 20
1.07112669805249
 10
2.90639667321247
 20
1.10868181339684
 10
2.851712798368239
 20
1.139282644491349
 10
2.806725351802869
 20
1.14586269531244
 10
2.781782104127509
 20
1.149510998336439
 97
        0
 72
     1
 10
2.781782104127509
 20
1.149510998336439
 11
2.43520097559316
 21
1.149510998336439
 72
     1
 10
2.43520097559316
 20
1.149510998336439
 11
2.43520097559316
 21
1.11224541895206
 72
     1
 10
2.43520097559316
 20
1.11224541895206
 11
2.46424822203443
 21
1.092387205471359
 72
     1
 10
2.46424822203444
 20
1.092387205471359
 11
2.46424822203444
 21
0.6352627251604531
 72
     1
 10
2.46424822203444
 20
0.6352627251604531
 11
2.44723878057636
 21
0.6352627251604531
 72
     1
 10
2.44723878057636
 20
0.6352627251604531
 11
2.43478302632223
 21
0.622817147164399
 72
     1
 10
2.43478302632223
 20
0.6228171471644
 11
2.43478302632223
 21
0.598887375573391
 72
     1
 10
2.43478302632223
 20
0.598887375573391
 11
2.590777236300279
 21
0.598887375573391
 72
     1
 10
2.59077723630029
 20
0.598887375573391
 11
2.59077723630029
 21
0.628743608131268
 72
     1
 10
2.59077723630029
 20
0.628743608131268
 11
2.57239020305222
 21
0.628743608131268
 72
     1
 10
2.57239020305222
 20
0.628743608131268
 11
2.554002941914689
 21
0.644745122501207
 72
     1
 10
2.554002941914689
 20
0.644745122501207
 11
2.554002941914689
 21
0.830068184871855
 72
     1
 10
2.554002941914689
 20
0.830068184871855
 11
2.73002817971039
 21
0.830068184871855
 72
     1
 10
2.7300281797104
 20
0.830068184871855
 11
2.85837370086764
 21
0.6412104129208601
 72
     1
 10
2.858373700867629
 20
0.6412104129208601
 11
2.858373700867629
 21
0.6264947638900941
 72
     1
 10
2.858373700867629
 20
0.6264947638900941
 11
2.83812321549929
 21
0.6264947638900941
 72
     1
 10
2.838123215499299
 20
0.6264947638900941
 11
2.838123215499299
 21
0.598887375573391
 72
     1
 10
2.838123215499299
 20
0.598887375573391
 11
2.991843088659459
 21
0.598887375573391
 72
     1
 10
2.991843088659459
 20
0.598887375573391
 11
2.991843088659459
 21
0.6232757654927679
 72
     1
 10
2.991843088659459
 20
0.6232757654927679
 11
2.974353939886579
 21
0.6232757654927679
 72
     1
 10
2.974353939886579
 20
0.6232757654927679
 11
2.95732512782437
 21
0.6324730461370091
 72
     1
 10
2.95732512782437
 20
0.6324730461370091
 11
2.818584656806269
 21
0.835232275084267
 97
        0
 92
       21
 93
        4
 72
     1
 10
2.554002941914689
 20
1.070984219563889
 11
2.77650281688067
 21
1.070984219563889
 72
     4
 94
        3
 73
     0
 74
     0
 95
       14
 96
       10
 40
0.0
 40
0.0
 40
0.0
 40
0.0
 40
0.0718864475841751
 40
0.134441872909996
 40
0.182153615110412
 40
0.238854870766989
 40
0.297641220596256
 40
0.333419735005583
 40
0.381476131873447
 40
0.381476131873447
 40
0.381476131873447
 40
0.381476131873447
 10
2.77650281688067
 20
1.070984219563889
 10
2.79375274787968
 20
1.06914177487301
 10
2.82601353011349
 20
1.06569603894781
 10
2.865986783061649
 20
1.04434525182368
 10
2.889136475584859
 20
1.00901654301597
 10
2.886655349868029
 20
0.9683246209944108
 10
2.872666869700639
 20
0.932923887214757
 10
2.84323309266893
 20
0.913199726287765
 10
2.82353427016547
 20
0.9086644377734028
 10
2.81224238212462
 20
0.9060646899900969
 97
        0
 72
     1
 10
2.812242382124629
 20
0.9060646899900969
 11
2.554002941914689
 21
0.9060646899900969
 72
     1
 10
2.554002941914689
 20
0.9060646899900969
 11
2.554002941914689
 21
1.070984219563889
 97
        0
 92
        7
 72
     0
 73
     1
 93
       29
 10
3.16847291719452
 20
1.045083330230099
 10
3.513174641346299
 20
0.637608833957998
 10
3.495726740565829
 20
0.622579865495603
 10
3.48188883673249
 20
0.622579865495603
 10
3.48188883673249
 20
0.598887375573391
 10
3.63511191086838
 20
0.598887375573391
 10
3.63511191086838
 20
0.6321263152598641
 10
3.614942064610199
 20
0.644722239052145
 10
3.614942064610199
 20
1.103676134857689
 10
3.63511191086838
 20
1.116272058649969
 10
3.63511191086838
 20
1.149510998336439
 10
3.51732743722989
 20
1.149510998336439
 10
3.51732743722989
 20
1.116272058649969
 10
3.537497283488069
 20
1.103676134857689
 10
3.537497283488069
 20
0.726205882630862
 10
3.23136220433034
 20
1.07477943073276
 10
3.23136220433034
 20
1.097525185731129
 10
3.2611309488042
 20
1.12158331464657
 10
3.2611309488042
 20
1.132956192145749
 10
3.244057698297109
 20
1.149510998336439
 10
3.070858289814209
 20
1.149510998336439
 10
3.070858289814209
 20
1.116272058649969
 10
3.091028136072389
 20
1.103676134857689
 10
3.091028136072389
 20
0.644722239052145
 10
3.070858289814209
 20
0.6321263152598641
 10
3.070858289814209
 20
0.598887375573391
 10
3.1886427634527
 20
0.598887375573391
 10
3.1886427634527
 20
0.6321263152598641
 10
3.16847291719452
 20
0.644722239052145
 97
        0
 75
     1
 76
     1
 47
0.0
 98
        1
 10
0.0
 20
0.0
450
        0
451
        0
460
0.0
461
0.0
452
        0
462
0.0
453
        0
470

1001
GRADIENTCOLOR1ACI
1070
     5
1001
GRADIENTCOLOR2ACI
1070
     2
1001
ACAD
1010
0.0
1020
0.0
1030
0.0
  0
HATCH
  5
7AF2
330
7AEF
100
AcDbEntity
  8
0
 62
   154
100
AcDbHatch
 10
0.0
 20
0.0
 30
0.0
210
0.0
220
0.0
230
1.0
  2
SOLID
 70
     1
 71
     0
 91
       14
 92
        5
 93
        4
 72
     1
 10
2.66885434536885
 20
0.348689150673652
 11
2.66885434536885
 21
0.284027220111967
 72
     1
 10
2.66885434536885
 20
0.284027220111967
 11
2.80326212566708
 21
0.284027220111967
 72
     4
 94
        3
 73
     0
 74
     0
 95
       12
 96
        8
 40
0.0
 40
0.0
 40
0.0
 40
0.0
 40
0.0095359067847786
 40
0.0304032332031397
 40
0.0610092011482905
 40
0.089785101535176
 40
0.109350424257626
 40
0.109350424257626
 40
0.109350424257626
 40
0.109350424257626
 10
2.803262125667089
 20
0.284027220111967
 10
2.805423460356789
 20
0.284873124061076
 10
2.812314421445659
 20
0.287570110893337
 10
2.820810988201269
 20
0.300402537137734
 10
2.827920756149719
 20
0.318994395262322
 10
2.820730428223059
 20
0.33856481889153
 10
2.811543611108
 20
0.3457721149705399
 10
2.80782539650593
 20
0.348689150673652
 97
        0
 72
     1
 10
2.80782539650593
 20
0.348689150673652
 11
2.668854345368859
 21
0.348689150673652
 97
        0
 92
        7
 72
     0
 73
     1
 93
        4
 10
4.078457103167769
 20
0.5078751562816891
 10
-0.0024251543839
 20
0.5078751562816891
 10
-0.0024251543839
 20
0.0029932090897505
 10
4.078457103167769
 20
0.0029932090897505
 97
        0
 92
       21
 93
       16
 72
     4
 94
        3
 73
     0
 74
     0
 95
       20
 96
       16
 40
0.0
 40
0.0
 40
0.0
 40
0.0
 40
0.0381734241584024
 40
0.0816475976489086
 40
0.179409039507798
 40
0.288751144724337
 40
0.366062521971206
 40
0.4521610852648961
 40
0.542669537683521
 40
0.643121548958673
 40
0.729335954477966
 40
0.833157645872356
 40
0.9625907656562057
 40
1.0449798923101
 40
1.113042397856699
 40
1.113042397856699
 40
1.113042397856699
 40
1.113042397856699
 10
3.84013686604556
 20
0.151117013468982
 10
3.83281545856237
 20
0.145523505061014
 10
3.817155995320849
 20
0.133559775476671
 10
3.776123940730999
 20
0.119055699623259
 10
3.71711524722717
 20
0.107125792732462
 10
3.64895966090765
 20
0.101806361413155
 10
3.5824708516279
 20
0.113537174840569
 10
3.53544878093804
 20
0.155073962864294
 10
3.497340437877569
 20
0.212523625510756
 10
3.501389958269959
 20
0.282295031769417
 10
3.525180001794629
 20
0.349031241915666
 10
3.589637530160499
 20
0.400240426274193
 10
3.66772886381124
 20
0.403732235209304
 10
3.7350276979482
 20
0.4007402557623641
 10
3.769390056458589
 20
0.38900710866311
 10
3.78493517340083
 20
0.383699174293492
 97
        0
 72
     1
 10
3.78493517340083
 20
0.383699174293492
 11
3.8184294584686
 21
0.383699174293492
 72
     1
 10
3.8184294584686
 20
0.383699174293492
 11
3.777633054240529
 21
0.309822375964915
 72
     1
 10
3.777633054240529
 20
0.309822375964915
 11
3.770517388957149
 21
0.328307933174648
 72
     4
 94
        3
 73
     0
 74
     0
 95
       19
 96
       15
 40
0.0
 40
0.0
 40
0.0
 40
0.0
 40
0.0460326516190259
 40
0.103996703403937
 40
0.153883985561322
 40
0.211812021331028
 40
0.269536930726395
 40
0.335426703822029
 40
0.407336652221211
 40
0.468339698552081
 40
0.5335528218577151
 40
0.598010359727911
 40
0.666122862249115
 40
0.7239168728792232
 40
0.7239168728792232
 40
0.7239168728792232
 40
0.7239168728792232
 10
3.770517388957149
 20
0.328307933174647
 10
3.760635662127419
 20
0.333245767393556
 10
3.738310921360029
 20
0.3444012942350589
 10
3.7028083646381
 20
0.355882714375887
 10
3.662217160061789
 20
0.356213023471904
 10
3.624550659692479
 20
0.342387119071789
 10
3.587180064101319
 20
0.316718300755154
 10
3.570853171667839
 20
0.271076583437108
 10
3.566621764431169
 20
0.220705278277709
 10
3.59767792264287
 20
0.181386578655743
 10
3.638029662938989
 20
0.156266207763722
 10
3.686375690412409
 20
0.157275157565009
 10
3.73321668306033
 20
0.156847583228051
 10
3.759409689644989
 20
0.173091915288908
 10
3.771432887358099
 20
0.180548440581416
 97
        0
 72
     1
 10
3.771432887358099
 20
0.180548440581417
 11
3.771432887358099
 21
0.221591849303318
 72
     1
 10
3.771432887358099
 20
0.221591849303318
 11
3.69473161579642
 21
0.221591849303318
 72
     1
 10
3.69473161579641
 20
0.221591849303318
 11
3.67328432288725
 21
0.198346042710796
 72
     1
 10
3.67328432288725
 20
0.198346042710796
 11
3.67328432288725
 21
0.286607487086074
 72
     1
 10
3.67328432288725
 20
0.286607487086074
 11
3.69473161579641
 21
0.263361680493552
 72
     1
 10
3.69473161579641
 20
0.263361680493552
 11
3.84304498749268
 21
0.263361680493552
 72
     1
 10
3.84304498749268
 20
0.263361680493552
 11
3.84304498749268
 21
0.255734136723812
 72
     1
 10
3.84304498749268
 20
0.255734136723812
 11
3.825596423231349
 21
0.24338481095924
 72
     1
 10
3.825596423231349
 20
0.24338481095924
 11
3.825596423231349
 21
0.159845148578793
 72
     1
 10
3.825596423231349
 20
0.159845148578793
 11
3.84013686604556
 21
0.159845148578793
 72
     1
 10
3.84013686604556
 20
0.159845148578793
 11
3.84013686604556
 21
0.15111701346898
 97
        0
 92
       23
 72
     0
 73
     1
 93
       30
 10
3.45224380817035
 20
0.116028133332574
 10
3.45200835671379
 20
0.105160129981082
 10
3.346390814362499
 20
0.105160129981082
 10
3.346390814362499
 20
0.114963602665448
 10
3.357458625313749
 20
0.114963602665448
 10
3.357458625313749
 20
0.138146820331734
 10
3.201046511797999
 20
0.295634198002778
 10
3.188237906727069
 20
0.295634198002778
 10
3.188237906727069
 20
0.130147534156528
 10
3.20276733330693
 20
0.116028133332574
 10
3.202531881850379
 20
0.105160129981082
 10
3.10845771647316
 20
0.105160129981082
 10
3.108222265016599
 20
0.116028133332574
 10
3.122751691596459
 20
0.130147534156528
 10
3.122751691596459
 20
0.390873521901915
 10
3.105663703483339
 20
0.390873521901915
 10
3.105663703483339
 20
0.402532260276149
 10
3.221863601098049
 20
0.402532260276149
 10
3.221539855345279
 20
0.394763976906886
 10
3.212153201571599
 20
0.390236257491677
 10
3.212153201571599
 20
0.365333549052198
 10
3.374424471032779
 20
0.219873183930658
 10
3.374424471032779
 20
0.3914578666905859
 10
3.35695354545993
 20
0.3914578666905859
 10
3.35695354545993
 20
0.402532260276149
 10
3.454802369703609
 20
0.402532260276149
 10
3.454802369703609
 20
0.390873521901915
 10
3.4505660521209
 20
0.390873521901915
 10
3.43771438159048
 20
0.382859794317739
 10
3.43771438159048
 20
0.130147534156528
 97
        0
 92
       23
 72
     0
 73
     1
 93
       12
 10
3.05297455292153
 20
0.11395973828696
 10
3.05297455292153
 20
0.105160129981082
 10
2.945762422744169
 20
0.105160129981082
 10
2.945762422744169
 20
0.11395973828696
 10
2.96362878180377
 20
0.128597621979267
 10
2.96362878180377
 20
0.391923861347331
 10
2.94600034052186
 20
0.391923861347331
 10
2.94600034052186
 20
0.402532260276149
 10
3.052736635143839
 20
0.402532260276149
 10
3.052736635143839
 20
0.391923861347331
 10
3.03510819386193
 20
0.391923861347331
 10
3.03510819386193
 20
0.128597621979267
 97
        0
 92
       21
 93
       21
 72
     1
 10
2.909556186736319
 20
0.123408256124754
 11
2.909556186736319
 21
0.105160129981082
 72
     1
 10
2.909556186736319
 20
0.105160129981082
 11
2.793008083754919
 21
0.105160129981082
 72
     1
 10
2.793008083754919
 20
0.105160129981082
 11
2.793008083754919
 21
0.115929640476197
 72
     1
 10
2.793008083754919
 20
0.115929640476197
 11
2.80423515238923
 21
0.115929640476197
 72
     1
 10
2.80423515238923
 20
0.115929640476197
 11
2.80423515238923
 21
0.134626179597597
 72
     1
 10
2.80423515238923
 20
0.134626179597597
 11
2.736872464573489
 21
0.231314047925137
 72
     1
 10
2.736872464573489
 20
0.231314047925137
 11
2.66790293941824
 21
0.231314047925137
 72
     1
 10
2.66790293941824
 20
0.231314047925137
 11
2.66790293941824
 21
0.12700847800044
 72
     1
 10
2.66790293941824
 20
0.12700847800044
 11
2.684479262939019
 21
0.11539546513934
 72
     1
 10
2.684479262939019
 20
0.11539546513934
 11
2.68455348083731
 21
0.105160129981082
 72
     1
 10
2.68455348083731
 20
0.105160129981082
 11
2.580153272849879
 21
0.105160129981082
 72
     1
 10
2.580153272849879
 20
0.105160129981082
 11
2.580227490748169
 21
0.11539546513934
 72
     1
 10
2.580227490748169
 20
0.11539546513934
 11
2.59680381426895
 21
0.12700847800044
 72
     1
 10
2.59680381426895
 20
0.12700847800044
 11
2.59680381426895
 21
0.39235554029886
 72
     1
 10
2.59680381426895
 20
0.39235554029886
 11
2.580310569712839
 21
0.39235554029886
 72
     1
 10
2.580310569712839
 20
0.39235554029886
 11
2.580310569712839
 21
0.402532260276149
 72
     1
 10
2.580310569712839
 20
0.402532260276149
 11
2.83132975125124
 21
0.402532260276149
 72
     4
 94
        3
 73
     0
 74
     0
 95
       15
 96
       11
 40
0.0
 40
0.0
 40
0.0
 40
0.0
 40
0.0407248746380169
 40
0.0823943087110891
 40
0.115414026687751
 40
0.161461129390573
 40
0.211192022661371
 40
0.259417396822929
 40
0.3059893801444
 40
0.331703142333405
 40
0.331703142333405
 40
0.331703142333405
 40
0.331703142333405
 10
2.83132975125124
 20
0.402532260276149
 10
2.839696853466209
 20
0.3975114393193161
 10
2.85662512173088
 20
0.387353346124987
 10
2.881003928749339
 20
0.373702654401671
 10
2.897523846334109
 20
0.347222904105406
 10
2.88997608020358
 20
0.3161273650118739
 10
2.90010529154227
 20
0.27878815189906
 10
2.86925748664566
 20
0.255150092528077
 10
2.844771621585929
 20
0.239066877867799
 10
2.82709612657358
 20
0.23925865828081
 10
2.82080853180491
 20
0.239326879143691
 97
        0
 72
     1
 10
2.82080853180491
 20
0.23932687914369
 11
2.82080853180491
 21
0.214754250384307
 72
     1
 10
2.82080853180491
 20
0.214754250384307
 11
2.89565596271132
 21
0.123408256124754
 72
     1
 10
2.89565596271132
 20
0.123408256124754
 11
2.909556186736319
 21
0.123408256124754
 97
        0
 92
        5
 93
        4
 72
     4
 94
        3
 73
     0
 74
     0
 95
       12
 96
        8
 40
0.0
 40
0.0
 40
0.0
 40
0.0
 40
0.0095359067847786
 40
0.0304032332031397
 40
0.0610092011482905
 40
0.089785101535176
 40
0.109350424257626
 40
0.109350424257626
 40
0.109350424257626
 40
0.109350424257626
 10
2.803262125667089
 20
0.284027220111967
 10
2.805423460356789
 20
0.284873124061076
 10
2.812314421445659
 20
0.287570110893337
 10
2.820810988201269
 20
0.300402537137734
 10
2.827920756149719
 20
0.318994395262322
 10
2.820730428223059
 20
0.33856481889153
 10
2.811543611108
 20
0.3457721149705399
 10
2.80782539650593
 20
0.348689150673652
 97
        0
 72
     1
 10
2.807541929115129
 20
0.284027220111967
 11
2.66885434536885
 21
0.284027220111967
 72
     1
 10
2.66885434536885
 20
0.284027220111967
 11
2.66885434536885
 21
0.348689150673652
 72
     1
 10
2.66885434536885
 20
0.348689150673652
 11
2.807825396505919
 21
0.348689150673652
 97
        0
 92
       23
 72
     0
 73
     1
 93
       22
 10
2.53413746821486
 20
0.0882106848116116
 10
2.515698931948649
 20
0.105160129981082
 10
2.241335973513879
 20
0.105160129981082
 10
2.241335973513879
 20
0.114740190503472
 10
2.25772578352827
 20
0.119850964591224
 10
2.25772578352827
 20
0.387841425666007
 10
2.241335973513879
 20
0.392952199753759
 10
2.241335973513879
 20
0.402532260276149
 10
2.515698931948649
 20
0.402532260276149
 10
2.53413746821486
 20
0.41948170544562
 10
2.53413746821486
 20
0.32957606979541
 10
2.515698931948649
 20
0.3465255149648811
 10
2.329266481960849
 20
0.3465255149648811
 10
2.329266481960849
 20
0.284252851533057
 10
2.45010651613683
 20
0.284252851533057
 10
2.468545052403039
 20
0.301202296702527
 10
2.468545052403039
 20
0.211296661052318
 10
2.45010651613683
 20
0.228246106221789
 10
2.329266481960849
 20
0.228246106221789
 10
2.329266481960849
 20
0.16116687529235
 10
2.515698931948649
 20
0.16116687529235
 10
2.53413746821486
 20
0.178116320461821
 97
        0
 92
       23
 72
     0
 73
     1
 93
       22
 10
2.194391516490319
 20
0.0882106848116116
 10
2.17595298022412
 20
0.105160129981082
 10
1.901590021789339
 20
0.105160129981082
 10
1.901590021789339
 20
0.114740190503472
 10
1.917979831803729
 20
0.119850964591224
 10
1.917979831803729
 20
0.387841425666007
 10
1.901590021789339
 20
0.392952199753759
 10
1.901590021789339
 20
0.402532260276149
 10
2.17595298022412
 20
0.402532260276149
 10
2.194391516490319
 20
0.41948170544562
 10
2.194391516490319
 20
0.32957606979541
 10
2.17595298022412
 20
0.3465255149648811
 10
1.98952053023631
 20
0.3465255149648811
 10
1.98952053023631
 20
0.284252851533057
 10
2.1103605644123
 20
0.284252851533057
 10
2.1287991006785
 20
0.301202296702527
 10
2.1287991006785
 20
0.211296661052318
 10
2.1103605644123
 20
0.228246106221789
 10
1.98952053023631
 20
0.228246106221789
 10
1.98952053023631
 20
0.16116687529235
 10
2.17595298022412
 20
0.16116687529235
 10
2.194391516490319
 20
0.178116320461821
 97
        0
 92
       23
 72
     0
 73
     1
 93
       30
 10
1.842118731377129
 20
0.116028133332574
 10
1.84188327992058
 20
0.105160129981082
 10
1.73626573756929
 20
0.105160129981082
 10
1.73626573756929
 20
0.114963602665448
 10
1.747333548520539
 20
0.114963602665448
 10
1.747333548520539
 20
0.138146820331734
 10
1.59092143500479
 20
0.295634198002778
 10
1.57811282993385
 20
0.295634198002778
 10
1.57811282993385
 20
0.130147534156528
 10
1.592642256513719
 20
0.116028133332574
 10
1.59240680505716
 20
0.105160129981082
 10
1.49833263967994
 20
0.105160129981082
 10
1.49809718822339
 20
0.116028133332574
 10
1.51262661480325
 20
0.130147534156528
 10
1.51262661480325
 20
0.390873521901915
 10
1.49553862669013
 20
0.390873521901915
 10
1.49553862669013
 20
0.402532260276149
 10
1.611738524304839
 20
0.402532260276149
 10
1.61141477855206
 20
0.394763976906886
 10
1.602028124778379
 20
0.390236257491677
 10
1.602028124778379
 20
0.365333549052198
 10
1.76429939423957
 20
0.219873183930658
 10
1.76429939423957
 20
0.3914578666905859
 10
1.746828468666709
 20
0.3914578666905859
 10
1.746828468666709
 20
0.402532260276149
 10
1.844677292910389
 20
0.402532260276149
 10
1.844677292910389
 20
0.390873521901915
 10
1.840440975327689
 20
0.390873521901915
 10
1.827589304797259
 20
0.382859794317739
 10
1.827589304797259
 20
0.130147534156528
 97
        0
 92
       23
 72
     0
 73
     1
 93
       12
 10
1.449916547378149
 20
0.11395973828696
 10
1.449916547378149
 20
0.105160129981082
 10
1.342704417200779
 20
0.105160129981082
 10
1.342704417200779
 20
0.11395973828696
 10
1.360570776260379
 20
0.128597621979267
 10
1.360570776260379
 20
0.391923861347331
 10
1.342942334978469
 20
0.391923861347331
 10
1.342942334978469
 20
0.402532260276149
 10
1.44967862960045
 20
0.402532260276149
 10
1.44967862960045
 20
0.391923861347331
 10
1.432050188318549
 20
0.391923861347331
 10
1.432050188318549
 20
0.128597621979267
 97
        0
 92
       21
 93
       16
 72
     4
 94
        3
 73
     0
 74
     0
 95
       20
 96
       16
 40
0.0
 40
0.0
 40
0.0
 40
0.0
 40
0.0381734241584024
 40
0.0816475976489086
 40
0.179409039507798
 40
0.288751144724337
 40
0.366062521971206
 40
0.4521610852648961
 40
0.542669537683521
 40
0.643121548958673
 40
0.729335954477966
 40
0.833157645872356
 40
0.9625907656562057
 40
1.0449798923101
 40
1.113042397856699
 40
1.113042397856699
 40
1.113042397856699
 40
1.113042397856699
 10
1.295816857483929
 20
0.151117013468982
 10
1.288495450000749
 20
0.145523505061014
 10
1.27283598675923
 20
0.133559775476671
 10
1.23180393216937
 20
0.119055699623259
 10
1.17279523866553
 20
0.107125792732462
 10
1.10463965234601
 20
0.101806361413155
 10
1.03815084306627
 20
0.113537174840569
 10
0.9911287723764058
 20
0.155073962864294
 10
0.953020429315948
 20
0.212523625510756
 10
0.95706994970833
 20
0.282295031769417
 10
0.9808599932329929
 20
0.349031241915666
 10
1.045317521598869
 20
0.400240426274193
 10
1.12340885524961
 20
0.403732235209304
 10
1.19070768938656
 20
0.4007402557623641
 10
1.225070047896949
 20
0.38900710866311
 10
1.240615164839199
 20
0.383699174293492
 97
        0
 72
     1
 10
1.240615164839199
 20
0.383699174293492
 11
1.27410944990696
 21
0.383699174293492
 72
     1
 10
1.27410944990697
 20
0.383699174293492
 11
1.233313045678899
 21
0.309822375964915
 72
     1
 10
1.233313045678899
 20
0.309822375964915
 11
1.226197380395509
 21
0.328307933174648
 72
     4
 94
        3
 73
     0
 74
     0
 95
       19
 96
       15
 40
0.0
 40
0.0
 40
0.0
 40
0.0
 40
0.0460326516190259
 40
0.103996703403937
 40
0.153883985561322
 40
0.211812021331028
 40
0.269536930726395
 40
0.335426703822029
 40
0.407336652221211
 40
0.468339698552081
 40
0.5335528218577151
 40
0.598010359727911
 40
0.666122862249115
 40
0.7239168728792232
 40
0.7239168728792232
 40
0.7239168728792232
 40
0.7239168728792232
 10
1.226197380395509
 20
0.328307933174647
 10
1.216315653565779
 20
0.333245767393556
 10
1.193990912798379
 20
0.3444012942350589
 10
1.15848835607647
 20
0.355882714375887
 10
1.117897151500159
 20
0.356213023471904
 10
1.080230651130849
 20
0.342387119071789
 10
1.04286005553968
 20
0.316718300755154
 10
1.02653316310621
 20
0.271076583437108
 10
1.022301755869529
 20
0.220705278277709
 10
1.053357914081239
 20
0.181386578655743
 10
1.09370965437737
 20
0.156266207763722
 10
1.142055681850769
 20
0.157275157565009
 10
1.188896674498699
 20
0.156847583228051
 10
1.21508968108335
 20
0.173091915288908
 10
1.22711287879647
 20
0.180548440581416
 97
        0
 72
     1
 10
1.22711287879646
 20
0.180548440581417
 11
1.22711287879646
 21
0.221591849303318
 72
     1
 10
1.22711287879646
 20
0.221591849303318
 11
1.15041160723478
 21
0.221591849303318
 72
     1
 10
1.15041160723478
 20
0.221591849303318
 11
1.12896431432562
 21
0.198346042710796
 72
     1
 10
1.12896431432562
 20
0.198346042710796
 11
1.12896431432562
 21
0.286607487086074
 72
     1
 10
1.12896431432562
 20
0.286607487086074
 11
1.15041160723478
 21
0.263361680493552
 72
     1
 10
1.15041160723478
 20
0.263361680493552
 11
1.298724978931059
 21
0.263361680493552
 72
     1
 10
1.298724978931049
 20
0.263361680493552
 11
1.298724978931049
 21
0.255734136723812
 72
     1
 10
1.298724978931049
 20
0.255734136723812
 11
1.281276414669709
 21
0.24338481095924
 72
     1
 10
1.281276414669719
 20
0.24338481095924
 11
1.281276414669719
 21
0.159845148578793
 72
     1
 10
1.281276414669719
 20
0.159845148578793
 11
1.295816857483929
 21
0.159845148578793
 72
     1
 10
1.295816857483929
 20
0.159845148578793
 11
1.295816857483929
 21
0.151117013468982
 97
        0
 92
       23
 72
     0
 73
     1
 93
       30
 10
0.9117060865788559
 20
0.116028133332574
 10
0.9114706351222958
 20
0.105160129981082
 10
0.8058530927710128
 20
0.105160129981082
 10
0.8058530927710128
 20
0.114963602665448
 10
0.816920903722263
 20
0.114963602665448
 10
0.816920903722263
 20
0.138146820331734
 10
0.660508790206514
 20
0.295634198002778
 10
0.64770018513558
 20
0.295634198002778
 10
0.64770018513558
 20
0.130147534156528
 10
0.6622296117154431
 20
0.116028133332574
 10
0.6619941602588851
 20
0.105160129981082
 10
0.5679199948816671
 20
0.105160129981082
 10
0.5676845434251091
 20
0.116028133332574
 10
0.5822139700049722
 20
0.130147534156528
 10
0.5822139700049722
 20
0.390873521901915
 10
0.5651259818918461
 20
0.390873521901915
 10
0.5651259818918461
 20
0.402532260276149
 10
0.6813258795065589
 20
0.402532260276149
 10
0.6810021337537902
 20
0.394763976906886
 10
0.6716154799801079
 20
0.390236257491677
 10
0.6716154799801079
 20
0.365333549052198
 10
0.8338867494412909
 20
0.219873183930658
 10
0.8338867494412909
 20
0.3914578666905859
 10
0.816415823868439
 20
0.3914578666905859
 10
0.816415823868439
 20
0.402532260276149
 10
0.914264648112119
 20
0.402532260276149
 10
0.914264648112119
 20
0.390873521901915
 10
0.910028330529407
 20
0.390873521901915
 10
0.8971766599989908
 20
0.382859794317739
 10
0.8971766599989908
 20
0.130147534156528
 97
        0
 92
       23
 72
     0
 73
     1
 93
       22
 10
0.519120974853753
 20
0.0882106848116116
 10
0.5006824385875461
 20
0.105160129981082
 10
0.226319480152771
 20
0.105160129981082
 10
0.226319480152771
 20
0.114740190503472
 10
0.242709290167163
 20
0.119850964591224
 10
0.242709290167163
 20
0.387841425666007
 10
0.226319480152771
 20
0.392952199753759
 10
0.226319480152771
 20
0.402532260276149
 10
0.5006824385875461
 20
0.402532260276149
 10
0.519120974853753
 20
0.41948170544562
 10
0.519120974853753
 20
0.32957606979541
 10
0.5006824385875461
 20
0.3465255149648811
 10
0.314249988599745
 20
0.3465255149648811
 10
0.314249988599745
 20
0.284252851533057
 10
0.435090022775729
 20
0.284252851533057
 10
0.453528559041935
 20
0.301202296702527
 10
0.453528559041935
 20
0.211296661052318
 10
0.435090022775729
 20
0.228246106221789
 10
0.314249988599745
 20
0.228246106221789
 10
0.314249988599745
 20
0.16116687529235
 10
0.5006824385875461
 20
0.16116687529235
 10
0.519120974853753
 20
0.178116320461821
 97
        0
 75
     1
 76
     1
 47
0.0
 98
        1
 10
0.0
 20
0.0
450
        0
451
        0
460
0.0
461
0.0
452
        0
462
0.0
453
        0
470

1001
GRADIENTCOLOR1ACI
1070
     5
1001
GRADIENTCOLOR2ACI
1070
     2
1001
ACAD
1010
0.0
1020
0.0
1030
0.0
  0
HATCH
  5
7AF3
330
7AEF
100
AcDbEntity
  8
0
 62
   154
100
AcDbHatch
 10
0.0
 20
0.0
 30
0.0
210
0.0
220
0.0
230
1.0
  2
SOLID
 70
     1
 71
     0
 91
        1
 92
        5
 93
        4
 72
     1
 10
2.66885434536885
 20
0.348689150673652
 11
2.66885434536885
 21
0.284027220111967
 72
     1
 10
2.66885434536885
 20
0.284027220111967
 11
2.80326212566708
 21
0.284027220111967
 72
     4
 94
        3
 73
     0
 74
     0
 95
       12
 96
        8
 40
0.0
 40
0.0
 40
0.0
 40
0.0
 40
0.0095359067847786
 40
0.0304032332031397
 40
0.0610092011482905
 40
0.089785101535176
 40
0.109350424257626
 40
0.109350424257626
 40
0.109350424257626
 40
0.109350424257626
 10
2.803262125667089
 20
0.284027220111967
 10
2.805423460356789
 20
0.284873124061076
 10
2.812314421445659
 20
0.287570110893337
 10
2.820810988201269
 20
0.300402537137734
 10
2.827920756149719
 20
0.318994395262322
 10
2.820730428223059
 20
0.33856481889153
 10
2.811543611108
 20
0.3457721149705399
 10
2.80782539650593
 20
0.348689150673652
 97
        0
 72
     1
 10
2.80782539650593
 20
0.348689150673652
 11
2.668854345368859
 21
0.348689150673652
 97
        0
 75
     1
 76
     1
 47
0.0
 98
        1
 10
0.0
 20
0.0
450
        0
451
        0
460
0.0
461
0.0
452
        0
462
0.0
453
        0
470

1001
GRADIENTCOLOR1ACI
1070
     5
1001
GRADIENTCOLOR2ACI
1070
     2
1001
ACAD
1010
0.0
1020
0.0
1030
0.0
  0
ENDBLK
  5
7AF4
330
7AEF
100
AcDbEntity
  8
0
100
AcDbBlockEnd
  0
BLOCK
  5
7AF8
330
7AF5
100
AcDbEntity
  8
0
100
AcDbBlockBegin
  2
A$C39c31aca
 70
     0
 10
0.0
 20
0.0
 30
0.0
  3
A$C39c31aca
  1

  0
HATCH
  5
7AF9
330
7AF5
100
AcDbEntity
  8
0
 62
   154
100
AcDbHatch
 10
0.0
 20
0.0
 30
0.0
210
0.0
220
0.0
230
1.0
  2
SOLID
 70
     1
 71
     1
 91
        5
 92
        7
 72
     0
 73
     1
 93
       16
 10
0.0026796364110897
 20
0.154849114149839
 10
0.0103936715851649
 20
0.146972678235257
 10
0.0210309200883626
 20
0.144049464906133
 10
0.9985209771990691
 20
0.144049464906133
 10
1.009239426072519
 20
0.1469726782352559
 10
1.01695346124659
 20
0.1548491141498381
 10
1.019633073464959
 20
0.1655675630232896
 10
1.019633073464959
 20
0.4279259593120995
 10
1.01695346124659
 20
0.4386444081855522
 10
1.009239426072519
 20
0.4465208441001342
 10
0.9985209771990689
 20
0.449444057429257
 10
0.0210309200883624
 20
0.449444057429257
 10
0.010393671585165
 20
0.4465208441001341
 10
0.0026796364110897
 20
0.4386444081855521
 10
0.0000000241927243
 20
0.4279259593121
 10
0.0000000241927243
 20
0.16556756302329
 97
        4
330
7B31
330
7AFA
330
7B30
330
7AFC
 92
       22
 72
     0
 73
     1
 93
       12
 10
0.175717625421131
 20
0.4145278982202849
 10
0.168247191357819
 20
0.411442284150655
 10
0.165161577288187
 20
0.4040530504575941
 10
0.1651615772881869
 20
0.19260728631768
 10
0.168247191357819
 20
0.185136852254365
 10
0.175717625421131
 20
0.182051238184735
 10
0.8496806985245457
 20
0.182051238184735
 10
0.8570699322176071
 20
0.185136852254365
 10
0.8601555462872358
 20
0.1926072863176802
 10
0.8601555462872358
 20
0.4040530504575943
 10
0.857069932217607
 20
0.411442284150655
 10
0.8496806985245457
 20
0.414527898220285
 97
        1
330
7B2F
 92
        6
 72
     0
 73
     1
 93
        8
 10
0.736461464870034
 20
0.3921165960303401
 10
0.7308586393225456
 20
0.3876505756664019
 10
0.730858639322546
 20
0.2064925496310152
 10
0.7364614648700343
 20
0.2019453288968239
 10
0.7775488522182621
 20
0.201945328896824
 10
0.783232878135999
 20
0.206492549631015
 10
0.7832328781359991
 20
0.387569375296149
 10
0.7777112529587721
 20
0.39211659603034
 97
        8
330
7B00
330
7B01
330
7B04
330
7B05
330
7B07
330
7B08
330
7AFE
330
7B03
 92
        6
 72
     0
 73
     1
 93
       57
 10
0.470393769070805
 20
0.39211659603034
 10
0.4647097431530671
 20
0.387650575666402
 10
0.4647097431530671
 20
0.206492549631015
 10
0.4703937690708051
 20
0.201945328896824
 10
0.512780362343092
 20
0.201945328896824
 10
0.51838318789058
 20
0.2064925496310149
 10
0.5183831878905801
 20
0.3039329939351228
 10
0.5256912212133848
 20
0.2922401406186274
 10
0.5334864567577263
 20
0.2799788847103427
 10
0.5403884882292513
 20
0.2692604358369156
 10
0.5463973156280088
 20
0.2602471947387964
 10
0.5515129389539759
 20
0.2526955603052082
 10
0.5557353582071544
 20
0.246849133646969
 10
0.559064573387543
 20
0.2425455140235349
 10
0.561500584495144
 20
0.2398659018051719
 10
0.5630433915299613
 20
0.238729096621624
 10
0.6046991814699662
 20
0.238729096621624
 10
0.6049427825807272
 20
0.238810296991878
 10
0.6065667899857932
 20
0.2401095029159322
 10
0.6090840014636516
 20
0.2431139166153084
 10
0.6124944170142966
 20
0.2477423377197552
 10
0.6168792370079803
 20
0.2539947662292663
 10
0.6221572610744538
 20
0.2619524025141037
 10
0.628409689583965
 20
0.2716152465742609
 10
0.6354741217960162
 20
0.2828208976692411
 10
0.6435941588213564
 20
0.2958129569097732
 10
0.648547381406813
 20
0.3038517935648699
 10
0.648547381406813
 20
0.2064925496310149
 10
0.654150206954304
 20
0.201945328896824
 10
0.6965368002265869
 20
0.201945328896824
 10
0.7022208261443291
 20
0.206492549631015
 10
0.7022208261443291
 20
0.387569375296149
 10
0.696699200967098
 20
0.3921165960303401
 10
0.6497690160274407
 20
0.3921165960303401
 10
0.6300336969894503
 20
0.3600018495957864
 10
0.6188280458940817
 20
0.3418535668434837
 10
0.6120884151630407
 20
0.3308915168592665
 10
0.6060795877642664
 20
0.3210662720585904
 10
0.5951373427476835
 20
0.3030536533389756
 10
0.5891800082670676
 20
0.2931670131370852
 10
0.5869975007547187
 20
0.2894793280300111
 10
0.5853734933496507
 20
0.2866373150711424
 10
0.5844802892768627
 20
0.2849321072958212
 10
0.5843178885363601
 20
0.2844449050743019
 10
0.5763602522515311
 20
0.2975993650553477
 10
0.567834213374916
 20
0.3115658287389308
 10
0.5598765770900939
 20
0.3244766876092691
 10
0.552649744137523
 20
0.3361695409257358
 10
0.5394956402985115
 20
0.3569308373463311
 10
0.5344608612007383
 20
0.3646708708846826
 10
0.5296700393558015
 20
0.3719789042074937
 10
0.5255288204728795
 20
0.3780689319764972
 10
0.5219560041817287
 20
0.3831033549322084
 10
0.5190327908526041
 20
0.387082173074628
 10
0.5166779801152553
 20
0.3898429856632451
 10
0.5149727723399329
 20
0.3915481934385669
 10
0.513917167526637
 20
0.39211659603034
 97
        1
330
7B2D
 92
        6
 72
     0
 73
     1
 93
       20
 10
0.2523154920913501
 20
0.39211659603034
 10
0.246712666543866
 20
0.387650575666402
 10
0.2467126665438661
 20
0.206492549631015
 10
0.25231549209135
 20
0.201945328896824
 10
0.295838890547186
 20
0.2019453288968239
 10
0.301522916464927
 20
0.2064925496310151
 10
0.301522916464927
 20
0.274619660273637
 10
0.3845096948639239
 20
0.274619660273637
 10
0.384509694863924
 20
0.206492549631015
 10
0.390193720781665
 20
0.201945328896824
 10
0.432580314053952
 20
0.201945328896824
 10
0.438183139601437
 20
0.206492549631015
 10
0.4381831396014372
 20
0.3875693752961491
 10
0.43274271479446
 20
0.3921165960303401
 10
0.390193720781665
 20
0.3921165960303401
 10
0.3845096948639239
 20
0.387812976406909
 10
0.3845096948639241
 20
0.318467860210486
 10
0.301522916464927
 20
0.318467860210486
 10
0.3015229164649271
 20
0.3875693752961488
 10
0.296001291287693
 20
0.3921165960303401
 97
        1
330
7B2E
 75
     1
 76
     1
 47
0.0
 98
        1
 10
0.0
 20
0.0
450
        0
451
        0
460
0.0
461
0.0
452
        0
462
0.0
453
        0
470

1001
GRADIENTCOLOR1ACI
1070
     5
1001
GRADIENTCOLOR2ACI
1070
     2
1001
ACAD
1010
0.0
1020
0.0
1030
0.0
  0
LINE
  5
7AFA
102
{ACAD_REACTORS
330
7AF9
102
}
330
7AF5
100
AcDbEntity
  8
TITLEBLOCK
 62
   154
100
AcDbLine
 10
0.0000000241927243
 20
0.4283319611633671
 30
0.0
 11
0.0000000241927243
 21
0.16508036080177
 31
0.0
  0
LINE
  5
7AFB
330
7AF5
100
AcDbEntity
  8
TITLEBLOCK
 62
   154
100
AcDbLine
 10
0.0210309200883625
 20
0.144049464906133
 30
0.0
 11
0.9985209771990691
 21
0.144049464906133
 31
0.0
  0
LINE
  5
7AFC
102
{ACAD_REACTORS
330
7AF9
102
}
330
7AF5
100
AcDbEntity
  8
TITLEBLOCK
 62
   154
100
AcDbLine
 10
1.019633073464959
 20
0.16508036080177
 30
0.0
 11
1.019633073464959
 21
0.4283319611633671
 31
0.0
  0
HATCH
  5
7AFD
330
7AF5
100
AcDbEntity
  8
0
 62
   154
100
AcDbHatch
 10
0.0
 20
0.0
 30
0.0
210
0.0
220
0.0
230
1.0
  2
SOLID
 70
     1
 71
     1
 91
        3
 92
        7
 72
     0
 73
     1
 93
       20
 10
0.2523154920913501
 20
0.39211659603034
 10
0.246712666543866
 20
0.387650575666402
 10
0.2467126665438661
 20
0.206492549631015
 10
0.25231549209135
 20
0.201945328896824
 10
0.295838890547186
 20
0.2019453288968239
 10
0.301522916464927
 20
0.2064925496310151
 10
0.301522916464927
 20
0.274619660273637
 10
0.3845096948639239
 20
0.274619660273637
 10
0.384509694863924
 20
0.206492549631015
 10
0.390193720781665
 20
0.201945328896824
 10
0.432580314053952
 20
0.201945328896824
 10
0.438183139601437
 20
0.206492549631015
 10
0.4381831396014372
 20
0.3875693752961491
 10
0.43274271479446
 20
0.3921165960303401
 10
0.390193720781665
 20
0.3921165960303401
 10
0.3845096948639239
 20
0.387812976406909
 10
0.3845096948639241
 20
0.318467860210486
 10
0.301522916464927
 20
0.318467860210486
 10
0.3015229164649271
 20
0.3875693752961488
 10
0.296001291287693
 20
0.3921165960303401
 97
        1
330
7B2E
 92
        7
 72
     0
 73
     1
 93
       57
 10
0.470393769070805
 20
0.39211659603034
 10
0.4647097431530671
 20
0.387650575666402
 10
0.4647097431530671
 20
0.206492549631015
 10
0.4703937690708051
 20
0.201945328896824
 10
0.512780362343092
 20
0.201945328896824
 10
0.51838318789058
 20
0.2064925496310149
 10
0.5183831878905801
 20
0.3039329939351228
 10
0.5256912212133848
 20
0.2922401406186274
 10
0.5334864567577263
 20
0.2799788847103427
 10
0.5403884882292513
 20
0.2692604358369156
 10
0.5463973156280088
 20
0.2602471947387964
 10
0.5515129389539759
 20
0.2526955603052082
 10
0.5557353582071544
 20
0.246849133646969
 10
0.559064573387543
 20
0.2425455140235349
 10
0.561500584495144
 20
0.2398659018051719
 10
0.5630433915299613
 20
0.238729096621624
 10
0.6046991814699662
 20
0.238729096621624
 10
0.6049427825807272
 20
0.238810296991878
 10
0.6065667899857932
 20
0.2401095029159322
 10
0.6090840014636516
 20
0.2431139166153084
 10
0.6124944170142966
 20
0.2477423377197552
 10
0.6168792370079803
 20
0.2539947662292663
 10
0.6221572610744538
 20
0.2619524025141037
 10
0.628409689583965
 20
0.2716152465742609
 10
0.6354741217960162
 20
0.2828208976692411
 10
0.6435941588213564
 20
0.2958129569097732
 10
0.648547381406813
 20
0.3038517935648699
 10
0.648547381406813
 20
0.2064925496310149
 10
0.654150206954304
 20
0.201945328896824
 10
0.6965368002265869
 20
0.201945328896824
 10
0.7022208261443291
 20
0.206492549631015
 10
0.7022208261443291
 20
0.387569375296149
 10
0.696699200967098
 20
0.3921165960303401
 10
0.6497690160274407
 20
0.3921165960303401
 10
0.6300336969894503
 20
0.3600018495957864
 10
0.6188280458940817
 20
0.3418535668434837
 10
0.6120884151630407
 20
0.3308915168592665
 10
0.6060795877642664
 20
0.3210662720585904
 10
0.5951373427476835
 20
0.3030536533389756
 10
0.5891800082670676
 20
0.2931670131370852
 10
0.5869975007547187
 20
0.2894793280300111
 10
0.5853734933496507
 20
0.2866373150711424
 10
0.5844802892768627
 20
0.2849321072958212
 10
0.5843178885363601
 20
0.2844449050743019
 10
0.5763602522515311
 20
0.2975993650553477
 10
0.567834213374916
 20
0.3115658287389308
 10
0.5598765770900939
 20
0.3244766876092691
 10
0.552649744137523
 20
0.3361695409257358
 10
0.5394956402985115
 20
0.3569308373463311
 10
0.5344608612007383
 20
0.3646708708846826
 10
0.5296700393558015
 20
0.3719789042074937
 10
0.5255288204728795
 20
0.3780689319764972
 10
0.5219560041817287
 20
0.3831033549322084
 10
0.5190327908526041
 20
0.387082173074628
 10
0.5166779801152553
 20
0.3898429856632451
 10
0.5149727723399329
 20
0.3915481934385669
 10
0.513917167526637
 20
0.39211659603034
 97
        1
330
7B2D
 92
        7
 72
     0
 73
     1
 93
        8
 10
0.736461464870034
 20
0.3921165960303401
 10
0.7308586393225456
 20
0.3876505756664019
 10
0.730858639322546
 20
0.2064925496310152
 10
0.7364614648700343
 20
0.2019453288968239
 10
0.7775488522182621
 20
0.201945328896824
 10
0.783232878135999
 20
0.206492549631015
 10
0.7832328781359991
 20
0.387569375296149
 10
0.7777112529587721
 20
0.39211659603034
 97
        8
330
7B03
330
7AFE
330
7B08
330
7B07
330
7B05
330
7B04
330
7B01
330
7B00
 75
     1
 76
     1
 47
0.0
 98
        1
 10
0.0
 20
0.0
450
        0
451
        0
460
0.0
461
0.0
452
        0
462
0.0
453
        0
470

1001
GRADIENTCOLOR1ACI
1070
     5
1001
GRADIENTCOLOR2ACI
1070
     2
1001
ACAD
1010
0.0
1020
0.0
1030
0.0
  0
LINE
  5
7AFE
102
{ACAD_REACTORS
330
7AF9
330
7AFD
102
}
330
7AF5
100
AcDbEntity
  8
TITLEBLOCK
 62
   154
100
AcDbLine
 10
0.7364614648700341
 20
0.3921165960303401
 30
0.0
 11
0.7777112529587721
 21
0.3921165960303401
 31
0.0
  0
LINE
  5
7AFF
330
7AF5
100
AcDbEntity
  8
TITLEBLOCK
 62
   154
100
AcDbLine
 10
0.783232878135999
 20
0.3875693752961489
 30
0.0
 11
0.783232878135999
 21
0.3875693752961489
 31
0.0
  0
LINE
  5
7B00
102
{ACAD_REACTORS
330
7AF9
330
7AFD
102
}
330
7AF5
100
AcDbEntity
  8
TITLEBLOCK
 62
   154
100
AcDbLine
 10
0.783232878135999
 20
0.3875693752961489
 30
0.0
 11
0.783232878135999
 21
0.206492549631015
 31
0.0
  0
LINE
  5
7B01
102
{ACAD_REACTORS
330
7AF9
330
7AFD
102
}
330
7AF5
100
AcDbEntity
  8
TITLEBLOCK
 62
   154
100
AcDbLine
 10
0.783232878135999
 20
0.206492549631015
 30
0.0
 11
0.7775488522182621
 21
0.201945328896824
 31
0.0
  0
LINE
  5
7B02
330
7AF5
100
AcDbEntity
  8
TITLEBLOCK
 62
   154
100
AcDbLine
 10
0.7775488522182621
 20
0.201945328896824
 30
0.0
 11
0.7775488522182621
 21
0.201945328896824
 31
0.0
  0
LINE
  5
7B03
102
{ACAD_REACTORS
330
7AF9
330
7AFD
102
}
330
7AF5
100
AcDbEntity
  8
TITLEBLOCK
 62
   154
100
AcDbLine
 10
0.7777112529587721
 20
0.3921165960303401
 30
0.0
 11
0.783232878135999
 21
0.3875693752961489
 31
0.0
  0
LINE
  5
7B04
102
{ACAD_REACTORS
330
7AF9
330
7AFD
102
}
330
7AF5
100
AcDbEntity
  8
TITLEBLOCK
 62
   154
100
AcDbLine
 10
0.7775488522182621
 20
0.201945328896824
 30
0.0
 11
0.7364614648700341
 21
0.201945328896824
 31
0.0
  0
LINE
  5
7B05
102
{ACAD_REACTORS
330
7AF9
330
7AFD
102
}
330
7AF5
100
AcDbEntity
  8
TITLEBLOCK
 62
   154
100
AcDbLine
 10
0.7364614648700341
 20
0.201945328896824
 30
0.0
 11
0.7308586393225458
 21
0.206492549631015
 31
0.0
  0
LINE
  5
7B06
330
7AF5
100
AcDbEntity
  8
TITLEBLOCK
 62
   154
100
AcDbLine
 10
0.7308586393225458
 20
0.206492549631015
 30
0.0
 11
0.7308586393225458
 21
0.206492549631015
 31
0.0
  0
LINE
  5
7B07
102
{ACAD_REACTORS
330
7AF9
330
7AFD
102
}
330
7AF5
100
AcDbEntity
  8
TITLEBLOCK
 62
   154
100
AcDbLine
 10
0.7308586393225458
 20
0.206492549631015
 30
0.0
 11
0.7308586393225458
 21
0.387650575666402
 31
0.0
  0
LINE
  5
7B08
102
{ACAD_REACTORS
330
7AF9
330
7AFD
102
}
330
7AF5
100
AcDbEntity
  8
TITLEBLOCK
 62
   154
100
AcDbLine
 10
0.7308586393225458
 20
0.387650575666402
 30
0.0
 11
0.7364614648700341
 21
0.3921165960303401
 31
0.0
  0
LINE
  5
7B09
330
7AF5
100
AcDbEntity
  8
TITLEBLOCK
 62
   154
100
AcDbLine
 10
0.7364614648700341
 20
0.3921165960303401
 30
0.0
 11
0.7364614648700341
 21
0.3921165960303401
 31
0.0
  0
HATCH
  5
7B0A
330
7AF5
100
AcDbEntity
  8
0
 62
   154
100
AcDbHatch
 10
0.0
 20
0.0
 30
0.0
210
0.0
220
0.0
230
1.0
  2
SOLID
 70
     1
 71
     0
 91
        8
 92
        7
 72
     0
 73
     1
 93
       25
 10
0.641158147713755
 20
0.0285825384057657
 10
0.6438377599321172
 20
0.0263901284089232
 10
0.6640566521252201
 20
0.0263901284089232
 10
0.666736264343582
 20
0.0285825384057657
 10
0.666736264343582
 20
0.034997367655786
 10
0.666736264343582
 20
0.0353221691367999
 10
0.666817464713835
 20
0.0403565920925126
 10
0.666898665084089
 20
0.0464466198615188
 10
0.667061065824596
 20
0.0534298517033127
 10
0.667304666935356
 20
0.0613874879881483
 10
0.7148880839038641
 20
0.0613874879881483
 10
0.719922506859573
 20
0.0630114953932171
 10
0.7253629316665541
 20
0.066259510203354
 10
0.7292605494387193
 20
0.070887931307799
 10
0.731534159805813
 20
0.0767343579660456
 10
0.7323461635083511
 20
0.0837987901780936
 10
0.7323461635083511
 20
0.0942736379407847
 10
0.73169656054632
 20
0.10198767311486
 10
0.7298289520304891
 20
0.106534893849052
 10
0.727717742403902
 20
0.109295706437668
 10
0.722520918707685
 20
0.113518125690846
 10
0.7158624883469021
 20
0.116035337168702
 10
0.7078236516918159
 20
0.116847340871236
 10
0.6438377599321172
 20
0.116847340871236
 10
0.641158147713755
 20
0.114817331614901
 97
        0
 92
       23
 72
     0
 73
     1
 93
        6
 10
0.666736264343582
 20
0.0823371835135316
 10
0.666736264343582
 20
0.0964660479376272
 10
0.703044266518732
 20
0.0964660479376272
 10
0.7067680468785172
 20
0.0893204153553259
 10
0.70490043836269
 20
0.0847731946211344
 10
0.6979172065209
 20
0.0823371835135316
 97
        0
 92
        7
 72
     0
 73
     1
 93
        8
 10
0.7367309835020329
 20
0.0285825384057657
 10
0.7394105957203951
 20
0.0263901284089232
 10
0.759548287543245
 20
0.0263901284089232
 10
0.7623091001318599
 20
0.0285825384057657
 10
0.7623091001318599
 20
0.114736131244647
 10
0.759629487913498
 20
0.116847340871236
 10
0.7394105957203951
 20
0.116847340871236
 10
0.7367309835020329
 20
0.114817331614901
 97
        0
 92
        7
 72
     0
 73
     1
 93
       20
 10
0.7903232278692922
 20
0.0993892612667507
 10
0.7841519997300331
 20
0.0984148568237096
 10
0.7772499682584929
 20
0.0959788457161066
 10
0.772377946043283
 20
0.0923248290547028
 10
0.769373532343907
 20
0.0874528068394973
 10
0.768399127900869
 20
0.0814439794407441
 10
0.768399127900869
 20
0.0446602117159436
 10
0.7692923319736579
 20
0.0406001932032724
 10
0.771971944192016
 20
0.0343477646937587
 10
0.7760319627046909
 20
0.029962944700074
 10
0.781472387511668
 20
0.0272833324817111
 10
0.7882932186129549
 20
0.0263901284089232
 10
0.8506551029675881
 20
0.0263901284089232
 10
0.8532535148156929
 20
0.0285825384057658
 10
0.8532535148156929
 20
0.0838799905483467
 10
0.8527663125941749
 20
0.0854227975831618
 10
0.8496806985245457
 20
0.0915128253521686
 10
0.8451334777903499
 20
0.0958976453458532
 10
0.8392058507618521
 20
0.0984960571939626
 10
0.8318978174390441
 20
0.0993892612667507
 97
        0
 92
       23
 72
     0
 73
     1
 93
       11
 10
0.8273505967048519
 20
0.0757599535230043
 10
0.829218205220682
 20
0.0703195287160252
 10
0.829218205220682
 20
0.0469338220830393
 10
0.800067272299705
 20
0.0469338220830393
 10
0.799904871559194
 20
0.0470150224532926
 10
0.7943020460117101
 20
0.0491262320798816
 10
0.7925156378661331
 20
0.0554598609596487
 10
0.7925156378661331
 20
0.0728553486120634
 10
0.7973064597110861
 20
0.0775463616685796
 10
0.8054264967364289
 20
0.078764367222381
 10
0.8209775979485998
 20
0.078764367222381
 97
        0
 92
        7
 72
     0
 73
     1
 93
       12
 10
0.9045721488158569
 20
0.0794139701844084
 10
0.9261714473032698
 20
0.0794139701844084
 10
0.9261714473032698
 20
0.099470461637004
 10
0.9045721488158569
 20
0.099470461637004
 10
0.9045721488158569
 20
0.116847340871236
 10
0.8804556388505899
 20
0.116847340871236
 10
0.8804556388505899
 20
0.099470461637004
 10
0.85885634036318
 20
0.099470461637004
 10
0.85885634036318
 20
0.0794139701844084
 10
0.8804556388505899
 20
0.0794139701844084
 10
0.8804556388505899
 20
0.0267961302601902
 10
0.9045721488158569
 20
0.0267961302601902
 97
        0
 92
        7
 72
     0
 73
     1
 93
       31
 10
0.955484780964754
 20
0.0989832594154832
 10
0.95158716319259
 20
0.0988208586749765
 10
0.943873128018515
 20
0.0970344505294015
 10
0.94168071802167
 20
0.0961412464566135
 10
0.9359966921039321
 20
0.0922436286844493
 10
0.9325862765532889
 20
0.0871280053584838
 10
0.9314494713697399
 20
0.0807131761084634
 10
0.931449471369741
 20
0.0454722154184776
 10
0.9326674769235429
 20
0.0391385865387108
 10
0.9350222876608901
 20
0.0347537665450257
 10
0.9395695083950858
 20
0.0301253454405805
 10
0.9455783357938349
 20
0.0272833324817111
 10
0.9531299702274028
 20
0.0263901284089232
 10
0.999332980901604
 20
0.0263901284089232
 10
1.00680341496491
 20
0.0276081339627247
 10
1.013786646806709
 20
0.0301253454405806
 10
1.01873986939216
 20
0.0336981617317315
 10
1.021744283091549
 20
0.0384077832064299
 10
1.022799887904839
 20
0.0441730094944227
 10
1.020039075316219
 20
0.0468526217127859
 10
0.967664836502772
 20
0.0468526217127859
 10
0.9601944024394541
 20
0.0481518276368406
 10
0.9570275879995669
 20
0.0517246439279911
 10
1.020039075316219
 20
0.0517246439279911
 10
1.022799887904839
 20
0.0539170539248337
 10
1.022799887904839
 20
0.0791587690207609
 10
1.02101347975926
 20
0.0865596027667097
 10
1.017927865689639
 20
0.0920000275736892
 10
1.013461845325689
 20
0.0958976453458532
 10
1.007615418667449
 20
0.0982524560832024
 10
1.00046978608515
 20
0.0989832594154832
 97
        0
 92
       23
 72
     0
 73
     1
 93
        6
 10
0.988127329806632
 20
0.0785207661116206
 10
0.994217357575637
 20
0.0768155583362989
 10
0.9967345690534921
 20
0.0731615416748948
 10
0.9573523894805809
 20
0.0731615416748948
 10
0.9586515954046371
 20
0.0760847550040178
 10
0.9646604228033888
 20
0.0785207661116206
 97
        0
 75
     1
 76
     1
 47
0.0
 98
        1
 10
0.0
 20
0.0
450
        0
451
        0
460
0.0
461
0.0
452
        0
462
0.0
453
        0
470

1001
GRADIENTCOLOR1ACI
1070
     5
1001
GRADIENTCOLOR2ACI
1070
     2
1001
ACAD
1010
0.0
1020
0.0
1030
0.0
  0
LINE
  5
7B0B
330
7AF5
100
AcDbEntity
  8
TITLEBLOCK
 62
   154
100
AcDbLine
 10
0.7394105957203951
 20
0.116847340871236
 30
0.0
 11
0.759629487913498
 21
0.116847340871236
 31
0.0
  0
LINE
  5
7B0C
330
7AF5
100
AcDbEntity
  8
TITLEBLOCK
 62
   154
100
AcDbLine
 10
0.759629487913498
 20
0.116847340871236
 30
0.0
 11
0.7623091001318599
 21
0.114736131244647
 31
0.0
  0
LINE
  5
7B0D
330
7AF5
100
AcDbEntity
  8
TITLEBLOCK
 62
   154
100
AcDbLine
 10
0.7623091001318599
 20
0.114736131244647
 30
0.0
 11
0.7623091001318599
 21
0.114736131244647
 31
0.0
  0
LINE
  5
7B0E
330
7AF5
100
AcDbEntity
  8
TITLEBLOCK
 62
   154
100
AcDbLine
 10
0.7623091001318599
 20
0.114736131244647
 30
0.0
 11
0.7623091001318599
 21
0.0285825384057657
 31
0.0
  0
LINE
  5
7B0F
330
7AF5
100
AcDbEntity
  8
TITLEBLOCK
 62
   154
100
AcDbLine
 10
0.7623091001318599
 20
0.0285825384057657
 30
0.0
 11
0.759548287543245
 21
0.0263901284089232
 31
0.0
  0
LINE
  5
7B10
330
7AF5
100
AcDbEntity
  8
TITLEBLOCK
 62
   154
100
AcDbLine
 10
0.759548287543245
 20
0.0263901284089232
 30
0.0
 11
0.759548287543245
 21
0.0263901284089232
 31
0.0
  0
LINE
  5
7B11
330
7AF5
100
AcDbEntity
  8
TITLEBLOCK
 62
   154
100
AcDbLine
 10
0.759548287543245
 20
0.0263901284089232
 30
0.0
 11
0.7394105957203951
 21
0.0263901284089232
 31
0.0
  0
LINE
  5
7B12
330
7AF5
100
AcDbEntity
  8
TITLEBLOCK
 62
   154
100
AcDbLine
 10
0.7394105957203951
 20
0.0263901284089232
 30
0.0
 11
0.7367309835020329
 21
0.0285825384057657
 31
0.0
  0
LINE
  5
7B13
330
7AF5
100
AcDbEntity
  8
TITLEBLOCK
 62
   154
100
AcDbLine
 10
0.7367309835020329
 20
0.0285825384057657
 30
0.0
 11
0.7367309835020329
 21
0.0285825384057657
 31
0.0
  0
LINE
  5
7B14
330
7AF5
100
AcDbEntity
  8
TITLEBLOCK
 62
   154
100
AcDbLine
 10
0.7367309835020329
 20
0.0285825384057657
 30
0.0
 11
0.7367309835020329
 21
0.114817331614901
 31
0.0
  0
LINE
  5
7B15
330
7AF5
100
AcDbEntity
  8
TITLEBLOCK
 62
   154
100
AcDbLine
 10
0.7367309835020329
 20
0.114817331614901
 30
0.0
 11
0.7394105957203951
 21
0.116847340871236
 31
0.0
  0
LINE
  5
7B16
330
7AF5
100
AcDbEntity
  8
TITLEBLOCK
 62
   154
100
AcDbLine
 10
0.7394105957203951
 20
0.116847340871236
 30
0.0
 11
0.7394105957203951
 21
0.116847340871236
 31
0.0
  0
LWPOLYLINE
  5
7B17
330
7AF5
100
AcDbEntity
  8
TITLEBLOCK
 62
   154
100
AcDbPolyline
 90
       33
 70
     1
 43
0.0
 10
0.95158716319259
 20
0.0988208586749765
 10
0.943873128018515
 20
0.0970344505294014
 10
0.94168071802167
 20
0.0961412464566135
 10
0.9359966921039321
 20
0.0922436286844493
 10
0.9325862765532889
 20
0.0871280053584837
 10
0.931449471369741
 20
0.0807131761084633
 10
0.931449471369741
 20
0.0456346161589845
 10
0.931449471369741
 20
0.0454722154184777
 10
0.9326674769235429
 20
0.0391385865387107
 10
0.9350222876608901
 20
0.0347537665450258
 10
0.9395695083950858
 20
0.0301253454405806
 10
0.9455783357938349
 20
0.0272833324817111
 10
0.9531299702274028
 20
0.0263901284089232
 10
0.999332980901604
 20
0.0263901284089232
 10
1.00680341496491
 20
0.0276081339627247
 10
1.013786646806709
 20
0.0301253454405806
 10
1.01873986939216
 20
0.0336981617317314
 10
1.021744283091549
 20
0.0384077832064298
 10
1.022799887904839
 20
0.0441730094944227
 10
1.020039075316219
 20
0.0468526217127859
 10
0.967664836502772
 20
0.0468526217127859
 10
0.9601944024394541
 20
0.0481518276368406
 10
0.9570275879995669
 20
0.0517246439279911
 10
1.020039075316219
 20
0.0517246439279911
 10
1.022799887904839
 20
0.0539170539248337
 10
1.022799887904839
 20
0.0793327698141548
 10
1.022718687534589
 20
0.0794951705546616
 10
1.02101347975926
 20
0.0865596027667095
 10
1.017927865689639
 20
0.0920000275736891
 10
1.013461845325689
 20
0.0958976453458532
 10
1.007615418667449
 20
0.0982524560832024
 10
1.00046978608515
 20
0.0989832594154832
 10
0.955484780964754
 20
0.0989832594154832
  0
LWPOLYLINE
  5
7B18
330
7AF5
100
AcDbEntity
  8
TITLEBLOCK
 62
   154
100
AcDbPolyline
 90
        6
 70
     1
 43
0.0
 10
0.994217357575637
 20
0.0768155583362989
 10
0.9967345690534921
 20
0.0731615416748948
 10
0.9573523894805809
 20
0.0731615416748948
 10
0.9586515954046371
 20
0.0760847550040178
 10
0.9646604228033888
 20
0.0785207661116206
 10
0.988127329806632
 20
0.0785207661116206
  0
LWPOLYLINE
  5
7B19
330
7AF5
100
AcDbEntity
  8
TITLEBLOCK
 62
   154
100
AcDbPolyline
 90
       12
 70
     1
 43
0.0
 10
0.8804556388505899
 20
0.116847340871236
 10
0.8804556388505899
 20
0.099470461637004
 10
0.85885634036318
 20
0.099470461637004
 10
0.85885634036318
 20
0.0794139701844084
 10
0.8804556388505899
 20
0.0794139701844084
 10
0.8804556388505899
 20
0.0267961302601902
 10
0.9045721488158569
 20
0.0267961302601902
 10
0.9045721488158569
 20
0.0794139701844084
 10
0.9261714473032698
 20
0.0794139701844084
 10
0.9261714473032698
 20
0.099470461637004
 10
0.9045721488158569
 20
0.099470461637004
 10
0.9045721488158569
 20
0.116847340871236
  0
LWPOLYLINE
  5
7B1A
330
7AF5
100
AcDbEntity
  8
TITLEBLOCK
 62
   154
100
AcDbPolyline
 90
       20
 70
     1
 43
0.0
 10
0.7841519997300331
 20
0.0984148568237096
 10
0.7772499682584929
 20
0.0959788457161066
 10
0.772377946043283
 20
0.0923248290547028
 10
0.769373532343907
 20
0.0874528068394973
 10
0.768399127900869
 20
0.081443979440744
 10
0.768399127900869
 20
0.0446602117159436
 10
0.7692923319736579
 20
0.0406001932032723
 10
0.771971944192016
 20
0.0343477646937587
 10
0.7760319627046909
 20
0.029962944700074
 10
0.781472387511668
 20
0.0272833324817111
 10
0.7882932186129549
 20
0.0263901284089232
 10
0.8506551029675881
 20
0.0263901284089232
 10
0.8532535148156929
 20
0.0285825384057657
 10
0.8532535148156929
 20
0.0838799905483467
 10
0.8527663125941749
 20
0.0854227975831615
 10
0.8496806985245457
 20
0.0915128253521686
 10
0.8451334777903499
 20
0.0958976453458532
 10
0.8392058507618521
 20
0.0984960571939626
 10
0.8318978174390441
 20
0.0993892612667507
 10
0.7903232278692922
 20
0.0993892612667507
  0
LWPOLYLINE
  5
7B1B
330
7AF5
100
AcDbEntity
  8
TITLEBLOCK
 62
   154
100
AcDbPolyline
 90
       14
 70
     1
 43
0.0
 10
0.799904871559194
 20
0.0470150224532926
 10
0.7943020460117101
 20
0.0491262320798816
 10
0.7925156378661331
 20
0.0554598609596486
 10
0.7925156378661331
 20
0.0698323264945044
 10
0.793002840087654
 20
0.0714563338995732
 10
0.793408841938922
 20
0.0737299442666687
 10
0.7973064597110861
 20
0.0775463616685796
 10
0.8054264967364289
 20
0.078764367222381
 10
0.8172817507934279
 20
0.078764367222381
 10
0.821666570787114
 20
0.0784395657413673
 10
0.8273505967048519
 20
0.0757599535230043
 10
0.829218205220682
 20
0.0703195287160251
 10
0.829218205220682
 20
0.0469338220830393
 10
0.800067272299705
 20
0.0469338220830393
  0
LWPOLYLINE
  5
7B1C
330
7AF5
100
AcDbEntity
  8
TITLEBLOCK
 62
   154
100
AcDbPolyline
 90
        2
 70
     1
 43
0.0
 10
0.7394105957203951
 20
0.116847340871236
 10
0.7394105957203951
 20
0.116847340871236
  0
LWPOLYLINE
  5
7B1D
330
7AF5
100
AcDbEntity
  8
TITLEBLOCK
 62
   154
100
AcDbPolyline
 90
       26
 70
     1
 43
0.0
 10
0.641158147713755
 20
0.114817331614901
 10
0.641158147713755
 20
0.0285825384057657
 10
0.6438377599321172
 20
0.0263901284089232
 10
0.6640566521252201
 20
0.0263901284089232
 10
0.666736264343582
 20
0.0285825384057657
 10
0.666736264343582
 20
0.034997367655786
 10
0.666736264343582
 20
0.0353221691367999
 10
0.666817464713835
 20
0.0403565920925122
 10
0.666898665084089
 20
0.0464466198615186
 10
0.667061065824596
 20
0.053429851703313
 10
0.667304666935356
 20
0.0613874879881483
 10
0.7148880839038641
 20
0.0613874879881483
 10
0.719922506859573
 20
0.0630114953932171
 10
0.7253629316665541
 20
0.066259510203354
 10
0.7292605494387193
 20
0.070887931307799
 10
0.731534159805813
 20
0.0767343579660456
 10
0.7323461635083511
 20
0.0837987901780934
 10
0.7323461635083511
 20
0.0935428346085038
 10
0.7323461635083511
 20
0.0942736379407847
 10
0.73169656054632
 20
0.10198767311486
 10
0.7298289520304891
 20
0.106534893849052
 10
0.727717742403902
 20
0.109295706437668
 10
0.722520918707685
 20
0.113518125690846
 10
0.7158624883469021
 20
0.116035337168702
 10
0.7078236516918159
 20
0.116847340871236
 10
0.6438377599321172
 20
0.116847340871236
  0
LWPOLYLINE
  5
7B1E
330
7AF5
100
AcDbEntity
  8
TITLEBLOCK
 62
   154
100
AcDbPolyline
 90
        7
 70
     1
 43
0.0
 10
0.7037636331791451
 20
0.095085641643319
 10
0.7067680468785172
 20
0.0893204153553259
 10
0.70490043836269
 20
0.0847731946211344
 10
0.6979172065209
 20
0.0823371835135316
 10
0.666736264343582
 20
0.0823371835135316
 10
0.666736264343582
 20
0.0964660479376272
 10
0.699135212074696
 20
0.0964660479376272
  0
HATCH
  5
7B1F
330
7AF5
100
AcDbEntity
  8
0
 62
   154
100
AcDbHatch
 10
0.0
 20
0.0
 30
0.0
210
0.0
220
0.0
230
1.0
  2
SOLID
 70
     1
 71
     0
 91
       12
 92
        7
 72
     0
 73
     1
 93
       22
 10
0.0914316410980813
 20
0.0990644597857368
 10
0.0907008377657999
 20
0.104098882741449
 10
0.088021225547438
 20
0.108970904956654
 10
0.0833928044429886
 20
0.112787322358565
 10
0.0767343740822089
 20
0.115385734206675
 10
0.0681271348353452
 20
0.116847340871236
 10
0.0200565156453205
 20
0.116847340871236
 10
0.0152656938003714
 20
0.115710535687689
 10
0.0086884638098415
 20
0.112787322358565
 10
0.0040600427053956
 20
0.108727303845894
 10
0.0012180297465267
 20
0.103530480149675
 10
0.0002436253034848
 20
0.0971968512699081
 10
0.0002436253034848
 20
0.0285825384057657
 10
0.0030044378921072
 20
0.0263901284089232
 10
0.0237105323067279
 20
0.0263901284089232
 10
0.0263901445250863
 20
0.0285825384057657
 10
0.0263901445250863
 20
0.0439294083836625
 10
0.0647167192847054
 20
0.0439294083836625
 10
0.0647167192847054
 20
0.0285825384057657
 10
0.0673963315030672
 20
0.0263901284089232
 10
0.0887520288797195
 20
0.0263901284089232
 10
0.0914316410980813
 20
0.0285825384057657
 97
        0
 92
       23
 72
     0
 73
     1
 93
        8
 10
0.0647167192847054
 20
0.0643919016875253
 10
0.0269585471168643
 20
0.0643919016875253
 10
0.0269585471168643
 20
0.0904350749833542
 10
0.0306937641485181
 20
0.0946796397920518
 10
0.0386514004333574
 20
0.0959788457161066
 10
0.0555254619902496
 20
0.0959788457161066
 10
0.0625243092878609
 20
0.0937864357192642
 10
0.0647167192847054
 20
0.0889144135040591
 97
        0
 92
        7
 72
     0
 73
     1
 93
       20
 10
0.113680542547518
 20
0.0988208586749765
 10
0.111244531439914
 20
0.0981712557129491
 10
0.104342499968377
 20
0.0953292427540793
 10
0.0993892773829135
 20
0.0912692242414082
 10
0.0964660640537911
 20
0.0861536009154425
 10
0.0954916596107491
 20
0.0798199720356754
 10
0.0954916596107491
 20
0.0449038128267037
 10
0.0955728599810062
 20
0.0428738035703682
 10
0.0974404684968331
 20
0.0368649761716146
 10
0.099145676272153
 20
0.0345101654342657
 10
0.104342499968377
 20
0.029962944700074
 10
0.110838529588646
 20
0.0272833324817111
 10
0.118633765132978
 20
0.0263901284089232
 10
0.184406065038251
 20
0.0263901284089232
 10
0.187085677256613
 20
0.0285825384057657
 10
0.187085677256613
 20
0.11433012939338
 10
0.184487265408505
 20
0.116522539390223
 10
0.164024772104641
 20
0.116522539390223
 10
0.161345159886279
 20
0.114411329763633
 10
0.161345159886279
 20
0.0988208586749765
 97
        0
 92
       23
 72
     0
 73
     1
 93
        7
 10
0.127403405120345
 20
0.0781147642603538
 10
0.136660247329237
 20
0.0790891687033948
 10
0.161345159886279
 20
0.0790891687033948
 10
0.161345159886279
 20
0.0470150224532926
 10
0.125236445985818
 20
0.0470150224532926
 10
0.12131337735134
 20
0.0537546531843268
 10
0.12131337735134
 20
0.0742955943035179
 97
        0
 92
        7
 72
     0
 73
     1
 93
       20
 10
0.213881799440243
 20
0.0993892612667507
 10
0.20771057130098
 20
0.0984148568237096
 10
0.20080853982944
 20
0.0959788457161066
 10
0.195855317243984
 20
0.0923248290547028
 10
0.192932103914858
 20
0.0874528068394973
 10
0.191957699471816
 20
0.081443979440744
 10
0.191957699471816
 20
0.0446602117159436
 10
0.192850903544604
 20
0.0406001932032724
 10
0.195449315392716
 20
0.0343477646937587
 10
0.199509333905388
 20
0.029962944700074
 10
0.204949758712365
 20
0.0272833324817111
 10
0.211851790183909
 20
0.0263901284089236
 10
0.274213674538535
 20
0.0263901284089236
 10
0.276812086386647
 20
0.0285825384057657
 10
0.276812086386647
 20
0.0838799905483467
 10
0.276324884165122
 20
0.0854227975831613
 10
0.273239270095496
 20
0.0915128253521687
 10
0.2686920493613
 20
0.0958976453458532
 10
0.262764422332802
 20
0.0984960571939626
 10
0.255375188639741
 20
0.0993892612667507
 97
        0
 92
       23
 72
     0
 73
     1
 93
       10
 10
0.228985068307379
 20
0.078764367222381
 10
0.244536169519551
 20
0.078764367222381
 10
0.250909168275802
 20
0.0757599535230043
 10
0.252776776791633
 20
0.0703195287160252
 10
0.252776776791633
 20
0.0469338220830393
 10
0.223594612959015
 20
0.0469338220830393
 10
0.217860617582661
 20
0.0491262320798816
 10
0.216074209437083
 20
0.0554598609596486
 10
0.216074209437083
 20
0.0728553486120634
 10
0.220865031282036
 20
0.0775463616685796
 97
        0
 92
        7
 72
     0
 73
     1
 93
       19
 10
0.285013323782239
 20
0.0989832594154832
 10
0.282333711563877
 20
0.0969532501591476
 10
0.282333711563877
 20
0.0021112177031501
 10
0.285013323782239
 20
0.000000008076561
 10
0.30539461671585
 20
0.000000008076561
 10
0.308074228934215
 20
0.0021112177031501
 10
0.308074228934215
 20
0.0260653269279099
 10
0.35143522664954
 20
0.0260653269279099
 10
0.3572816533077849
 20
0.0265525291494305
 10
0.363615282187554
 20
0.028582538405766
 10
0.368487304402757
 20
0.0321553546969167
 10
0.371978920323658
 20
0.0373521783931357
 10
0.3740089295799911
 20
0.0440918091241695
 10
0.3740089295799911
 20
0.0814439794407439
 10
0.372709723655936
 20
0.0874528068394974
 10
0.369624109586306
 20
0.0916752260926756
 10
0.364346085519836
 20
0.0957352446053466
 10
0.357687655159056
 20
0.0981712557129491
 10
0.3497300188742169
 20
0.0989832594154832
 97
        0
 92
       23
 72
     0
 73
     1
 93
        8
 10
0.308723831896239
 20
0.0783583653711141
 10
0.3392551711115301
 20
0.0783583653711141
 10
0.3449391970292639
 20
0.0769779590768057
 10
0.3481872118394039
 20
0.0716187346400799
 10
0.3481872118394039
 20
0.0523359022707327
 10
0.3451827981400281
 20
0.0477458257855739
 10
0.337468762965953
 20
0.0462842191210124
 10
0.308723831896239
 20
0.046284219121012
 97
        0
 92
        7
 72
     0
 73
     1
 93
       12
 10
0.4255711646909171
 20
0.099470461637004
 10
0.4255711646909171
 20
0.116847340871236
 10
0.401454654725649
 20
0.116847340871236
 10
0.401454654725649
 20
0.099470461637004
 10
0.37985535623824
 20
0.099470461637004
 10
0.37985535623824
 20
0.0794139701844084
 10
0.401454654725649
 20
0.0794139701844084
 10
0.401454654725649
 20
0.0267961302601908
 10
0.4255711646909171
 20
0.0267961302601902
 10
0.4255711646909171
 20
0.0794139701844084
 10
0.447170463178326
 20
0.0794139701844084
 10
0.447170463178326
 20
0.099470461637004
 97
        0
 92
        7
 72
     0
 73
     1
 93
       31
 10
0.476483796839814
 20
0.0989832594154832
 10
0.472504978697396
 20
0.0988208586749765
 10
0.4648721438935711
 20
0.0970344505294014
 10
0.46267973389673
 20
0.0961412464566135
 10
0.456995707978992
 20
0.0922436286844492
 10
0.4535852924283449
 20
0.0871280053584836
 10
0.4524484872448
 20
0.0807131761084637
 10
0.4524484872448
 20
0.045472215418478
 10
0.453666492798598
 20
0.0391385865387112
 10
0.4560213035359501
 20
0.0347537665450263
 10
0.460568524270142
 20
0.0301253454405809
 10
0.466577351668894
 20
0.0272833324817115
 10
0.474128986102463
 20
0.0263901284089232
 10
0.52033199677666
 20
0.0263901284089232
 10
0.5278024308399749
 20
0.0276081339627247
 10
0.5347856626817721
 20
0.0301253454405806
 10
0.5397388852672279
 20
0.0336981617317314
 10
0.5427432989666041
 20
0.0384077832064298
 10
0.543717703409646
 20
0.0441730094944227
 10
0.5409568908210311
 20
0.0468526217127859
 10
0.4886638523778279
 20
0.0468526217127861
 10
0.481193418314513
 20
0.048151827636841
 10
0.478026603874627
 20
0.0517246439279911
 10
0.5409568908210311
 20
0.0517246439279911
 10
0.543717703409646
 20
0.0539170539248337
 10
0.543717703409646
 20
0.0794951705546616
 10
0.542012495634323
 20
0.0865596027667096
 10
0.538926881564697
 20
0.0920000275736892
 10
0.534460861200758
 20
0.0958976453458532
 10
0.5286144345425101
 20
0.0982524560832024
 10
0.521387601589952
 20
0.0989832594154832
 97
        0
 92
       23
 72
     0
 73
     1
 93
        6
 10
0.509126345681688
 20
0.0785207661116206
 10
0.5152163734506971
 20
0.0768155583362989
 10
0.5177335849285521
 20
0.0731615416748948
 10
0.478270204985387
 20
0.0731615416748948
 10
0.4796506112796971
 20
0.0760847550040178
 10
0.485659438678448
 20
0.0785207661116206
 97
        0
 92
        7
 72
     0
 73
     1
 93
       13
 10
0.549970131919158
 20
0.0285825384057657
 10
0.5526497441375239
 20
0.0263901284089232
 10
0.5726250352198671
 20
0.0263901284089232
 10
0.5753046474382281
 20
0.0285825384057657
 10
0.5753046474382281
 20
0.0704007290862786
 10
0.577821858916083
 20
0.0759223542635113
 10
0.583911886685089
 20
0.0779523635198467
 10
0.5942243337072761
 20
0.0779523635198467
 10
0.5969039459256411
 20
0.0800635731464358
 10
0.5969039459256411
 20
0.09606004608636
 10
0.594305534077529
 20
0.0981712557129491
 10
0.5526497441375239
 20
0.0981712557129491
 10
0.5499701319191589
 20
0.0961412464566135
 97
        0
 75
     1
 76
     1
 47
0.0
 98
        1
 10
0.0
 20
0.0
450
        0
451
        0
460
0.0
461
0.0
452
        0
462
0.0
453
        0
470

1001
GRADIENTCOLOR1ACI
1070
     5
1001
GRADIENTCOLOR2ACI
1070
     2
1001
ACAD
1010
0.0
1020
0.0
1030
0.0
  0
LWPOLYLINE
  5
7B20
330
7AF5
100
AcDbEntity
  8
TITLEBLOCK
 62
   154
100
AcDbPolyline
 90
       13
 70
     1
 43
0.0
 10
0.5526497441375239
 20
0.0981712557129491
 10
0.549970131919158
 20
0.0961412464566135
 10
0.549970131919158
 20
0.0285825384057657
 10
0.5526497441375239
 20
0.0263901284089232
 10
0.5726250352198671
 20
0.0263901284089232
 10
0.5753046474382281
 20
0.0285825384057657
 10
0.5753046474382281
 20
0.0704007290862785
 10
0.577821858916083
 20
0.0759223542635113
 10
0.583911886685089
 20
0.0779523635198467
 10
0.5942243337072761
 20
0.0779523635198467
 10
0.5969039459256411
 20
0.0800635731464358
 10
0.5969039459256411
 20
0.0960600460863601
 10
0.594305534077529
 20
0.0981712557129491
  0
LWPOLYLINE
  5
7B21
330
7AF5
100
AcDbEntity
  8
TITLEBLOCK
 62
   154
100
AcDbPolyline
 90
       33
 70
     1
 43
0.0
 10
0.472504978697396
 20
0.0988208586749765
 10
0.4648721438935711
 20
0.0970344505294014
 10
0.46267973389673
 20
0.0961412464566135
 10
0.456995707978992
 20
0.0922436286844493
 10
0.4535852924283449
 20
0.0871280053584837
 10
0.4524484872448
 20
0.0807131761084633
 10
0.4524484872448
 20
0.0456346161589849
 10
0.4524484872448
 20
0.0454722154184781
 10
0.453666492798598
 20
0.039138586538711
 10
0.4560213035359501
 20
0.0347537665450262
 10
0.460568524270142
 20
0.0301253454405809
 10
0.466577351668894
 20
0.0272833324817115
 10
0.474128986102463
 20
0.0263901284089232
 10
0.52033199677666
 20
0.0263901284089232
 10
0.5278024308399749
 20
0.0276081339627247
 10
0.5347856626817721
 20
0.0301253454405806
 10
0.5397388852672279
 20
0.0336981617317314
 10
0.5427432989666041
 20
0.0384077832064298
 10
0.543717703409646
 20
0.0441730094944227
 10
0.5409568908210311
 20
0.0468526217127859
 10
0.4886638523778279
 20
0.0468526217127861
 10
0.481193418314513
 20
0.048151827636841
 10
0.478026603874627
 20
0.0517246439279911
 10
0.5409568908210311
 20
0.0517246439279911
 10
0.543717703409646
 20
0.0539170539248337
 10
0.543717703409646
 20
0.0793327698141548
 10
0.543717703409646
 20
0.0794951705546616
 10
0.542012495634323
 20
0.0865596027667095
 10
0.538926881564697
 20
0.0920000275736891
 10
0.534460861200758
 20
0.0958976453458532
 10
0.5286144345425101
 20
0.0982524560832024
 10
0.521387601589952
 20
0.0989832594154832
 10
0.476483796839814
 20
0.0989832594154832
  0
LWPOLYLINE
  5
7B22
330
7AF5
100
AcDbEntity
  8
TITLEBLOCK
 62
   154
100
AcDbPolyline
 90
        6
 70
     1
 43
0.0
 10
0.5152163734506971
 20
0.0768155583362989
 10
0.5177335849285521
 20
0.0731615416748948
 10
0.478270204985387
 20
0.0731615416748948
 10
0.4796506112796971
 20
0.0760847550040178
 10
0.485659438678448
 20
0.0785207661116206
 10
0.509126345681688
 20
0.0785207661116206
  0
LWPOLYLINE
  5
7B23
330
7AF5
100
AcDbEntity
  8
TITLEBLOCK
 62
   154
100
AcDbPolyline
 90
       12
 70
     1
 43
0.0
 10
0.401454654725649
 20
0.116847340871236
 10
0.401454654725649
 20
0.099470461637004
 10
0.37985535623824
 20
0.099470461637004
 10
0.37985535623824
 20
0.0794139701844084
 10
0.401454654725649
 20
0.0794139701844084
 10
0.401454654725649
 20
0.0267961302601908
 10
0.4255711646909171
 20
0.0267961302601902
 10
0.4255711646909171
 20
0.0794139701844084
 10
0.447170463178326
 20
0.0794139701844084
 10
0.447170463178326
 20
0.099470461637004
 10
0.4255711646909171
 20
0.099470461637004
 10
0.4255711646909171
 20
0.116847340871236
  0
LWPOLYLINE
  5
7B24
330
7AF5
100
AcDbEntity
  8
TITLEBLOCK
 62
   154
100
AcDbPolyline
 90
       19
 70
     1
 43
0.0
 10
0.282333711563877
 20
0.0969532501591476
 10
0.282333711563877
 20
0.0021112177031501
 10
0.285013323782239
 20
0.000000008076561
 10
0.30539461671585
 20
0.000000008076561
 10
0.308074228934215
 20
0.0021112177031501
 10
0.308074228934215
 20
0.0260653269279099
 10
0.35143522664954
 20
0.0260653269279099
 10
0.3572816533077849
 20
0.0265525291494305
 10
0.363615282187555
 20
0.028582538405766
 10
0.368487304402757
 20
0.0321553546969167
 10
0.371978920323658
 20
0.0373521783931357
 10
0.3740089295799911
 20
0.0440918091241696
 10
0.3740089295799911
 20
0.081443979440744
 10
0.372709723655936
 20
0.0874528068394973
 10
0.369624109586306
 20
0.0916752260926755
 10
0.364346085519836
 20
0.0957352446053465
 10
0.357687655159056
 20
0.0981712557129491
 10
0.3497300188742169
 20
0.0989832594154832
 10
0.285013323782239
 20
0.0989832594154832
  0
LWPOLYLINE
  5
7B25
330
7AF5
100
AcDbEntity
  8
TITLEBLOCK
 62
   154
100
AcDbPolyline
 90
        9
 70
     1
 43
0.0
 10
0.3449391970292639
 20
0.0769779590768057
 10
0.3481872118394039
 20
0.0716187346400799
 10
0.3481872118394039
 20
0.0530238498520465
 10
0.3481060114691501
 20
0.0522118461495122
 10
0.3451827981400281
 20
0.0477458257855739
 10
0.337468762965953
 20
0.0462842191210124
 10
0.308723831896239
 20
0.046284219121012
 10
0.308723831896239
 20
0.0783583653711141
 10
0.3392551711115301
 20
0.0783583653711141
  0
LWPOLYLINE
  5
7B26
330
7AF5
100
AcDbEntity
  8
TITLEBLOCK
 62
   154
100
AcDbPolyline
 90
       20
 70
     1
 43
0.0
 10
0.20771057130098
 20
0.0984148568237096
 10
0.20080853982944
 20
0.0959788457161066
 10
0.195855317243984
 20
0.0923248290547028
 10
0.192932103914858
 20
0.0874528068394973
 10
0.191957699471816
 20
0.081443979440744
 10
0.191957699471816
 20
0.0446602117159436
 10
0.192850903544604
 20
0.0406001932032723
 10
0.195449315392716
 20
0.0343477646937587
 10
0.199509333905388
 20
0.029962944700074
 10
0.204949758712365
 20
0.0272833324817111
 10
0.211851790183909
 20
0.0263901284089236
 10
0.274213674538535
 20
0.0263901284089236
 10
0.276812086386647
 20
0.0285825384057657
 10
0.276812086386647
 20
0.0838799905483467
 10
0.276324884165122
 20
0.0854227975831615
 10
0.273239270095496
 20
0.0915128253521686
 10
0.2686920493613
 20
0.0958976453458532
 10
0.262764422332802
 20
0.0984960571939626
 10
0.255375188639741
 20
0.0993892612667507
 10
0.213881799440243
 20
0.0993892612667507
  0
LWPOLYLINE
  5
7B27
330
7AF5
100
AcDbEntity
  8
TITLEBLOCK
 62
   154
100
AcDbPolyline
 90
       14
 70
     1
 43
0.0
 10
0.223382242759891
 20
0.0470150224532926
 10
0.217860617582661
 20
0.0491262320798816
 10
0.216074209437083
 20
0.0554598609596486
 10
0.216074209437083
 20
0.0698323264945044
 10
0.216561411658605
 20
0.0714563338995732
 10
0.216967413509872
 20
0.0737299442666687
 10
0.220865031282036
 20
0.0775463616685796
 10
0.228985068307379
 20
0.078764367222381
 10
0.240840322364379
 20
0.078764367222381
 10
0.245225142358065
 20
0.0784395657413673
 10
0.250909168275802
 20
0.0757599535230043
 10
0.252776776791633
 20
0.0703195287160251
 10
0.252776776791633
 20
0.0469338220830393
 10
0.223625843870652
 20
0.0469338220830393
  0
LWPOLYLINE
  5
7B28
330
7AF5
100
AcDbEntity
  8
TITLEBLOCK
 62
   154
100
AcDbPolyline
 90
       20
 70
     1
 43
0.0
 10
0.161345159886279
 20
0.114411329763633
 10
0.161345159886279
 20
0.0988208586749765
 10
0.113680542547518
 20
0.0988208586749765
 10
0.111244531439914
 20
0.0981712557129491
 10
0.104342499968377
 20
0.0953292427540793
 10
0.0993892773829135
 20
0.0912692242414082
 10
0.0964660640537911
 20
0.0861536009154425
 10
0.0954916596107491
 20
0.0798199720356754
 10
0.0954916596107491
 20
0.0449038128267037
 10
0.0955728599810062
 20
0.0428738035703682
 10
0.0974404684968331
 20
0.0368649761716146
 10
0.099145676272153
 20
0.0345101654342657
 10
0.104342499968377
 20
0.029962944700074
 10
0.110838529588646
 20
0.0272833324817111
 10
0.118633765132978
 20
0.0263901284089232
 10
0.184406065038251
 20
0.0263901284089232
 10
0.187085677256613
 20
0.0285825384057657
 10
0.187085677256613
 20
0.11433012939338
 10
0.184487265408505
 20
0.116522539390223
 10
0.164024772104641
 20
0.116522539390223
  0
LWPOLYLINE
  5
7B29
330
7AF5
100
AcDbEntity
  8
TITLEBLOCK
 62
   154
100
AcDbPolyline
 90
       10
 70
     1
 43
0.0
 10
0.124480191791219
 20
0.0483142283773475
 10
0.12131337735134
 20
0.0537546531843268
 10
0.12131337735134
 20
0.0719435361210935
 10
0.121881779943111
 20
0.0725119387128675
 10
0.122612583275396
 20
0.0751103505609771
 10
0.127403405120345
 20
0.0781147642603538
 10
0.136660247329237
 20
0.0790891687033948
 10
0.161345159886279
 20
0.0790891687033948
 10
0.161345159886279
 20
0.0470150224532926
 10
0.12967701548744
 20
0.0470150224532926
  0
LWPOLYLINE
  5
7B2A
330
7AF5
100
AcDbEntity
  8
TITLEBLOCK
 62
   154
100
AcDbPolyline
 90
       22
 70
     1
 43
0.0
 10
0.0152656938003713
 20
0.115710535687689
 10
0.0086884638098415
 20
0.112787322358565
 10
0.0040600427053956
 20
0.108727303845894
 10
0.0012180297465267
 20
0.103530480149675
 10
0.0002436253034848
 20
0.0971968512699081
 10
0.0002436253034848
 20
0.0285825384057657
 10
0.0030044378921072
 20
0.0263901284089232
 10
0.0237105323067279
 20
0.0263901284089232
 10
0.0263901445250863
 20
0.0285825384057657
 10
0.0263901445250863
 20
0.0439294083836625
 10
0.0647167192847054
 20
0.0439294083836625
 10
0.0647167192847054
 20
0.0285825384057657
 10
0.0673963315030672
 20
0.0263901284089232
 10
0.0887520288797195
 20
0.0263901284089232
 10
0.0914316410980813
 20
0.0285825384057657
 10
0.0914316410980813
 20
0.0990644597857368
 10
0.0907008377657999
 20
0.104098882741449
 10
0.088021225547438
 20
0.108970904956654
 10
0.0833928044429886
 20
0.112787322358565
 10
0.0767343740822089
 20
0.115385734206675
 10
0.0681271348353452
 20
0.116847340871236
 10
0.0200565156453205
 20
0.116847340871236
  0
LWPOLYLINE
  5
7B2B
330
7AF5
100
AcDbEntity
  8
TITLEBLOCK
 62
   154
100
AcDbPolyline
 90
       10
 70
     1
 43
0.0
 10
0.0269585471168643
 20
0.0889144135040591
 10
0.0271209478573678
 20
0.0906196212793809
 10
0.0306937641485181
 20
0.0946796397920518
 10
0.0386514004333574
 20
0.0959788457161066
 10
0.0531050663384658
 20
0.0959788457161066
 10
0.0557846785568277
 20
0.0958976453458532
 10
0.0625243092878609
 20
0.0937864357192642
 10
0.0647167192847054
 20
0.0889144135040591
 10
0.0647167192847054
 20
0.0643919016875253
 10
0.0269585471168643
 20
0.0643919016875253
  0
LWPOLYLINE
  5
7B2C
330
7AF5
100
AcDbEntity
  8
TITLEBLOCK
 62
   154
100
AcDbPolyline
 90
        2
 70
     1
 43
0.0
 10
0.7364614648700341
 20
0.3921165960303401
 10
0.7364614648700341
 20
0.3921165960303401
  0
LWPOLYLINE
  5
7B2D
102
{ACAD_REACTORS
330
7AF9
330
7AFD
102
}
330
7AF5
100
AcDbEntity
  8
TITLEBLOCK
 62
   154
100
AcDbPolyline
 90
       62
 70
     1
 43
0.0
 10
0.6354741217960141
 20
0.282820897669233
 10
0.643594158821356
 20
0.295812956909781
 10
0.648547381406813
 20
0.3038517935648699
 10
0.648547381406813
 20
0.206492549631015
 10
0.654150206954304
 20
0.201945328896824
 10
0.6965368002265871
 20
0.201945328896824
 10
0.7022208261443291
 20
0.206492549631015
 10
0.7022208261443291
 20
0.3875693752961489
 10
0.696699200967098
 20
0.3921165960303401
 10
0.6497653869606151
 20
0.3921165960303401
 10
0.643431758080849
 20
0.381804149008156
 10
0.6344997173529751
 20
0.367269282732793
 10
0.626298479957379
 20
0.353952422011232
 10
0.6188280458940639
 20
0.3418535668434719
 10
0.6120884151630311
 20
0.330891516859259
 10
0.6060795877642759
 20
0.321066272058596
 10
0.600801563697802
 20
0.312377832441479
 10
0.5962543429636101
 20
0.304907398378164
 10
0.5924379255616989
 20
0.298573769498397
 10
0.589352311492069
 20
0.293458146172431
 10
0.5869975007547211
 20
0.289479328030014
 10
0.5853734933496511
 20
0.286637315071144
 10
0.584480289276863
 20
0.284932107295822
 10
0.5843178885363601
 20
0.2844449050743019
 10
0.576360252251524
 20
0.297599365055356
 10
0.5678342133749139
 20
0.311565828738945
 10
0.559876577090078
 20
0.324476687609239
 10
0.5526497441375239
 20
0.3361695409257321
 10
0.5459101134064911
 20
0.34680678942893
 10
0.5399012860077351
 20
0.356307232748581
 10
0.534460861200758
 20
0.3646708708846829
 10
0.5296700393558051
 20
0.371978904207492
 10
0.52552882047288
 20
0.378068931976498
 10
0.5219560041817301
 20
0.383103354932211
 10
0.519032790852604
 20
0.3870821730746279
 10
0.5166779801152561
 20
0.389842985663245
 10
0.5149727723399331
 20
0.391548193438567
 10
0.513917167526637
 20
0.3921165960303401
 10
0.470393769070805
 20
0.3921165960303401
 10
0.4647097431530671
 20
0.387650575666402
 10
0.4647097431530671
 20
0.206492549631015
 10
0.470393769070805
 20
0.201945328896824
 10
0.512780362343092
 20
0.201945328896824
 10
0.5183831878905801
 20
0.206492549631015
 10
0.5183831878905801
 20
0.303932993935123
 10
0.525691221213384
 20
0.29224014061863
 10
0.533486456757716
 20
0.279978884710363
 10
0.5403884882292561
 20
0.269260435836912
 10
0.546397315628008
 20
0.260247194738782
 10
0.551512938953975
 20
0.252695560305213
 10
0.555735358207153
 20
0.246849133646967
 10
0.559064573387543
 20
0.242545514023536
 10
0.5615005844951441
 20
0.239865901805172
 10
0.5630433915299611
 20
0.238729096621624
 10
0.6046991814699662
 20
0.238729096621624
 10
0.6049427825807272
 20
0.238810296991878
 10
0.606566789985793
 20
0.240109502915932
 10
0.609084001463652
 20
0.243113916615309
 10
0.612494417014295
 20
0.247742337719754
 10
0.61687923700798
 20
0.253994766229268
 10
0.6221572610744541
 20
0.2619524025141029
 10
0.6284096895839661
 20
0.271615246574261
  0
LWPOLYLINE
  5
7B2E
102
{ACAD_REACTORS
330
7AF9
330
7AFD
102
}
330
7AF5
100
AcDbEntity
  8
TITLEBLOCK
 62
   154
100
AcDbPolyline
 90
       20
 70
     1
 43
0.0
 10
0.246712666543866
 20
0.206492549631015
 10
0.25231549209135
 20
0.201945328896824
 10
0.295838890547186
 20
0.201945328896824
 10
0.301522916464927
 20
0.206492549631015
 10
0.301522916464927
 20
0.274619660273637
 10
0.384509694863924
 20
0.274619660273637
 10
0.384509694863924
 20
0.206492549631015
 10
0.390193720781665
 20
0.201945328896824
 10
0.432580314053952
 20
0.201945328896824
 10
0.438183139601437
 20
0.206492549631015
 10
0.438183139601437
 20
0.3875693752961489
 10
0.4327427147944601
 20
0.3921165960303401
 10
0.390193720781665
 20
0.3921165960303401
 10
0.384509694863924
 20
0.387812976406909
 10
0.384509694863924
 20
0.318467860210486
 10
0.301522916464927
 20
0.318467860210486
 10
0.301522916464927
 20
0.3875693752961489
 10
0.296001291287693
 20
0.3921165960303401
 10
0.25231549209135
 20
0.3921165960303401
 10
0.246712666543866
 20
0.387650575666402
  0
LWPOLYLINE
  5
7B2F
102
{ACAD_REACTORS
330
7AF9
102
}
330
7AF5
100
AcDbEntity
  8
TITLEBLOCK
 62
   154
100
AcDbPolyline
 90
       12
 70
     1
 43
0.0
 10
0.8601555462872358
 20
0.4040530504575941
 10
0.857069932217607
 20
0.411442284150655
 10
0.8496806985245457
 20
0.414527898220285
 10
0.175717625421131
 20
0.414527898220285
 10
0.168247191357819
 20
0.411442284150655
 10
0.165161577288187
 20
0.4040530504575941
 10
0.165161577288187
 20
0.19260728631768
 10
0.168247191357819
 20
0.185136852254365
 10
0.175717625421131
 20
0.182051238184735
 10
0.8496806985245457
 20
0.182051238184735
 10
0.857069932217607
 20
0.185136852254365
 10
0.8601555462872358
 20
0.19260728631768
  0
LWPOLYLINE
  5
7B30
102
{ACAD_REACTORS
330
7AF9
102
}
330
7AF5
100
AcDbEntity
  8
TITLEBLOCK
 62
   154
100
AcDbPolyline
 90
        8
 70
     0
 43
0.0
 10
0.0000000241927243
 20
0.16556756302329
 10
0.0026796364110897
 20
0.154849114149839
 10
0.0103936715851649
 20
0.146972678235257
 10
0.0210309200883625
 20
0.144049464906133
 10
0.9985209771990691
 20
0.144049464906133
 10
1.009239426072519
 20
0.146972678235256
 10
1.01695346124659
 20
0.154849114149838
 10
1.019633073464959
 20
0.16556756302329
  0
LWPOLYLINE
  5
7B31
102
{ACAD_REACTORS
330
7AF9
102
}
330
7AF5
100
AcDbEntity
  8
TITLEBLOCK
 62
   154
100
AcDbPolyline
 90
        8
 70
     0
 43
0.0
 10
1.019633073464959
 20
0.4279259593121
 10
1.01695346124659
 20
0.438644408185552
 10
1.009239426072519
 20
0.446520844100134
 10
0.9985209771990691
 20
0.449444057429257
 10
0.0210309200883625
 20
0.449444057429257
 10
0.0103936715851649
 20
0.446520844100134
 10
0.0026796364110897
 20
0.438644408185552
 10
0.0000000241927243
 20
0.4279259593121
  0
ENDBLK
  5
7B32
330
7AF5
100
AcDbEntity
  8
0
100
AcDbBlockEnd
  0
BLOCK
  5
7C17
330
7C16
100
AcDbEntity
  8
0
100
AcDbBlockBegin
  2
*D9
 70
     1
 10
0.0
 20
0.0
 30
0.0
  3
*D9
  1

  0
LINE
  5
7C23
330
7C16
100
AcDbEntity
  8
Dimension
  6
ByBlock
 62
     0
440
 16777216
370
    -2
100
AcDbLine
 10
9.421255111694339
 20
16.8538398742676
 30
0.0
 11
9.421255111694339
 21
17.2713398861885
 31
0.0
  0
LINE
  5
7C24
330
7C16
100
AcDbEntity
  8
Dimension
  6
ByBlock
 62
     0
440
 16777216
370
    -2
100
AcDbLine
 10
24.578742980957
 20
16.8538398742676
 30
0.0
 11
24.578742980957
 21
17.2713398861885
 31
0.0
  0
LINE
  5
7C25
330
7C16
100
AcDbEntity
  8
Dimension
  6
ByBlock
 62
     0
440
 16777216
370
    -2
100
AcDbLine
 10
9.601255111694339
 20
17.0913398861885
 30
0.0
 11
15.73999904632567
 21
17.0913398861885
 31
0.0
  0
LINE
  5
7C26
330
7C16
100
AcDbEntity
  8
Dimension
  6
ByBlock
 62
     0
440
 16777216
370
    -2
100
AcDbLine
 10
24.398742980957
 20
17.0913398861885
 30
0.0
 11
18.25999904632567
 21
17.0913398861885
 31
0.0
  0
SOLID
  5
7C27
330
7C16
100
AcDbEntity
  8
Dimension
 62
     0
440
 16777216
100
AcDbTrace
 10
9.601255111694339
 20
17.1213398861885
 30
0.0
 11
9.601255111694339
 21
17.0613398861885
 31
0.0
 12
9.421255111694339
 22
17.0913398861885
 32
0.0
 13
9.421255111694339
 23
17.0913398861885
 33
0.0
  0
SOLID
  5
7C28
330
7C16
100
AcDbEntity
  8
Dimension
 62
     0
440
 16777216
100
AcDbTrace
 10
24.398742980957
 20
17.1213398861885
 30
0.0
 11
24.398742980957
 21
17.0613398861885
 31
0.0
 12
24.578742980957
 22
17.0913398861885
 32
0.0
 13
24.578742980957
 23
17.0913398861885
 33
0.0
  0
MTEXT
  5
7C29
330
7C16
100
AcDbEntity
  8
Dimension
 62
     0
440
 16777216
100
AcDbMText
 10
16.99999904632567
 20
17.0913398861885
 30
0.0
 40
0.18
 41
0.0
 46
0.0
 71
     5
 72
     1
  1
\A1;15.1575 [385.00]
 73
     1
 44
1.0
  0
POINT
  5
7C2A
330
7C16
100
AcDbEntity
  8
Defpoints
 62
     0
440
 16777216
100
AcDbPoint
 10
9.421255111694339
 20
16.7913398742676
 30
0.0
  0
POINT
  5
7C2B
330
7C16
100
AcDbEntity
  8
Defpoints
 62
     0
440
 16777216
100
AcDbPoint
 10
24.578742980957
 20
16.7913398742676
 30
0.0
  0
POINT
  5
7C2C
330
7C16
100
AcDbEntity
  8
Defpoints
 62
     0
440
 16777216
100
AcDbPoint
 10
24.578742980957
 20
17.0913398861885
 30
0.0
  0
ENDBLK
  5
7C18
330
7C16
100
AcDbEntity
  8
0
100
AcDbBlockEnd
  0
BLOCK
  5
7C2E
330
7C2D
100
AcDbEntity
  8
0
100
AcDbBlockBegin
  2
*D10
 70
     1
 10
0.0
 20
0.0
 30
0.0
  3
*D10
  1

  0
LINE
  5
7C3A
330
7C2D
100
AcDbEntity
  8
Dimension
  6
ByBlock
 62
     0
440
 16777216
370
    -2
100
AcDbLine
 10
9.358755111694343
 20
5.708659172058111
 30
0.0
 11
8.941255099773419
 21
5.708659172058111
 31
0.0
  0
LINE
  5
7C3B
330
7C2D
100
AcDbEntity
  8
Dimension
  6
ByBlock
 62
     0
440
 16777216
370
    -2
100
AcDbLine
 10
9.358755111694343
 20
16.79133987426761
 30
0.0
 11
8.941255099773417
 21
16.79133987426761
 31
0.0
  0
LINE
  5
7C3C
330
7C2D
100
AcDbEntity
  8
Dimension
  6
ByBlock
 62
     0
440
 16777216
370
    -2
100
AcDbLine
 10
9.121255099773419
 20
5.888659172058111
 30
0.0
 11
9.121255099773419
 21
10.00714238030571
 31
0.0
  0
LINE
  5
7C3D
330
7C2D
100
AcDbEntity
  8
Dimension
  6
ByBlock
 62
     0
440
 16777216
370
    -2
100
AcDbLine
 10
9.121255099773417
 20
16.61133987426761
 30
0.0
 11
9.121255099773417
 21
12.49285666602
 31
0.0
  0
SOLID
  5
7C3E
330
7C2D
100
AcDbEntity
  8
Dimension
 62
     0
440
 16777216
100
AcDbTrace
 10
9.09125509977342
 20
5.888659172058111
 30
0.0
 11
9.151255099773418
 21
5.888659172058111
 31
0.0
 12
9.121255099773419
 22
5.708659172058111
 32
0.0
 13
9.121255099773419
 23
5.708659172058111
 33
0.0
  0
SOLID
  5
7C3F
330
7C2D
100
AcDbEntity
  8
Dimension
 62
     0
440
 16777216
100
AcDbTrace
 10
9.091255099773418
 20
16.61133987426761
 30
0.0
 11
9.151255099773417
 21
16.61133987426761
 31
0.0
 12
9.121255099773417
 22
16.79133987426761
 32
0.0
 13
9.121255099773417
 23
16.79133987426761
 33
0.0
  0
MTEXT
  5
7C40
330
7C2D
100
AcDbEntity
  8
Dimension
 62
     0
440
 16777216
100
AcDbMText
 10
9.121255099773419
 20
11.24999952316285
 30
0.0
 40
0.18
 41
0.0
 46
0.0
 71
     5
 72
     1
  1
\A1;11.0827 [281.50]
 11
0.0000000000000001
 21
1.0
 31
0.0
 73
     1
 44
1.0
  0
POINT
  5
7C41
330
7C2D
100
AcDbEntity
  8
Defpoints
 62
     0
440
 16777216
100
AcDbPoint
 10
9.421255111694343
 20
5.708659172058111
 30
0.0
  0
POINT
  5
7C42
330
7C2D
100
AcDbEntity
  8
Defpoints
 62
     0
440
 16777216
100
AcDbPoint
 10
9.421255111694343
 20
16.79133987426761
 30
0.0
  0
POINT
  5
7C43
330
7C2D
100
AcDbEntity
  8
Defpoints
 62
     0
440
 16777216
100
AcDbPoint
 10
9.121255099773417
 20
16.79133987426761
 30
0.0
  0
ENDBLK
  5
7C2F
330
7C2D
100
AcDbEntity
  8
0
100
AcDbBlockEnd
  0
BLOCK
  5
7C45
330
7C44
100
AcDbEntity
  8
0
100
AcDbBlockBegin
  2
*D11
 70
     1
 10
0.0
 20
0.0
 30
0.0
  3
*D11
  1

  0
LINE
  5
7C51
330
7C44
100
AcDbEntity
  8
Dimension
  6
ByBlock
 62
     0
440
 16777216
370
    -2
100
AcDbLine
 10
23.1417350769043
 20
15.4788408279419
 30
0.0
 11
23.1417350769043
 21
15.061340816021
 31
0.0
  0
LINE
  5
7C52
330
7C44
100
AcDbEntity
  8
Dimension
  6
ByBlock
 62
     0
440
 16777216
370
    -2
100
AcDbLine
 10
10.8582639694214
 20
15.4788408279419
 30
0.0
 11
10.8582639694214
 21
15.061340816021
 31
0.0
  0
LINE
  5
7C53
330
7C44
100
AcDbEntity
  8
Dimension
  6
ByBlock
 62
     0
440
 16777216
370
    -2
100
AcDbLine
 10
22.9617350769043
 20
15.241340816021
 30
0.0
 11
18.25999952316285
 21
15.241340816021
 31
0.0
  0
LINE
  5
7C54
330
7C44
100
AcDbEntity
  8
Dimension
  6
ByBlock
 62
     0
440
 16777216
370
    -2
100
AcDbLine
 10
11.0382639694214
 20
15.241340816021
 30
0.0
 11
15.73999952316285
 21
15.241340816021
 31
0.0
  0
SOLID
  5
7C55
330
7C44
100
AcDbEntity
  8
Dimension
 62
     0
440
 16777216
100
AcDbTrace
 10
22.9617350769043
 20
15.271340816021
 30
0.0
 11
22.9617350769043
 21
15.211340816021
 31
0.0
 12
23.1417350769043
 22
15.241340816021
 32
0.0
 13
23.1417350769043
 23
15.241340816021
 33
0.0
  0
SOLID
  5
7C56
330
7C44
100
AcDbEntity
  8
Dimension
 62
     0
440
 16777216
100
AcDbTrace
 10
11.0382639694214
 20
15.271340816021
 30
0.0
 11
11.0382639694214
 21
15.211340816021
 31
0.0
 12
10.8582639694214
 22
15.241340816021
 32
0.0
 13
10.8582639694214
 23
15.241340816021
 33
0.0
  0
MTEXT
  5
7C57
330
7C44
100
AcDbEntity
  8
Dimension
 62
     0
440
 16777216
100
AcDbMText
 10
16.99999952316285
 20
15.241340816021
 30
0.0
 40
0.18
 41
0.0
 46
0.0
 71
     5
 72
     1
  1
\A1;12.2835 [312.00]
 73
     1
 44
1.0
  0
POINT
  5
7C58
330
7C44
100
AcDbEntity
  8
Defpoints
 62
     0
440
 16777216
100
AcDbPoint
 10
23.1417350769043
 20
15.5413408279419
 30
0.0
  0
POINT
  5
7C59
330
7C44
100
AcDbEntity
  8
Defpoints
 62
     0
440
 16777216
100
AcDbPoint
 10
10.8582639694214
 20
15.5413408279419
 30
0.0
  0
POINT
  5
7C5A
330
7C44
100
AcDbEntity
  8
Defpoints
 62
     0
440
 16777216
100
AcDbPoint
 10
10.8582639694214
 20
15.241340816021
 30
0.0
  0
ENDBLK
  5
7C46
330
7C44
100
AcDbEntity
  8
0
100
AcDbBlockEnd
  0
BLOCK
  5
7C5C
330
7C5B
100
AcDbEntity
  8
0
100
AcDbBlockBegin
  2
*D12
 70
     1
 10
0.0
 20
0.0
 30
0.0
  3
*D12
  1

  0
LINE
  5
7C68
330
7C5B
100
AcDbEntity
  8
Dimension
  6
ByBlock
 62
     0
440
 16777216
370
    -2
100
AcDbLine
 10
10.9207639694214
 20
15.5413408279419
 30
0.0
 11
11.3382639813423
 21
15.5413408279419
 31
0.0
  0
LINE
  5
7C69
330
7C5B
100
AcDbEntity
  8
Dimension
  6
ByBlock
 62
     0
440
 16777216
370
    -2
100
AcDbLine
 10
10.9207639694214
 20
6.958659172058113
 30
0.0
 11
11.33826398134231
 21
6.958659172058113
 31
0.0
  0
LINE
  5
7C6A
330
7C5B
100
AcDbEntity
  8
Dimension
  6
ByBlock
 62
     0
440
 16777216
370
    -2
100
AcDbLine
 10
11.1582639813423
 20
15.3613408279419
 30
0.0
 11
11.1582639813423
 21
12.44142857142858
 31
0.0
  0
LINE
  5
7C6B
330
7C5B
100
AcDbEntity
  8
Dimension
  6
ByBlock
 62
     0
440
 16777216
370
    -2
100
AcDbLine
 10
11.15826398134231
 20
7.138659172058113
 30
0.0
 11
11.15826398134231
 21
10.05857142857143
 31
0.0
  0
SOLID
  5
7C6C
330
7C5B
100
AcDbEntity
  8
Dimension
 62
     0
440
 16777216
100
AcDbTrace
 10
11.12826398134231
 20
15.3613408279419
 30
0.0
 11
11.1882639813423
 21
15.3613408279419
 31
0.0
 12
11.1582639813423
 22
15.5413408279419
 32
0.0
 13
11.1582639813423
 23
15.5413408279419
 33
0.0
  0
SOLID
  5
7C6D
330
7C5B
100
AcDbEntity
  8
Dimension
 62
     0
440
 16777216
100
AcDbTrace
 10
11.12826398134231
 20
7.138659172058113
 30
0.0
 11
11.18826398134231
 21
7.138659172058113
 31
0.0
 12
11.15826398134231
 22
6.958659172058113
 32
0.0
 13
11.15826398134231
 23
6.958659172058113
 33
0.0
  0
MTEXT
  5
7C6E
330
7C5B
100
AcDbEntity
  8
Dimension
 62
     0
440
 16777216
100
AcDbMText
 10
11.15826398134231
 20
11.25
 30
0.0
 40
0.18
 41
0.0
 46
0.0
 71
     5
 72
     1
  1
\A1;8.5827 [218.00]
 11
0.0000000000000001
 21
1.0
 31
0.0
 73
     1
 44
1.0
  0
POINT
  5
7C6F
330
7C5B
100
AcDbEntity
  8
Defpoints
 62
     0
440
 16777216
100
AcDbPoint
 10
10.8582639694214
 20
15.5413408279419
 30
0.0
  0
POINT
  5
7C70
330
7C5B
100
AcDbEntity
  8
Defpoints
 62
     0
440
 16777216
100
AcDbPoint
 10
10.8582639694214
 20
6.958659172058113
 30
0.0
  0
POINT
  5
7C71
330
7C5B
100
AcDbEntity
  8
Defpoints
 62
     0
440
 16777216
100
AcDbPoint
 10
11.15826398134231
 20
6.958659172058113
 30
0.0
  0
ENDBLK
  5
7C5D
330
7C5B
100
AcDbEntity
  8
0
100
AcDbBlockEnd
  0
BLOCK
  5
7C73
330
7C72
100
AcDbEntity
  8
0
100
AcDbBlockBegin
  2
*D13
 70
     1
 10
0.0
 20
0.0
 30
0.0
  3
*D13
  1

  0
LINE
  5
7C7F
330
7C72
100
AcDbEntity
  8
Dimension
  6
ByBlock
 62
     0
440
 16777216
370
    -2
100
AcDbLine
 10
10.4055080413818
 20
15.7219514846802
 30
0.0
 11
10.4055080413818
 21
16.1394514966011
 31
0.0
  0
LINE
  5
7C80
330
7C72
100
AcDbEntity
  8
Dimension
  6
ByBlock
 62
     0
440
 16777216
370
    -2
100
AcDbLine
 10
23.5944919586182
 20
15.7219514846802
 30
0.0
 11
23.5944919586182
 21
16.1394514966011
 31
0.0
  0
LINE
  5
7C81
330
7C72
100
AcDbEntity
  8
Dimension
  6
ByBlock
 62
     0
440
 16777216
370
    -2
100
AcDbLine
 10
10.5855080413818
 20
15.9594514966011
 30
0.0
 11
15.74
 21
15.9594514966011
 31
0.0
  0
LINE
  5
7C82
330
7C72
100
AcDbEntity
  8
Dimension
  6
ByBlock
 62
     0
440
 16777216
370
    -2
100
AcDbLine
 10
23.41449195861819
 20
15.9594514966011
 30
0.0
 11
18.26
 21
15.9594514966011
 31
0.0
  0
SOLID
  5
7C83
330
7C72
100
AcDbEntity
  8
Dimension
 62
     0
440
 16777216
100
AcDbTrace
 10
10.5855080413818
 20
15.9894514966011
 30
0.0
 11
10.5855080413818
 21
15.9294514966011
 31
0.0
 12
10.4055080413818
 22
15.9594514966011
 32
0.0
 13
10.4055080413818
 23
15.9594514966011
 33
0.0
  0
SOLID
  5
7C84
330
7C72
100
AcDbEntity
  8
Dimension
 62
     0
440
 16777216
100
AcDbTrace
 10
23.41449195861819
 20
15.9894514966011
 30
0.0
 11
23.41449195861819
 21
15.9294514966011
 31
0.0
 12
23.5944919586182
 22
15.9594514966011
 32
0.0
 13
23.5944919586182
 23
15.9594514966011
 33
0.0
  0
MTEXT
  5
7C85
330
7C72
100
AcDbEntity
  8
Dimension
 62
     0
440
 16777216
100
AcDbMText
 10
17.0
 20
15.9594514966011
 30
0.0
 40
0.18
 41
0.0
 46
0.0
 71
     5
 72
     1
  1
\A1;13.1890 [335.00]
 73
     1
 44
1.0
  0
POINT
  5
7C86
330
7C72
100
AcDbEntity
  8
Defpoints
 62
     0
440
 16777216
100
AcDbPoint
 10
10.4055080413818
 20
15.6594514846802
 30
0.0
  0
POINT
  5
7C87
330
7C72
100
AcDbEntity
  8
Defpoints
 62
     0
440
 16777216
100
AcDbPoint
 10
23.5944919586182
 20
15.6594514846802
 30
0.0
  0
POINT
  5
7C88
330
7C72
100
AcDbEntity
  8
Defpoints
 62
     0
440
 16777216
100
AcDbPoint
 10
23.5944919586182
 20
15.9594514966011
 30
0.0
  0
ENDBLK
  5
7C74
330
7C72
100
AcDbEntity
  8
0
100
AcDbBlockEnd
  0
BLOCK
  5
7C8A
330
7C89
100
AcDbEntity
  8
0
100
AcDbBlockBegin
  2
*D14
 70
     1
 10
0.0
 20
0.0
 30
0.0
  3
*D14
  1

  0
LINE
  5
7C96
330
7C89
100
AcDbEntity
  8
Dimension
  6
ByBlock
 62
     0
440
 16777216
370
    -2
100
AcDbLine
 10
10.3430080413818
 20
6.840548515319824
 30
0.0
 11
9.925508029460909
 21
6.840548515319823
 31
0.0
  0
LINE
  5
7C97
330
7C89
100
AcDbEntity
  8
Dimension
  6
ByBlock
 62
     0
440
 16777216
370
    -2
100
AcDbLine
 10
10.3430080413818
 20
15.6594514846802
 30
0.0
 11
9.925508029460907
 21
15.6594514846802
 31
0.0
  0
LINE
  5
7C98
330
7C89
100
AcDbEntity
  8
Dimension
  6
ByBlock
 62
     0
440
 16777216
370
    -2
100
AcDbLine
 10
10.10550802946091
 20
7.020548515319823
 30
0.0
 11
10.10550802946091
 21
10.05857142857144
 31
0.0
  0
LINE
  5
7C99
330
7C89
100
AcDbEntity
  8
Dimension
  6
ByBlock
 62
     0
440
 16777216
370
    -2
100
AcDbLine
 10
10.10550802946091
 20
15.4794514846802
 30
0.0
 11
10.10550802946091
 21
12.44142857142859
 31
0.0
  0
SOLID
  5
7C9A
330
7C89
100
AcDbEntity
  8
Dimension
 62
     0
440
 16777216
100
AcDbTrace
 10
10.07550802946091
 20
7.020548515319823
 30
0.0
 11
10.13550802946091
 21
7.020548515319823
 31
0.0
 12
10.10550802946091
 22
6.840548515319824
 32
0.0
 13
10.10550802946091
 23
6.840548515319824
 33
0.0
  0
SOLID
  5
7C9B
330
7C89
100
AcDbEntity
  8
Dimension
 62
     0
440
 16777216
100
AcDbTrace
 10
10.07550802946091
 20
15.4794514846802
 30
0.0
 11
10.1355080294609
 21
15.4794514846802
 31
0.0
 12
10.10550802946091
 22
15.6594514846802
 32
0.0
 13
10.10550802946091
 23
15.6594514846802
 33
0.0
  0
MTEXT
  5
7C9C
330
7C89
100
AcDbEntity
  8
Dimension
 62
     0
440
 16777216
100
AcDbMText
 10
10.10550802946091
 20
11.25000000000001
 30
0.0
 40
0.18
 41
0.0
 46
0.0
 71
     5
 72
     1
  1
\A1;8.8189 [224.00]
 11
0.0000000000000001
 21
1.0
 31
0.0
 73
     1
 44
1.0
  0
POINT
  5
7C9D
330
7C89
100
AcDbEntity
  8
Defpoints
 62
     0
440
 16777216
100
AcDbPoint
 10
10.4055080413818
 20
6.840548515319824
 30
0.0
  0
POINT
  5
7C9E
330
7C89
100
AcDbEntity
  8
Defpoints
 62
     0
440
 16777216
100
AcDbPoint
 10
10.4055080413818
 20
15.6594514846802
 30
0.0
  0
POINT
  5
7C9F
330
7C89
100
AcDbEntity
  8
Defpoints
 62
     0
440
 16777216
100
AcDbPoint
 10
10.10550802946091
 20
15.6594514846802
 30
0.0
  0
ENDBLK
  5
7C8B
330
7C89
100
AcDbEntity
  8
0
100
AcDbBlockEnd
  0
ENDSEC
  0
SECTION
  2
ENTITIES
  0
LINE
  5
13E
330
43DD
100
AcDbEntity
  8
TITLEBLOCK
100
AcDbLine
 10
33.9506492010671
 20
-0.0000000000000031
 30
0.0
 11
-0.0493507989328918
 21
0.0
 31
0.0
  0
LINE
  5
144
330
43DD
100
AcDbEntity
  8
TITLEBLOCK
100
AcDbLine
 10
-0.0493507989328918
 20
22.0
 30
0.0
 11
33.9506492010671
 21
22.0
 31
0.0
  0
LINE
  5
145
330
43DD
100
AcDbEntity
  8
TITLEBLOCK
100
AcDbLine
 10
33.9506492010671
 20
22.0
 30
0.0
 11
33.9506492010671
 21
-0.0000000000000031
 31
0.0
  0
LINE
  5
146
330
43DD
100
AcDbEntity
  8
TITLEBLOCK
100
AcDbLine
 10
33.9506492010671
 20
-0.0000000000000031
 30
0.0
 11
-0.0493507989328918
 21
0.0
 31
0.0
  0
LINE
  5
147
330
43DD
100
AcDbEntity
  8
TITLEBLOCK
100
AcDbLine
 10
-0.0493507989328918
 20
0.0
 30
0.0
 11
-0.0493507989328918
 21
22.0
 31
0.0
  0
LINE
  5
121D
330
43DD
100
AcDbEntity
  8
TITLEBLOCK
100
AcDbLine
 10
30.6983332896874
 20
0.4054007989477001
 30
0.0
 11
33.9492577339549
 21
0.4054007989477001
 31
0.0
  0
LINE
  5
121E
330
43DD
100
AcDbEntity
  8
TITLEBLOCK
100
AcDbLine
 10
30.6983332896874
 20
-0.0000000000000031
 30
0.0
 11
30.6983332896874
 21
0.8108015978954028
 31
0.0
  0
TEXT
  5
121F
330
43DD
100
AcDbEntity
  8
TITLEBLOCK
100
AcDbText
 10
30.737716098345
 20
0.3401544703707549
 30
0.0
 40
0.0354772834646045
  1
INFORMATION
100
AcDbText
  0
TEXT
  5
1220
330
43DD
100
AcDbEntity
  8
TITLEBLOCK
100
AcDbText
 10
30.737716098345
 20
0.7455552693184571
 30
0.0
 40
0.0354772834646045
  1
DRAWING NAME
100
AcDbText
  0
TEXT
  5
1221
330
43DD
100
AcDbEntity
  8
TITLEBLOCK
100
AcDbText
 10
26.39323519419249
 20
0.1020982271269783
 30
0.0
 40
0.1
  1
www.hmiadapterplate.com
 72
     1
 11
27.3479970989544
 21
0.068764893793645
 31
0.0
100
AcDbText
 73
     1
  0
LINE
  5
1222
330
43DD
100
AcDbEntity
  8
TITLEBLOCK
100
AcDbLine
 10
28.5699790952119
 20
0.7094513981584772
 30
0.0
 11
30.6983332896874
 21
0.7094513981584772
 31
0.0
  0
LINE
  5
1223
330
43DD
100
AcDbEntity
  8
TITLEBLOCK
100
AcDbLine
 10
28.9753798941596
 20
-0.0000000000000031
 30
0.0
 11
28.9753798941596
 21
0.7094513981584772
 31
0.0
  0
TEXT
  5
1224
330
43DD
100
AcDbEntity
  8
TITLEBLOCK
100
AcDbText
 10
29.4485554257928
 20
0.73481730257374
 30
0.0
 40
0.0506183909064019
  1
REVISIONS
 72
     1
 11
29.6341561924496
 21
0.760126498026941
 31
0.0
100
AcDbText
 73
     2
  0
LINE
  5
1225
330
43DD
100
AcDbEntity
  8
TITLEBLOCK
100
AcDbLine
 10
28.5699790952119
 20
-0.0000000000000031
 30
0.0
 11
28.5699790952119
 21
0.8108015978954028
 31
0.0
  0
LINE
  5
1226
330
43DD
100
AcDbEntity
  8
TITLEBLOCK
100
AcDbLine
 10
28.5699790952119
 20
0.6081011984215521
 30
0.0
 11
30.6983332896874
 21
0.6081011984215521
 31
0.0
  0
LINE
  5
1227
330
43DD
100
AcDbEntity
  8
TITLEBLOCK
100
AcDbLine
 10
28.5699790952119
 20
0.506750998684626
 30
0.0
 11
30.6983332896874
 21
0.506750998684626
 31
0.0
  0
LINE
  5
1228
330
43DD
100
AcDbEntity
  8
TITLEBLOCK
100
AcDbLine
 10
28.5699790952119
 20
0.4054007989477001
 30
0.0
 11
30.6983332896874
 21
0.4054007989477001
 31
0.0
  0
LINE
  5
1229
330
43DD
100
AcDbEntity
  8
TITLEBLOCK
100
AcDbLine
 10
28.5699790952119
 20
0.304050599210774
 30
0.0
 11
30.6983332896874
 21
0.304050599210774
 31
0.0
  0
LINE
  5
122A
330
43DD
100
AcDbEntity
  8
TITLEBLOCK
100
AcDbLine
 10
28.5699790952119
 20
0.202700399473849
 30
0.0
 11
30.6983332896874
 21
0.202700399473849
 31
0.0
  0
LINE
  5
122B
330
43DD
100
AcDbEntity
  8
TITLEBLOCK
100
AcDbLine
 10
28.5699790952119
 20
0.101350199736923
 30
0.0
 11
30.6983332896874
 21
0.101350199736923
 31
0.0
  0
LINE
  5
122C
330
43DD
100
AcDbEntity
  8
TITLEBLOCK
100
AcDbLine
 10
30.29293249073961
 20
0.7094513981584772
 30
0.0
 11
30.29293249073961
 21
-0.0000000000000031
 31
0.0
  0
TEXT
  5
122D
330
43DD
100
AcDbEntity
  8
TITLEBLOCK
100
AcDbText
 10
30.41706235441745
 20
0.6364792543478904
 30
0.0
 40
0.0445940878842474
  1
DATE
 72
     1
 11
30.4956328902135
 21
0.6587762982900141
 31
0.0
100
AcDbText
 73
     2
  0
TEXT
  5
122E
330
43DD
100
AcDbEntity
  8
TITLEBLOCK
100
AcDbText
 10
29.42923574098151
 20
0.6364792543478904
 30
0.0
 40
0.0445940878842474
  1
DESCRIPTION
 72
     1
 11
29.6341561924496
 21
0.6587762982900141
 31
0.0
100
AcDbText
 73
     2
  0
LINE
  5
122F
330
43DD
100
AcDbEntity
  8
TITLEBLOCK
100
AcDbLine
 10
33.9506492010671
 20
0.8108015978954028
 30
0.0
 11
26.0757743360389
 21
0.8108015978954028
 31
0.0
  0
LINE
  5
1230
330
43DD
100
AcDbEntity
  8
TITLEBLOCK
100
AcDbLine
 10
26.0757743360389
 20
0.8108015978954028
 30
0.0
 11
26.0757743360389
 21
-0.0000000000000031
 31
0.0
  0
TEXT
  5
1233
330
43DD
100
AcDbEntity
  8
TITLEBLOCK
100
AcDbText
 10
33.1929153568518
 20
0.3401544703707549
 30
0.0
 40
0.0354772834646045
  1
UNITS
100
AcDbText
  0
LINE
  5
1234
330
43DD
100
AcDbEntity
  8
TITLEBLOCK
100
AcDbLine
 10
33.1535325481941
 20
-0.000000000000003
 30
0.0
 11
33.1535325481941
 21
0.4054007989477001
 31
0.0
  0
INSERT
  5
1235
330
43DD
100
AcDbEntity
  8
0
100
AcDbBlockReference
  2
*U5
 10
0.0
 20
0.0
 30
0.0
  0
INSERT
  5
1262
330
43DD
100
AcDbEntity
  8
0
100
AcDbBlockReference
  2
*U6
 10
0.0
 20
0.0
 30
0.0
  0
INSERT
  5
12AE
330
43DD
100
AcDbEntity
  8
0
100
AcDbBlockReference
  2
1INHALFWASHER
 10
4.913794882599539
 20
0.8484387381330408
 30
0.0
  0
INSERT
  5
12AF
330
43DD
100
AcDbEntity
  8
0
100
AcDbBlockReference
  2
1INWASHER
 10
5.88172665430412
 20
0.8484387381330408
 30
0.0
  0
INSERT
  5
12B0
330
43DD
100
AcDbEntity
  8
0
100
AcDbBlockReference
  2
1_2INWASHER
 10
7.8175901495982
 20
0.8484388782626409
 30
0.0
  0
INSERT
  5
12B1
330
43DD
100
AcDbEntity
  8
0
100
AcDbBlockReference
  2
3_4INWASHER
 10
6.8496584260087
 20
0.8484387731654408
 30
0.0
  0
INSERT
  5
12B3
330
43DD
100
AcDbEntity
  8
0
100
AcDbBlockReference
  2
LOCKNUT
 10
8.78552187318769
 20
0.8484388777492391
 30
0.0
  0
TEXT
  5
4494
330
43DD
100
AcDbEntity
  8
TEXT
100
AcDbText
 10
5.70672664735025
 20
0.222898744016464
 30
0.0
 40
0.0750000029802322
  1
#10 1"
100
AcDbText
  0
TEXT
  5
4495
330
43DD
100
AcDbEntity
  8
TEXT
100
AcDbText
 10
5.66565521714679
 20
0.0978987390494098
 30
0.0
 40
0.0750000029802322
  1
WASHER
100
AcDbText
  0
TEXT
  5
4496
330
43DD
100
AcDbEntity
  8
TEXT
100
AcDbText
 10
8.483736146910089
 20
0.237184598486039
 30
0.0
 40
0.0750000029802322
  1
#10 NYLON
100
AcDbText
  0
TEXT
  5
4497
330
43DD
100
AcDbEntity
  8
TEXT
100
AcDbText
 10
8.503379004833488
 20
0.112184593518985
 30
0.0
 40
0.0750000029802322
  1
LOCK NUT
100
AcDbText
  0
TEXT
  5
4498
330
43DD
100
AcDbEntity
  8
TEXT
100
AcDbText
 10
6.5925155586479
 20
0.222898779048863
 30
0.0
 40
0.0750000029802322
  1
#10 3/4"
100
AcDbText
  0
TEXT
  5
4499
330
43DD
100
AcDbEntity
  8
TEXT
100
AcDbText
 10
6.63358698885136
 20
0.0978987740818097
 30
0.0
 40
0.0750000029802322
  1
WASHER
100
AcDbText
  0
TEXT
  5
449A
330
43DD
100
AcDbEntity
  8
TEXT
100
AcDbText
 10
7.56759013966409
 20
0.222898884146064
 30
0.0
 40
0.0750000029802322
  1
#10 1/2"
100
AcDbText
  0
TEXT
  5
449B
330
43DD
100
AcDbEntity
  8
TEXT
100
AcDbText
 10
7.60151871244086
 20
0.0978988791790099
 30
0.0
 40
0.0750000029802322
  1
WASHER
100
AcDbText
  0
TEXT
  5
449C
330
43DD
100
AcDbEntity
  8
TEXT
100
AcDbText
 10
9.44528511681276
 20
0.222898882605859
 30
0.0
 40
0.0750000029802322
  1
#10 X 3/4"
100
AcDbText
  0
TEXT
  5
449D
330
43DD
100
AcDbEntity
  8
TEXT
100
AcDbText
 10
9.4613565460228
 20
0.0978988776388058
 30
0.0
 40
0.0750000029802322
  1
WELD STUD
100
AcDbText
  0
TEXT
  5
449E
330
43DD
100
AcDbEntity
  8
TEXT
100
AcDbText
 10
4.738794875645669
 20
0.222898744016464
 30
0.0
 40
0.0750000029802322
  1
#10 1"
100
AcDbText
  0
TEXT
  5
449F
330
43DD
100
AcDbEntity
  8
TEXT
100
AcDbText
 10
4.42102083654437
 20
0.0978987390494098
 30
0.0
 40
0.0750000029802322
  1
CLIPPED WASHER
100
AcDbText
  0
INSERT
  5
7B3C
330
43DD
100
AcDbEntity
  8
BORDER
100
AcDbBlockReference
  2
HEARN_LOGO
 10
27.3097614889294
 20
0.3329449402208
 30
0.0
 41
0.293442689711741
 42
0.293442689711741
 43
0.293442689711741
  0
INSERT
  5
7B3D
330
43DD
100
AcDbEntity
  8
0
100
AcDbBlockReference
  2
A$C39c31aca
 10
26.1978101260892
 20
0.290504383226935
 30
0.0
  0
CIRCLE
  5
7B43
330
43DD
100
AcDbEntity
  8
STUD
100
AcDbCircle
 10
9.753453635053659
 20
0.848438876722434
 30
0.0
 40
0.0949999988079071
  0
LINE
  5
7B4C
330
43DD
100
AcDbEntity
  8
STUD
100
AcDbLine
 10
9.683453635053689
 20
0.848438876722434
 30
0.0
 11
9.823453635053649
 21
0.848438876722434
 31
0.0
  0
LINE
  5
7B4D
330
43DD
100
AcDbEntity
  8
STUD
100
AcDbLine
 10
9.753453635053659
 20
0.7784388767224341
 30
0.0
 11
9.753453635053659
 21
0.918438876722435
 31
0.0
  0
LINE
  5
7B61
330
43DD
100
AcDbEntity
  8
Plate
100
AcDbLine
 10
9.421255111694339
 20
5.708659172058109
 30
0.0
 11
9.421255111694339
 21
16.7913398742676
 31
0.0
  0
LINE
  5
7B62
330
43DD
100
AcDbEntity
  8
Plate
100
AcDbLine
 10
9.421255111694339
 20
16.7913398742676
 30
0.0
 11
24.578742980957
 21
16.7913398742676
 31
0.0
  0
LINE
  5
7B63
330
43DD
100
AcDbEntity
  8
Plate
100
AcDbLine
 10
24.578742980957
 20
16.7913398742676
 30
0.0
 11
24.578742980957
 21
5.708659172058109
 31
0.0
  0
LINE
  5
7B64
330
43DD
100
AcDbEntity
  8
Plate
100
AcDbLine
 10
24.578742980957
 20
5.708659172058109
 30
0.0
 11
9.421255111694339
 21
5.708659172058109
 31
0.0
  0
LINE
  5
7B65
330
43DD
100
AcDbEntity
  8
Plate
100
AcDbLine
 10
10.8582639694214
 20
6.958659172058109
 30
0.0
 11
10.8582639694214
 21
15.5413408279419
 31
0.0
  0
LINE
  5
7B66
330
43DD
100
AcDbEntity
  8
Plate
100
AcDbLine
 10
10.8582639694214
 20
15.5413408279419
 30
0.0
 11
23.1417350769043
 21
15.5413408279419
 31
0.0
  0
LINE
  5
7B67
330
43DD
100
AcDbEntity
  8
Plate
100
AcDbLine
 10
23.1417350769043
 20
15.5413408279419
 30
0.0
 11
23.1417350769043
 21
6.958659172058109
 31
0.0
  0
LINE
  5
7B68
330
43DD
100
AcDbEntity
  8
Plate
100
AcDbLine
 10
23.1417350769043
 20
6.958659172058109
 30
0.0
 11
10.8582639694214
 21
6.958659172058109
 31
0.0
  0
HATCH
  5
7B69
330
43DD
100
AcDbEntity
  8
Plate
 62
     9
100
AcDbHatch
 10
0.0
 20
0.0
 30
0.0
210
0.0
220
0.0
230
1.0
  2
DOTS
 70
     0
 71
     0
 91
        3
 92
        5
 93
        0
 97
        0
 92
        5
 93
        4
 72
     1
 10
9.421255111694339
 20
5.708659172058109
 11
9.421255111694339
 21
16.7913398742676
 72
     1
 10
9.421255111694339
 20
16.7913398742676
 11
24.578742980957
 21
16.7913398742676
 72
     1
 10
24.578742980957
 20
16.7913398742676
 11
24.578742980957
 21
5.708659172058109
 72
     1
 10
24.578742980957
 20
5.708659172058109
 11
9.421255111694339
 21
5.708659172058109
 97
        0
 92
        5
 93
        4
 72
     1
 10
10.8582639694214
 20
6.958659172058109
 11
10.8582639694214
 21
15.5413408279419
 72
     1
 10
10.8582639694214
 20
15.5413408279419
 11
23.1417350769043
 21
15.5413408279419
 72
     1
 10
23.1417350769043
 20
15.5413408279419
 11
23.1417350769043
 21
6.95865917205811
 72
     1
 10
23.1417350769043
 20
6.958659172058109
 11
10.8582639694214
 21
6.958659172058109
 97
        0
 75
     0
 76
     1
 52
0.0
 41
5.0
 77
     0
 78
     1
 53
0.0
 43
0.0
 44
0.0
 45
0.15625
 46
0.3125
 79
     2
 49
0.0
 49
-0.3125
 47
0.0
 98
        1
 10
0.0
 20
0.0
1001
ACAD
1010
0.0
1020
0.0
1030
0.0
  0
LINE
  5
7B6A
330
43DD
100
AcDbEntity
  8
Gasket
100
AcDbLine
 10
9.43375492095947
 20
5.721158981323239
 30
0.0
 11
9.43375492095947
 21
16.7788410186768
 31
0.0
  0
LINE
  5
7B6B
330
43DD
100
AcDbEntity
  8
Gasket
100
AcDbLine
 10
9.43375492095947
 20
16.7788410186768
 30
0.0
 11
24.5662441253662
 21
16.7788410186768
 31
0.0
  0
LINE
  5
7B6C
330
43DD
100
AcDbEntity
  8
Gasket
100
AcDbLine
 10
24.5662441253662
 20
16.7788410186768
 30
0.0
 11
24.5662441253662
 21
5.721158981323239
 31
0.0
  0
LINE
  5
7B6D
330
43DD
100
AcDbEntity
  8
Gasket
100
AcDbLine
 10
24.5662441253662
 20
5.721158981323239
 30
0.0
 11
9.43375492095947
 21
5.721158981323239
 31
0.0
  0
LINE
  5
7B6E
330
43DD
100
AcDbEntity
  8
Gasket
100
AcDbLine
 10
9.93375492095947
 20
6.221158981323239
 30
0.0
 11
9.93375492095947
 21
16.2788410186768
 31
0.0
  0
LINE
  5
7B6F
330
43DD
100
AcDbEntity
  8
Gasket
100
AcDbLine
 10
9.93375492095947
 20
16.2788410186768
 30
0.0
 11
24.0662441253662
 21
16.2788410186768
 31
0.0
  0
LINE
  5
7B70
330
43DD
100
AcDbEntity
  8
Gasket
100
AcDbLine
 10
24.0662441253662
 20
16.2788410186768
 30
0.0
 11
24.0662441253662
 21
6.221158981323239
 31
0.0
  0
LINE
  5
7B71
330
43DD
100
AcDbEntity
  8
Gasket
100
AcDbLine
 10
24.0662441253662
 20
6.221158981323239
 30
0.0
 11
9.93375492095947
 21
6.221158981323239
 31
0.0
  0
HATCH
  5
7B72
330
43DD
100
AcDbEntity
  8
Gasket
100
AcDbHatch
 10
0.0
 20
0.0
 30
0.0
210
0.0
220
0.0
230
1.0
  2
LINE
 70
     0
 71
     0
 91
        3
 92
        5
 93
        0
 97
        0
 92
        5
 93
        4
 72
     1
 10
9.43375492095947
 20
5.721158981323239
 11
9.43375492095947
 21
16.7788410186768
 72
     1
 10
9.43375492095947
 20
16.7788410186768
 11
24.5662441253662
 21
16.7788410186768
 72
     1
 10
24.5662441253662
 20
16.7788410186768
 11
24.5662441253662
 21
5.721158981323238
 72
     1
 10
24.5662441253662
 20
5.721158981323239
 11
9.43375492095947
 21
5.721158981323239
 97
        0
 92
        5
 93
        4
 72
     1
 10
9.93375492095947
 20
6.221158981323239
 11
9.93375492095947
 21
16.2788410186768
 72
     1
 10
9.93375492095947
 20
16.2788410186768
 11
24.0662441253662
 21
16.2788410186768
 72
     1
 10
24.0662441253662
 20
16.2788410186768
 11
24.0662441253662
 21
6.221158981323238
 72
     1
 10
24.0662441253662
 20
6.221158981323239
 11
9.93375492095947
 21
6.221158981323239
 97
        0
 75
     0
 76
     1
 52
45.0
 41
1.0
 77
     0
 78
     1
 53
45.0
 43
0.0
 44
0.0
 45
-0.0883883476483184
 46
0.0883883476483184
 79
     0
 47
0.0
 98
        1
 10
0.0
 20
0.0
1001
ACAD
1010
0.0
1020
0.0
1030
0.0
  0
CIRCLE
  5
7B73
330
43DD
100
AcDbEntity
  8
STUD
100
AcDbCircle
 10
10.5505075454712
 20
6.98554849624634
 30
0.0
 40
0.0949999988079071
  0
LINE
  5
7B74
330
43DD
100
AcDbEntity
  8
STUD
100
AcDbLine
 10
10.4805075454712
 20
6.98554849624634
 30
0.0
 11
10.6205075454712
 21
6.98554849624634
 31
0.0
  0
LINE
  5
7B75
330
43DD
100
AcDbEntity
  8
STUD
100
AcDbLine
 10
10.5505075454712
 20
6.91554849624634
 30
0.0
 11
10.5505075454712
 21
7.055548496246339
 31
0.0
  0
CIRCLE
  5
7B76
330
43DD
100
AcDbEntity
  8
STUD
100
AcDbCircle
 10
23.4494915008545
 20
6.98554849624634
 30
0.0
 40
0.0949999988079071
  0
LINE
  5
7B77
330
43DD
100
AcDbEntity
  8
STUD
100
AcDbLine
 10
23.3794915008545
 20
6.98554849624634
 30
0.0
 11
23.51949150085451
 21
6.98554849624634
 31
0.0
  0
LINE
  5
7B78
330
43DD
100
AcDbEntity
  8
STUD
100
AcDbLine
 10
23.4494915008545
 20
6.91554849624634
 30
0.0
 11
23.4494915008545
 21
7.055548496246339
 31
0.0
  0
CIRCLE
  5
7B79
330
43DD
100
AcDbEntity
  8
STUD
100
AcDbCircle
 10
23.4494915008545
 20
15.5144510269165
 30
0.0
 40
0.0949999988079071
  0
LINE
  5
7B7A
330
43DD
100
AcDbEntity
  8
STUD
100
AcDbLine
 10
23.3794915008545
 20
15.5144510269165
 30
0.0
 11
23.51949150085451
 21
15.5144510269165
 31
0.0
  0
LINE
  5
7B7B
330
43DD
100
AcDbEntity
  8
STUD
100
AcDbLine
 10
23.4494915008545
 20
15.4444510269165
 30
0.0
 11
23.4494915008545
 21
15.5844510269165
 31
0.0
  0
CIRCLE
  5
7B7C
330
43DD
100
AcDbEntity
  8
STUD
100
AcDbCircle
 10
10.5505075454712
 20
15.5144510269165
 30
0.0
 40
0.0949999988079071
  0
LINE
  5
7B7D
330
43DD
100
AcDbEntity
  8
STUD
100
AcDbLine
 10
10.4805075454712
 20
15.5144510269165
 30
0.0
 11
10.6205075454712
 21
15.5144510269165
 31
0.0
  0
LINE
  5
7B7E
330
43DD
100
AcDbEntity
  8
STUD
100
AcDbLine
 10
10.5505075454712
 20
15.4444510269165
 30
0.0
 11
10.5505075454712
 21
15.5844510269165
 31
0.0
  0
CIRCLE
  5
7B8B
330
43DD
100
AcDbEntity
  8
STUD
100
AcDbCircle
 10
10.5505075454712
 20
11.25
 30
0.0
 40
0.0949999988079071
  0
LINE
  5
7B8C
330
43DD
100
AcDbEntity
  8
STUD
100
AcDbLine
 10
10.4805075454712
 20
11.25
 30
0.0
 11
10.6205075454712
 21
11.25
 31
0.0
  0
LINE
  5
7B8D
330
43DD
100
AcDbEntity
  8
STUD
100
AcDbLine
 10
10.5505075454712
 20
11.18
 30
0.0
 11
10.5505075454712
 21
11.32
 31
0.0
  0
CIRCLE
  5
7B8E
330
43DD
100
AcDbEntity
  8
STUD
100
AcDbCircle
 10
23.4494915008545
 20
11.25
 30
0.0
 40
0.0949999988079071
  0
LINE
  5
7B8F
330
43DD
100
AcDbEntity
  8
STUD
100
AcDbLine
 10
23.3794915008545
 20
11.25
 30
0.0
 11
23.51949150085451
 21
11.25
 31
0.0
  0
LINE
  5
7B90
330
43DD
100
AcDbEntity
  8
STUD
100
AcDbLine
 10
23.4494915008545
 20
11.18
 30
0.0
 11
23.4494915008545
 21
11.32
 31
0.0
  0
HATCH
  5
7B91
330
43DD
100
AcDbEntity
  8
BackPlate
100
AcDbHatch
 10
0.0
 20
0.0
 30
0.0
210
0.0
220
0.0
230
1.0
  2
LINE
 70
     0
 71
     0
 91
        1
 92
        5
 93
        0
 97
        0
 75
     0
 76
     1
 52
315.0
 41
1.0
 77
     0
 78
     1
 53
315.0
 43
0.0
 44
0.0
 45
0.0883883476483185
 46
0.0883883476483184
 79
     0
 47
0.0
 98
        1
 10
0.0
 20
0.0
1001
ACAD
1010
0.0
1020
0.0
1030
0.0
  0
LINE
  5
7B92
330
43DD
100
AcDbEntity
  8
PrevBezel
100
AcDbLine
 10
9.421255111694339
 20
6.289367198944089
 30
0.0
 11
9.421255111694339
 21
16.2106323242188
 31
0.0
  0
LINE
  5
7B93
330
43DD
100
AcDbEntity
  8
PrevBezel
100
AcDbLine
 10
9.421255111694339
 20
16.2106323242188
 30
0.0
 11
24.578742980957
 21
16.2106323242188
 31
0.0
  0
LINE
  5
7B94
330
43DD
100
AcDbEntity
  8
PrevBezel
100
AcDbLine
 10
24.578742980957
 20
16.2106323242188
 30
0.0
 11
24.578742980957
 21
6.289367198944089
 31
0.0
  0
LINE
  5
7B95
330
43DD
100
AcDbEntity
  8
PrevBezel
100
AcDbLine
 10
24.578742980957
 20
6.289367198944089
 30
0.0
 11
9.421255111694339
 21
6.289367198944089
 31
0.0
  0
LINE
  5
7B96
330
43DD
100
AcDbEntity
  8
PrevCutout
100
AcDbLine
 10
10.4055080413818
 20
6.84054851531982
 30
0.0
 11
10.4055080413818
 21
15.6594514846802
 31
0.0
  0
LINE
  5
7B97
330
43DD
100
AcDbEntity
  8
PrevCutout
100
AcDbLine
 10
10.4055080413818
 20
15.6594514846802
 30
0.0
 11
23.5944919586182
 21
15.6594514846802
 31
0.0
  0
LINE
  5
7B98
330
43DD
100
AcDbEntity
  8
PrevCutout
100
AcDbLine
 10
23.5944919586182
 20
15.6594514846802
 30
0.0
 11
23.5944919586182
 21
6.84054851531982
 31
0.0
  0
LINE
  5
7B99
330
43DD
100
AcDbEntity
  8
PrevCutout
100
AcDbLine
 10
23.5944919586182
 20
6.84054851531982
 30
0.0
 11
10.4055080413818
 21
6.84054851531982
 31
0.0
  0
LINE
  5
7B9A
330
43DD
100
AcDbEntity
  8
NewBezel
100
AcDbLine
 10
10.3070821762085
 20
6.525588035583499
 30
0.0
 11
10.3070821762085
 21
15.9744119644165
 31
0.0
  0
LINE
  5
7B9B
330
43DD
100
AcDbEntity
  8
NewBezel
100
AcDbLine
 10
10.3070821762085
 20
15.9744119644165
 30
0.0
 11
23.6929168701172
 21
15.9744119644165
 31
0.0
  0
LINE
  5
7B9C
330
43DD
100
AcDbEntity
  8
NewBezel
100
AcDbLine
 10
23.6929168701172
 20
15.9744119644165
 30
0.0
 11
23.6929168701172
 21
6.525588035583499
 31
0.0
  0
LINE
  5
7B9D
330
43DD
100
AcDbEntity
  8
NewBezel
100
AcDbLine
 10
23.6929168701172
 20
6.525588035583499
 30
0.0
 11
10.3070821762085
 21
6.525588035583499
 31
0.0
  0
DIMENSION
  5
7B9E
330
43DD
100
AcDbEntity
  8
Dimension
100
AcDbDimension
280
     0
  2
*D9
 10
24.578742980957
 20
17.0913398861885
 30
0.0
 11
16.99999904632567
 21
17.0913398861885
 31
0.0
 70
    32
 71
     5
 42
15.15748786926266
 73
     0
 74
     0
 75
     0
  3
DimStyle
100
AcDbAlignedDimension
 13
9.421255111694339
 23
16.7913398742676
 33
0.0
 14
24.578742980957
 24
16.7913398742676
 34
0.0
100
AcDbRotatedDimension
  0
DIMENSION
  5
7B9F
330
43DD
100
AcDbEntity
  8
Dimension
100
AcDbDimension
280
     0
  2
*D10
 10
9.121255099773417
 20
16.79133987426761
 30
0.0
 11
9.121255099773419
 21
11.24999952316285
 31
0.0
 70
    32
 71
     5
 42
11.08268070220949
 73
     0
 74
     0
 75
     0
  3
DimStyle
100
AcDbAlignedDimension
 13
9.421255111694339
 23
5.708659172058109
 33
0.0
 14
9.421255111694339
 24
16.7913398742676
 34
0.0
 50
90.0
100
AcDbRotatedDimension
  0
DIMENSION
  5
7BA0
330
43DD
100
AcDbEntity
  8
Dimension
100
AcDbDimension
280
     0
  2
*D11
 10
10.8582639694214
 20
15.241340816021
 30
0.0
 11
16.99999952316285
 21
15.241340816021
 31
0.0
 70
    32
 71
     5
 42
12.2834711074829
 73
     0
 74
     0
 75
     0
  3
DimStyle
100
AcDbAlignedDimension
 13
23.1417350769043
 23
15.5413408279419
 33
0.0
 14
10.8582639694214
 24
15.5413408279419
 34
0.0
 50
180.0
100
AcDbRotatedDimension
  0
DIMENSION
  5
7BA1
330
43DD
100
AcDbEntity
  8
Dimension
100
AcDbDimension
280
     0
  2
*D12
 10
11.15826398134231
 20
6.958659172058113
 30
0.0
 11
11.15826398134231
 21
11.25
 31
0.0
 70
    32
 71
     5
 42
8.582681655883792
 73
     0
 74
     0
 75
     0
  3
DimStyle
100
AcDbAlignedDimension
 13
10.8582639694214
 23
15.5413408279419
 33
0.0
 14
10.8582639694214
 24
6.958659172058109
 34
0.0
 50
270.0
100
AcDbRotatedDimension
  0
DIMENSION
  5
7BA2
330
43DD
100
AcDbEntity
  8
Dimension
100
AcDbDimension
280
     0
  2
*D13
 10
23.5944919586182
 20
15.9594514966011
 30
0.0
 11
17.0
 21
15.9594514966011
 31
0.0
 70
    32
 71
     5
 42
13.18898391723639
 73
     0
 74
     0
 75
     0
  3
DimStyle
100
AcDbAlignedDimension
 13
10.4055080413818
 23
15.6594514846802
 33
0.0
 14
23.5944919586182
 24
15.6594514846802
 34
0.0
100
AcDbRotatedDimension
  0
DIMENSION
  5
7BA3
330
43DD
100
AcDbEntity
  8
Dimension
100
AcDbDimension
280
     0
  2
*D14
 10
10.10550802946091
 20
15.6594514846802
 30
0.0
 11
10.10550802946091
 21
11.25000000000001
 31
0.0
 70
    32
 71
     5
 42
8.818902969360379
 73
     0
 74
     0
 75
     0
  3
DimStyle
100
AcDbAlignedDimension
 13
10.4055080413818
 23
6.84054851531982
 33
0.0
 14
10.4055080413818
 24
15.6594514846802
 34
0.0
 50
90.0
100
AcDbRotatedDimension
  0
LINE
  5
7BA4
330
43DD
100
AcDbEntity
  8
BackPlate
100
AcDbLine
 10
0.25
 20
0.875
 30
0.0
 11
2.0
 21
0.875
 31
0.0
  0
LINE
  5
7BA5
330
43DD
100
AcDbEntity
  8
Gasket
100
AcDbLine
 10
0.25
 20
0.625
 30
0.0
 11
2.0
 21
0.625
 31
0.0
  0
LINE
  5
7BA6
330
43DD
100
AcDbEntity
  8
NewBezel
100
AcDbLine
 10
0.25
 20
0.25
 30
0.0
 11
2.0
 21
0.25
 31
0.0
  0
LINE
  5
7BA7
330
43DD
100
AcDbEntity
  8
Plate
100
AcDbLine
 10
0.25
 20
1.0
 30
0.0
 11
2.0
 21
1.0
 31
0.0
  0
LINE
  5
7BA8
330
43DD
100
AcDbEntity
  8
PrevBezel
100
AcDbLine
 10
0.25
 20
0.5
 30
0.0
 11
2.0
 21
0.5
 31
0.0
  0
LINE
  5
7BA9
330
43DD
100
AcDbEntity
  8
PrevCutout
100
AcDbLine
 10
0.25
 20
0.375
 30
0.0
 11
2.0
 21
0.375
 31
0.0
  0
LINE
  5
7BAA
330
43DD
100
AcDbEntity
  8
STUD
100
AcDbLine
 10
0.25
 20
0.75
 30
0.0
 11
2.0
 21
0.75
 31
0.0
  0
MTEXT
  5
7BAB
330
43DD
100
AcDbEntity
  8
TEXT
100
AcDbMText
 10
2.25
 20
1.049999952316279
 30
0.0
 40
0.0750000029802322
 41
2.25
 46
0.0
 71
     1
 72
     5
  1
ADAPTER PLATE (11 GAUGE)
 73
     1
 44
1.0
  0
MTEXT
  5
7BAC
330
43DD
100
AcDbEntity
  8
TEXT
100
AcDbMText
 10
2.25
 20
0.9250000119209291
 30
0.0
 40
0.0750000029802322
 41
2.25
 46
0.0
 71
     1
 72
     5
  1
BACK PLATE (11 GAUGE)
 73
     1
 44
1.0
  0
MTEXT
  5
7BAD
330
43DD
100
AcDbEntity
  8
TEXT
100
AcDbMText
 10
2.25
 20
0.550000011920929
 30
0.0
 40
0.0750000029802322
 41
2.25
 46
0.0
 71
     1
 72
     5
  1
EXISTING HMI BEZEL
 73
     1
 44
1.0
  0
MTEXT
  5
7BAE
330
43DD
100
AcDbEntity
  8
TEXT
100
AcDbMText
 10
2.25
 20
0.425000011920929
 30
0.0
 40
0.0750000029802322
 41
2.25
 46
0.0
 71
     1
 72
     5
  1
EXISTING HMI CUTOUT
 73
     1
 44
1.0
  0
MTEXT
  5
7BAF
330
43DD
100
AcDbEntity
  8
TEXT
100
AcDbMText
 10
1.75
 20
1.299999952316279
 30
0.0
 40
0.0750000029802322
 41
2.25
 46
0.0
 71
     1
 72
     5
  1
LEGEND
 73
     1
 44
1.0
  0
MTEXT
  5
7BB0
330
43DD
100
AcDbEntity
  8
TEXT
100
AcDbMText
 10
2.25
 20
0.8000000119209291
 30
0.0
 40
0.0750000029802322
 41
2.25
 46
0.0
 71
     1
 72
     5
  1
MOUNTING STUD (10-32x3/4")
 73
     1
 44
1.0
  0
MTEXT
  5
7BB1
330
43DD
100
AcDbEntity
  8
TEXT
100
AcDbMText
 10
2.25
 20
0.3000000119209289
 30
0.0
 40
0.0750000029802322
 41
2.25
 46
0.0
 71
     1
 72
     5
  1
NEW HMI BEZEL
 73
     1
 44
1.0
  0
MTEXT
  5
7BB2
330
43DD
100
AcDbEntity
  8
TEXT
100
AcDbMText
 10
2.25
 20
0.675000011920929
 30
0.0
 40
0.0750000029802322
 41
2.25
 46
0.0
 71
     1
 72
     5
  1
SEALING GASKET
 73
     1
 44
1.0
  0
MTEXT
  5
7BB3
330
43DD
100
AcDbEntity
  8
TEXT
100
AcDbMText
 10
30.3649997711182
 20
0.579999983310699
 30
0.0
 40
0.0399999991059303
 41
0.379999995231628
 46
0.0
 71
     1
 72
     5
  1
04/06/2023
 73
     1
 44
1.0
  0
MTEXT
  5
7BB4
330
43DD
100
AcDbEntity
  8
TEXT
100
AcDbMText
 10
28.8050003051758
 20
0.579999983310699
 30
0.0
 40
0.0399999991059303
 41
0.100000001490116
 46
0.0
 71
     1
 72
     5
  1
1
 73
     1
 44
1.0
  0
MTEXT
  5
7BB5
330
43DD
100
AcDbEntity
  8
TEXT
100
AcDbMText
 10
26.625
 20
1.75
 30
0.0
 40
0.0750000029802322
 41
7.5
 46
0.0
 71
     1
 72
     5
  1
Allen Bradley    PanelView Plus 7    #2711P-B10C22D9P
 73
     1
 44
1.0
  0
MTEXT
  5
7BB6
330
43DD
100
AcDbEntity
  8
TEXT
100
AcDbMText
 10
26.625
 20
1.149999976158139
 30
0.0
 40
0.0750000029802322
 41
7.5
 46
0.0
 71
     1
 72
     5
  1
Allen Bradley    PanelView Plus 7    #2711P-T12W22D9P
 73
     1
 44
1.0
  0
MTEXT
  5
7BB7
330
43DD
100
AcDbEntity
  8
TEXT
100
AcDbMText
 10
30.875
 20
0.200000002980232
 30
0.0
 40
0.0750000029802322
 41
2.25
 46
0.0
 71
     1
 72
     5
  1
Apr  6 2023  2:35PM
 73
     1
 44
1.0
  0
MTEXT
  5
7BB8
330
43DD
100
AcDbEntity
  8
TEXT
100
AcDbMText
 10
26.625
 20
1.0
 30
0.0
 40
0.0750000029802322
 41
7.5
 46
0.0
 71
     1
 72
     5
  1
Bezel:13.386 [340] W x 9.449 [240] H     Cutout:12.283 [312] W x 8.583 [218] H
 73
     1
 44
1.0
  0
MTEXT
  5
7BB9
330
43DD
100
AcDbEntity
  8
TEXT
100
AcDbMText
 10
26.625
 20
1.600000023841859
 30
0.0
 40
0.0750000029802322
 41
7.5
 46
0.0
 71
     1
 72
     5
  1
Bezel:15.157 [385] W x 9.921 [252] H     Cutout:13.189 [335] W x 8.819 [224] H
 73
     1
 44
1.0
  0
MTEXT
  5
7BBA
330
43DD
100
AcDbEntity
  8
TEXT
100
AcDbMText
 10
30.875
 20
0.6499999761581421
 30
0.0
 40
0.0750000029802322
 41
3.0
 46
0.0
 71
     1
 72
     5
  1
D062191 AP3013-3005-IN
 73
     1
 44
1.0
  0
MTEXT
  5
7BBB
330
43DD
100
AcDbEntity
  8
TEXT
100
AcDbMText
 10
26.375
 20
1.89999997615814
 30
0.0
 40
0.0750000029802322
 41
7.5
 46
0.0
 71
     1
 72
     5
  1
Existing HMI
 73
     1
 44
1.0
  0
MTEXT
  5
7BBC
330
43DD
100
AcDbEntity
  8
TEXT
100
AcDbMText
 10
29.0450000762939
 20
0.579999983310699
 30
0.0
 40
0.0399999991059303
 41
1.25
 46
0.0
 71
     1
 72
     5
  1
INITIAL ISSUE
 73
     1
 44
1.0
  0
MTEXT
  5
7BBD
330
43DD
100
AcDbEntity
  8
TEXT
100
AcDbMText
 10
26.375
 20
1.299999952316279
 30
0.0
 40
0.0750000029802322
 41
7.5
 46
0.0
 71
     1
 72
     5
  1
New HMI
 73
     1
 44
1.0
  0
INSERT
  5
7CAF
330
43DD
100
AcDbEntity
  8
0
100
AcDbBlockReference
  2
1INHALFWASHER
 10
10.5505075454712
 20
6.98554849624634
 30
0.0
  0
INSERT
  5
7CB0
330
43DD
100
AcDbEntity
  8
0
100
AcDbBlockReference
  2
LOCKNUT
 10
10.5505075454712
 20
6.98554849624634
 30
0.0
  0
INSERT
  5
7CB7
330
43DD
100
AcDbEntity
  8
0
100
AcDbBlockReference
  2
1INHALFWASHER
 10
10.5505075454712
 20
11.25
 30
0.0
  0
INSERT
  5
7CB8
330
43DD
100
AcDbEntity
  8
0
100
AcDbBlockReference
  2
LOCKNUT
 10
10.5505075454712
 20
11.25
 30
0.0
  0
INSERT
  5
7CBF
330
43DD
100
AcDbEntity
  8
0
100
AcDbBlockReference
  2
1INHALFWASHER
 10
10.5505075454712
 20
15.5144510269165
 30
0.0
  0
INSERT
  5
7CC0
330
43DD
100
AcDbEntity
  8
0
100
AcDbBlockReference
  2
LOCKNUT
 10
10.5505075454712
 20
15.5144510269165
 30
0.0
  0
INSERT
  5
7CC1
330
43DD
100
AcDbEntity
  8
0
100
AcDbBlockReference
  2
1INHALFWASHER
 10
23.4494915008545
 20
6.98554849624634
 30
0.0
 41
-1.0
  0
INSERT
  5
7CC2
330
43DD
100
AcDbEntity
  8
0
100
AcDbBlockReference
  2
LOCKNUT
 10
23.4494915008545
 20
6.98554849624634
 30
0.0
 41
-1.0
  0
INSERT
  5
7CC3
330
43DD
100
AcDbEntity
  8
0
100
AcDbBlockReference
  2
1INHALFWASHER
 10
23.4494915008545
 20
11.25
 30
0.0
 41
-1.0
  0
INSERT
  5
7CC4
330
43DD
100
AcDbEntity
  8
0
100
AcDbBlockReference
  2
LOCKNUT
 10
23.4494915008545
 20
11.25
 30
0.0
 41
-1.0
  0
INSERT
  5
7CC5
330
43DD
100
AcDbEntity
  8
0
100
AcDbBlockReference
  2
1INHALFWASHER
 10
23.4494915008545
 20
15.5144510269165
 30
0.0
 41
-1.0
  0
INSERT
  5
7CC6
330
43DD
100
AcDbEntity
  8
0
100
AcDbBlockReference
  2
LOCKNUT
 10
23.4494915008545
 20
15.5144510269165
 30
0.0
 41
-1.0
  0
VIEWPORT
  5
7B57
330
43D9
100
AcDbEntity
 67
     1
  8
0
100
AcDbViewport
 10
0.0
 20
0.0
 30
0.0
 40
297.0
 41
210.0
 68
     1
 69
     1
 12
50.0
 22
100.0
 13
0.0
 23
0.0
 14
10.0
 24
10.0
 15
10.0
 25
10.0
 16
0.0
 26
0.0
 36
1.0
 17
0.0
 27
0.0
 37
0.0
 42
50.0
 43
0.0
 44
0.0
 45
250.0
 50
0.0
 51
0.0
 72
  1000
 90
   819232
  1

281
     0
 71
     1
 74
     0
110
0.0
120
0.0
130
0.0
111
1.0
121
0.0
131
0.0
112
0.0
122
1.0
132
0.0
 79
     0
146
0.0
170
     0
 61
     5
292
     1
282
     1
141
0.0
142
0.0
 63
   250
421
  3355443
  0
ENDSEC
  0
SECTION
  2
OBJECTS
  0
DICTIONARY
  5
7BBE
330
0
100
AcDbDictionary
280
     1
281
     1
  3
ACAD_CIP_PREVIOUS_PRODUCT_INFO
360
7CA0
  3
ACAD_COLOR
360
7BF9
  3
ACAD_DETAILVIEWSTYLE
360
7C12
  3
ACAD_DGNDEFINITIONS
360
7B53
  3
ACAD_DWFDEFINITIONS
360
7B54
  3
ACAD_GROUP
360
437B
  3
ACAD_IMAGE_DICT
360
7B4A
  3
ACAD_IMAGE_VARS
360
7B56
  3
ACAD_LAYOUT
360
43CF
  3
ACAD_MATERIAL
360
7BC7
  3
ACAD_MLEADERSTYLE
360
7C0E
  3
ACAD_MLINESTYLE
360
43CC
  3
ACAD_PDFDEFINITIONS
360
7B55
  3
ACAD_PLOTSETTINGS
360
7C14
  3
ACAD_PLOTSTYLENAME
360
7BC5
  3
ACAD_SCALELIST
360
7BFC
  3
ACAD_SECTIONVIEWSTYLE
360
7C10
  3
ACAD_TABLESTYLE
360
7BFA
  3
ACAD_VISUALSTYLE
360
7BE0
  3
ACDB_RECOMPOSE_DATA
360
7CC9
  3
AcDbVariableDictionary
360
7CA3
  0
DICTIONARY
  5
7B51
330
4370
100
AcDbDictionary
280
     1
281
     1
  3
ACAD_LAYERSTATES
360
7BBF
  0
XRECORD
  5
7CA0
102
{ACAD_REACTORS
330
7BBE
102
}
330
7BBE
100
AcDbXrecord
280
     1
300
ACDLT
300
2020
300

  0
DICTIONARY
  5
7BF9
102
{ACAD_REACTORS
330
7BBE
102
}
330
7BBE
100
AcDbDictionary
281
     1
  0
DICTIONARY
  5
7C12
102
{ACAD_REACTORS
330
7BBE
102
}
330
7BBE
100
AcDbDictionary
281
     1
  3
Imperial24
350
7C13
  0
DICTIONARY
  5
7B53
330
7BBE
100
AcDbDictionary
280
     1
281
     1
  0
DICTIONARY
  5
7B54
330
7BBE
100
AcDbDictionary
280
     1
281
     1
  0
DICTIONARY
  5
437B
330
7BBE
100
AcDbDictionary
280
     1
281
     1
  0
DICTIONARY
  5
7B4A
330
7BBE
100
AcDbDictionary
280
     1
281
     1
  0
RASTERVARIABLES
  5
7B56
330
7B4A
100
AcDbRasterVariables
 90
        0
 70
     1
 71
     1
 72
     0
  0
DICTIONARY
  5
43CF
330
7BBE
100
AcDbDictionary
280
     1
281
     1
  3
Layout1
360
43DC
  3
Model
360
43E0
  0
DICTIONARY
  5
7BC7
102
{ACAD_REACTORS
330
7BBE
102
}
330
7BBE
100
AcDbDictionary
281
     1
  3
ByBlock
350
7BD0
  3
ByLayer
350
7BC8
  3
Global
350
7BD8
  0
DICTIONARY
  5
7C0E
102
{ACAD_REACTORS
330
7BBE
102
}
330
7BBE
100
AcDbDictionary
281
     1
  3
Standard
350
7C0F
  0
DICTIONARY
  5
43CC
330
7BBE
100
AcDbDictionary
280
     1
281
     1
  3
STANDARD
360
43CD
  0
DICTIONARY
  5
7B55
330
7BBE
100
AcDbDictionary
280
     1
281
     1
  0
DICTIONARY
  5
7C14
102
{ACAD_REACTORS
330
7BBE
102
}
330
7BBE
100
AcDbDictionary
281
     1
  0
ACDBDICTIONARYWDFLT
  5
7BC5
102
{ACAD_REACTORS
330
7BBE
102
}
330
7BBE
100
AcDbDictionary
281
     1
  3
Normal
350
7BC6
100
AcDbDictionaryWithDefault
340
7BC6
  0
DICTIONARY
  5
7BFC
102
{ACAD_REACTORS
330
7BBE
102
}
330
7BBE
100
AcDbDictionary
281
     1
  3
A0
350
7BFD
  3
A1
350
7BFE
  3
A2
350
7BFF
  3
A3
350
7C00
  3
A4
350
7C01
  3
A5
350
7C02
  3
A6
350
7C03
  3
A7
350
7C04
  3
A8
350
7C05
  3
A9
350
7C06
  3
B0
350
7C07
  3
B1
350
7C08
  3
B2
350
7C09
  3
B3
350
7C0A
  3
B4
350
7C0B
  3
B5
350
7C0C
  3
B6
350
7C0D
  0
DICTIONARY
  5
7C10
102
{ACAD_REACTORS
330
7BBE
102
}
330
7BBE
100
AcDbDictionary
281
     1
  3
Imperial24
350
7C11
  0
DICTIONARY
  5
7BFA
102
{ACAD_REACTORS
330
7BBE
102
}
330
7BBE
100
AcDbDictionary
281
     1
  3
Standard
350
7BFB
  0
DICTIONARY
  5
7BE0
102
{ACAD_REACTORS
330
7BBE
102
}
330
7BBE
100
AcDbDictionary
281
     1
  3
2dWireframe
350
7BE6
  3
Basic
350
7BE5
  3
Brighten
350
7BEC
  3
ColorChange
350
7BF0
  3
Conceptual
350
7BE9
  3
Dim
350
7BEB
  3
EdgeColorOff
350
7BF8
  3
Facepattern
350
7BEF
  3
Flat
350
7BE1
  3
FlatWithEdges
350
7BE2
  3
Gouraud
350
7BE3
  3
GouraudWithEdges
350
7BE4
  3
Hidden
350
7BE8
  3
JitterOff
350
7BF6
  3
Linepattern
350
7BEE
  3
OverhangOff
350
7BF7
  3
Realistic
350
7BEA
  3
Shaded
350
7BF5
  3
Shaded with edges
350
7BF4
  3
Shades of Gray
350
7BF1
  3
Sketchy
350
7BF2
  3
Thicken
350
7BED
  3
Wireframe
350
7BE7
  3
X-Ray
350
7BF3
  0
XRECORD
  5
7CC9
102
{ACAD_REACTORS
330
7BBE
102
}
330
7BBE
100
AcDbXrecord
280
     1
 90
        1
330
7BFB
  0
DICTIONARY
  5
7CA3
102
{ACAD_REACTORS
330
7BBE
102
}
330
7BBE
100
AcDbDictionary
281
     1
  3
CANNOSCALE
350
7CA8
  3
CMLEADERSTYLE
350
7CA5
  3
CTABLESTYLE
350
7CA4
  3
CVIEWDETAILSTYLE
350
7CA6
  3
CVIEWSECTIONSTYLE
350
7CA7
  0
DICTIONARY
  5
7BBF
330
7B51
100
AcDbDictionary
280
     1
281
     1
  0
ACDBDETAILVIEWSTYLE
  5
7C13
102
{ACAD_REACTORS
330
7C12
102
}
330
7C12
100
AcDbModelDocViewStyle
 70
     0
  3
Imperial24
290
     0
300
Imperial24
 90
        0
100
AcDbDetailViewStyle
 70
     0
 71
     0
 90
        3
 71
     1
340
43C3
 62
   256
 40
0.24
340
0
 62
   256
 40
0.24
300

 40
0.36
280
     3
 71
     2
340
43CA
 90
       25
 62
   256
 71
     3
340
43C3
 62
   256
 40
0.24
 90
        1
 40
0.75
 90
        1
300
%<\AcVar ViewType \f "%tc1">% %<\AcVar ViewDetailId>%\PSCALE %<\AcVar ViewScale \f "%sn">%
 71
     4
340
43CA
 90
       25
 62
   256
340
43CA
 90
       25
 62
   256
280
     0
  0
LAYOUT
  5
43DC
330
43CF
100
AcDbPlotSettings
  1

  2
Brother DCP-L2540DW series
  4

  6

 40
0.0
 41
0.0
 42
0.0
 43
0.0
 44
0.0
 45
0.0
 46
0.0
 47
0.0
 48
0.0
 49
0.0
140
0.0
141
0.0
142
1.0
143
1.0
 70
   688
 72
     0
 73
     0
 74
     5
  7

 75
    16
147
1.0
 76
     0
 77
     2
 78
   300
148
0.0
149
0.0
100
AcDbLayout
  1
Layout1
 70
     1
 71
     1
 10
0.0
 20
0.0
 11
0.0
 21
0.0
 12
0.0
 22
0.0
 32
0.0
 14
1.000000000000000E+20
 24
1.000000000000000E+20
 34
1.000000000000000E+20
 15
-1.000000000000000E+20
 25
-1.000000000000000E+20
 35
-1.000000000000000E+20
146
0.0
 13
0.0
 23
0.0
 33
0.0
 16
1.0
 26
0.0
 36
0.0
 17
0.0
 27
1.0
 37
0.0
 76
     0
330
43D9
331
7B57
  0
LAYOUT
  5
43E0
330
43CF
100
AcDbPlotSettings
  1

  2
Brother DCP-L2540DW series
  4

  6

 40
0.0
 41
0.0
 42
0.0
 43
0.0
 44
0.0
 45
0.0
 46
0.0
 47
0.0
 48
0.0
 49
0.0
140
0.0
141
0.0
142
1.0
143
1.0
 70
  1712
 72
     0
 73
     0
 74
     0
  7

 75
     0
147
1.0
 76
     0
 77
     2
 78
   300
148
0.0
149
0.0
100
AcDbLayout
  1
Model
 70
     1
 71
     0
 10
0.0
 20
-7.5
 11
12.0
 21
9.0
 12
0.0
 22
0.0
 32
0.0
 14
0.0
 24
0.0
 34
0.0
 15
0.0
 25
0.0
 35
0.0
146
0.0
 13
0.0
 23
0.0
 33
0.0
 16
1.0
 26
0.0
 36
0.0
 17
0.0
 27
1.0
 37
0.0
 76
     0
330
43DD
331
7B50
  0
MATERIAL
  5
7BD0
102
{ACAD_XDICTIONARY
360
7BD1
102
}
102
{ACAD_REACTORS
330
7BC7
102
}
330
7BC7
100
AcDbMaterial
  1
ByBlock
 72
     0
 43
0.0208333333333333
 43
0.0
 43
0.0
 43
0.0
 43
0.0
 43
0.0208333333333333
 43
0.0
 43
0.0
 43
0.0
 43
0.0
 43
1.0
 43
0.0
 43
0.0
 43
0.0
 43
0.0
 43
1.0
 77
     0
 47
0.0208333333333333
 47
0.0
 47
0.0
 47
0.0
 47
0.0
 47
0.0208333333333333
 47
0.0
 47
0.0
 47
0.0
 47
0.0
 47
1.0
 47
0.0
 47
0.0
 47
0.0
 47
0.0
 47
1.0
171
     0
 49
0.0208333333333333
 49
0.0
 49
0.0
 49
0.0
 49
0.0
 49
0.0208333333333333
 49
0.0
 49
0.0
 49
0.0
 49
0.0
 49
1.0
 49
0.0
 49
0.0
 49
0.0
 49
0.0
 49
1.0
175
     0
142
0.0208333333333333
142
0.0
142
0.0
142
0.0
142
0.0
142
0.0208333333333333
142
0.0
142
0.0
142
0.0
142
0.0
142
1.0
142
0.0
142
0.0
142
0.0
142
0.0
142
1.0
179
     0
144
0.0208333333333333
144
0.0
144
0.0
144
0.0
144
0.0
144
0.0208333333333333
144
0.0
144
0.0
144
0.0
144
0.0
144
1.0
144
0.0
144
0.0
144
0.0
144
0.0
144
1.0
147
0.0208333333333333
147
0.0
147
0.0
147
0.0
147
0.0
147
0.0208333333333333
147
0.0
147
0.0
147
0.0
147
0.0
147
1.0
147
0.0
147
0.0
147
0.0
147
0.0
147
1.0
  0
MATERIAL
  5
7BC8
102
{ACAD_XDICTIONARY
360
7BC9
102
}
102
{ACAD_REACTORS
330
7BC7
102
}
330
7BC7
100
AcDbMaterial
  1
ByLayer
 72
     0
 43
0.0208333333333333
 43
0.0
 43
0.0
 43
0.0
 43
0.0
 43
0.0208333333333333
 43
0.0
 43
0.0
 43
0.0
 43
0.0
 43
1.0
 43
0.0
 43
0.0
 43
0.0
 43
0.0
 43
1.0
 77
     0
 47
0.0208333333333333
 47
0.0
 47
0.0
 47
0.0
 47
0.0
 47
0.0208333333333333
 47
0.0
 47
0.0
 47
0.0
 47
0.0
 47
1.0
 47
0.0
 47
0.0
 47
0.0
 47
0.0
 47
1.0
171
     0
 49
0.0208333333333333
 49
0.0
 49
0.0
 49
0.0
 49
0.0
 49
0.0208333333333333
 49
0.0
 49
0.0
 49
0.0
 49
0.0
 49
1.0
 49
0.0
 49
0.0
 49
0.0
 49
0.0
 49
1.0
175
     0
142
0.0208333333333333
142
0.0
142
0.0
142
0.0
142
0.0
142
0.0208333333333333
142
0.0
142
0.0
142
0.0
142
0.0
142
1.0
142
0.0
142
0.0
142
0.0
142
0.0
142
1.0
179
     0
144
0.0208333333333333
144
0.0
144
0.0
144
0.0
144
0.0
144
0.0208333333333333
144
0.0
144
0.0
144
0.0
144
0.0
144
1.0
144
0.0
144
0.0
144
0.0
144
0.0
144
1.0
147
0.0208333333333333
147
0.0
147
0.0
147
0.0
147
0.0
147
0.0208333333333333
147
0.0
147
0.0
147
0.0
147
0.0
147
1.0
147
0.0
147
0.0
147
0.0
147
0.0
147
1.0
  0
MATERIAL
  5
7BD8
102
{ACAD_XDICTIONARY
360
7BD9
102
}
102
{ACAD_REACTORS
330
7BC7
102
}
330
7BC7
100
AcDbMaterial
  1
Global
 72
     0
 43
0.0208333333333333
 43
0.0
 43
0.0
 43
0.0
 43
0.0
 43
0.0208333333333333
 43
0.0
 43
0.0
 43
0.0
 43
0.0
 43
1.0
 43
0.0
 43
0.0
 43
0.0
 43
0.0
 43
1.0
 77
     0
 47
0.0208333333333333
 47
0.0
 47
0.0
 47
0.0
 47
0.0
 47
0.0208333333333333
 47
0.0
 47
0.0
 47
0.0
 47
0.0
 47
1.0
 47
0.0
 47
0.0
 47
0.0
 47
0.0
 47
1.0
171
     0
 49
0.0208333333333333
 49
0.0
 49
0.0
 49
0.0
 49
0.0
 49
0.0208333333333333
 49
0.0
 49
0.0
 49
0.0
 49
0.0
 49
1.0
 49
0.0
 49
0.0
 49
0.0
 49
0.0
 49
1.0
175
     0
142
0.0208333333333333
142
0.0
142
0.0
142
0.0
142
0.0
142
0.0208333333333333
142
0.0
142
0.0
142
0.0
142
0.0
142
1.0
142
0.0
142
0.0
142
0.0
142
0.0
142
1.0
179
     0
144
0.0208333333333333
144
0.0
144
0.0
144
0.0
144
0.0
144
0.0208333333333333
144
0.0
144
0.0
144
0.0
144
0.0
144
1.0
144
0.0
144
0.0
144
0.0
144
0.0
144
1.0
147
0.0208333333333333
147
0.0
147
0.0
147
0.0
147
0.0
147
0.0208333333333333
147
0.0
147
0.0
147
0.0
147
0.0
147
1.0
147
0.0
147
0.0
147
0.0
147
0.0
147
1.0
  0
MLEADERSTYLE
  5
7C0F
102
{ACAD_REACTORS
330
7C0E
102
}
330
7C0E
100
AcDbMLeaderStyle
179
     2
170
     2
171
     1
172
     0
 90
        2
 40
0.0
 41
0.0
173
     1
 91
-1056964608
340
43C8
 92
       -2
290
     1
 42
0.09
291
     1
 43
0.36
  3
Standard
 44
0.18
300

342
43C3
174
     1
178
     6
175
     1
176
     0
 93
-1056964608
 45
0.18
292
     0
297
     0
 46
0.18
 94
-1056964608
 47
1.0
 49
1.0
140
1.0
293
     1
141
0.0
294
     1
177
     0
142
1.0
295
     0
296
     0
143
0.125
271
     0
272
     9
273
     9
298
     1
  0
MLINESTYLE
  5
43CD
330
43CC
100
AcDbMlineStyle
  2
STANDARD
 70
     0
  3

 62
   256
 51
90.0
 52
90.0
 71
     2
 49
0.5
 62
   256
  6
BYLAYER
 49
-0.5
 62
   256
  6
BYLAYER
  0
ACDBPLACEHOLDER
  5
7BC6
102
{ACAD_REACTORS
330
7BC5
102
}
330
7BC5
  0
SCALE
  5
7BFD
102
{ACAD_REACTORS
330
7BFC
102
}
330
7BFC
100
AcDbScale
 70
     0
300
1:1
140
1.0
141
1.0
290
     1
  0
SCALE
  5
7BFE
102
{ACAD_REACTORS
330
7BFC
102
}
330
7BFC
100
AcDbScale
 70
     0
300
1/128" = 1'-0"
140
0.0078125
141
12.0
290
     0
  0
SCALE
  5
7BFF
102
{ACAD_REACTORS
330
7BFC
102
}
330
7BFC
100
AcDbScale
 70
     0
300
1/64" = 1'-0"
140
0.015625
141
12.0
290
     0
  0
SCALE
  5
7C00
102
{ACAD_REACTORS
330
7BFC
102
}
330
7BFC
100
AcDbScale
 70
     0
300
1/32" = 1'-0"
140
0.03125
141
12.0
290
     0
  0
SCALE
  5
7C01
102
{ACAD_REACTORS
330
7BFC
102
}
330
7BFC
100
AcDbScale
 70
     0
300
1/16" = 1'-0"
140
0.0625
141
12.0
290
     0
  0
SCALE
  5
7C02
102
{ACAD_REACTORS
330
7BFC
102
}
330
7BFC
100
AcDbScale
 70
     0
300
3/32" = 1'-0"
140
0.09375
141
12.0
290
     0
  0
SCALE
  5
7C03
102
{ACAD_REACTORS
330
7BFC
102
}
330
7BFC
100
AcDbScale
 70
     0
300
1/8" = 1'-0"
140
0.125
141
12.0
290
     0
  0
SCALE
  5
7C04
102
{ACAD_REACTORS
330
7BFC
102
}
330
7BFC
100
AcDbScale
 70
     0
300
3/16" = 1'-0"
140
0.1875
141
12.0
290
     0
  0
SCALE
  5
7C05
102
{ACAD_REACTORS
330
7BFC
102
}
330
7BFC
100
AcDbScale
 70
     0
300
1/4" = 1'-0"
140
0.25
141
12.0
290
     0
  0
SCALE
  5
7C06
102
{ACAD_REACTORS
330
7BFC
102
}
330
7BFC
100
AcDbScale
 70
     0
300
3/8" = 1'-0"
140
0.375
141
12.0
290
     0
  0
SCALE
  5
7C07
102
{ACAD_REACTORS
330
7BFC
102
}
330
7BFC
100
AcDbScale
 70
     0
300
1/2" = 1'-0"
140
0.5
141
12.0
290
     0
  0
SCALE
  5
7C08
102
{ACAD_REACTORS
330
7BFC
102
}
330
7BFC
100
AcDbScale
 70
     0
300
3/4" = 1'-0"
140
0.75
141
12.0
290
     0
  0
SCALE
  5
7C09
102
{ACAD_REACTORS
330
7BFC
102
}
330
7BFC
100
AcDbScale
 70
     0
300
1" = 1'-0"
140
1.0
141
12.0
290
     0
  0
SCALE
  5
7C0A
102
{ACAD_REACTORS
330
7BFC
102
}
330
7BFC
100
AcDbScale
 70
     0
300
1-1/2" = 1'-0"
140
1.5
141
12.0
290
     0
  0
SCALE
  5
7C0B
102
{ACAD_REACTORS
330
7BFC
102
}
330
7BFC
100
AcDbScale
 70
     0
300
3" = 1'-0"
140
3.0
141
12.0
290
     0
  0
SCALE
  5
7C0C
102
{ACAD_REACTORS
330
7BFC
102
}
330
7BFC
100
AcDbScale
 70
     0
300
6" = 1'-0"
140
6.0
141
12.0
290
     0
  0
SCALE
  5
7C0D
102
{ACAD_REACTORS
330
7BFC
102
}
330
7BFC
100
AcDbScale
 70
     0
300
1'-0" = 1'-0"
140
12.0
141
12.0
290
     0
  0
ACDBSECTIONVIEWSTYLE
  5
7C11
102
{ACAD_REACTORS
330
7C10
102
}
330
7C10
100
AcDbModelDocViewStyle
 70
     0
  3
Imperial24
290
     0
300
Imperial24
 90
        0
100
AcDbSectionViewStyle
 70
     0
 71
     0
 90
       78
 71
     1
340
43C3
 62
   256
 40
0.24
340
0
340
0
 62
   256
 40
0.24
300
I, O, Q, S, X, Z
 40
0.48
 90
        3
 40
0.18
 90
        1
 71
     2
340
43CA
 90
       25
 62
   256
340
43CA
 90
       50
 62
   256
 40
0.24
 40
0.0
 40
0.24
 71
     3
340
43C3
 62
   256
 40
0.24
 90
        1
 40
0.75
 90
        1
300
%<\AcVar ViewType \f "%tc1">% %<\AcVar ViewSectionStartId>%-%<\AcVar ViewSectionEndId>%\PSCALE %<\AcVar ViewScale \f "%sn">%
 71
     4
 62
   256
 62
   257
300
ANSI31
 40
1.0
 90
        0
290
     0
290
     0
 90
        6
 40
0.0
 40
1.570796326794896
 40
0.2617993877991494
 40
1.308996938995747
 40
-0.2617993877991494
 40
1.832595714594046
  0
TABLESTYLE
  5
7BFB
102
{ACAD_XDICTIONARY
360
7CC7
102
}
102
{ACAD_REACTORS
330
7BFA
102
}
330
7BFA
100
AcDbTableStyle
280
     0
  3
Standard
 70
     0
 71
     0
 40
0.06
 41
0.06
280
     0
281
     0
  7
STANDARD
140
0.18
170
     2
 62
     0
 63
     7
283
     0
 90
      512
 91
        0
  1

274
    -2
284
     1
 64
     0
275
    -2
285
     1
 65
     0
276
    -2
286
     1
 66
     0
277
    -2
287
     1
 67
     0
278
    -2
288
     1
 68
     0
279
    -2
289
     1
 69
     0
  7
STANDARD
140
0.25
170
     5
 62
     0
 63
     7
283
     0
 90
      512
 91
        0
  1

274
    -2
284
     1
 64
     0
275
    -2
285
     1
 65
     0
276
    -2
286
     1
 66
     0
277
    -2
287
     1
 67
     0
278
    -2
288
     1
 68
     0
279
    -2
289
     1
 69
     0
  7
STANDARD
140
0.18
170
     5
 62
     0
 63
     7
283
     0
 90
      512
 91
        0
  1

274
    -2
284
     1
 64
     0
275
    -2
285
     1
 65
     0
276
    -2
286
     1
 66
     0
277
    -2
287
     1
 67
     0
278
    -2
288
     1
 68
     0
279
    -2
289
     1
 69
     0
  0
VISUALSTYLE
  5
7BE6
102
{ACAD_REACTORS
330
7BE0
102
}
330
7BE0
100
AcDbVisualStyle
  2
2dWireframe
 70
     4
177
     3
291
     0
 70
    58
 90
        0
176
     1
 90
        2
176
     1
 90
        0
176
     1
 90
        0
176
     1
 40
0.6
176
     1
 40
30.0
176
     1
 62
     7
420
 16777215
176
     1
 90
        1
176
     1
 90
        4
176
     1
 62
     7
176
     1
 62
   257
176
     1
 90
        1
176
     1
 90
        1
176
     1
 40
1.0
176
     1
 90
        0
176
     1
 62
   257
176
     1
 40
1.0
176
     1
 90
        1
176
     1
 90
        6
176
     1
 90
        2
176
     1
 62
     7
176
     1
 90
        5
176
     1
 90
        0
176
     1
 90
        0
176
     1
290
     0
176
     1
 90
        1
176
     1
 40
0.0
176
     1
 90
        0
176
     1
290
     1
176
     1
290
     1
176
     1
290
     0
176
     1
290
     0
176
     1
290
     0
176
     1
290
     0
176
     1
290
     0
176
     1
290
     0
176
     1
290
     0
176
     1
 90
       50
176
     1
 40
0.0
176
     1
 40
1.0
176
     1
 90
        0
176
     1
 62
    18
420
        0
176
     1
 90
       50
176
     1
 90
        3
176
     1
 62
     5
420
      255
176
     1
290
     0
176
     1
 90
       50
176
     1
 90
       50
176
     1
 90
       50
176
     1
290
     0
176
     1
 90
       50
176
     1
 62
   256
176
     0
 40
1.0
176
     0
 90
        2
176
     1
  1
strokes_ogs.tif
176
     1
290
     0
176
     1
 40
1.0
176
     1
 40
1.0
176
     1
  0
VISUALSTYLE
  5
7BE5
102
{ACAD_REACTORS
330
7BE0
102
}
330
7BE0
100
AcDbVisualStyle
  2
Basic
 70
     7
177
     3
291
     1
 70
    58
 90
        1
176
     1
 90
        0
176
     1
 90
        1
176
     1
 90
        0
176
     1
 40
0.6
176
     1
 40
30.0
176
     1
 62
     7
420
 16777215
176
     1
 90
        0
176
     1
 90
        4
176
     1
 62
     7
176
     1
 62
   257
176
     1
 90
        1
176
     1
 90
        1
176
     1
 40
1.0
176
     1
 90
        8
176
     1
 62
     7
176
     1
 40
1.0
176
     1
 90
        1
176
     1
 90
        6
176
     1
 90
        2
176
     1
 62
     7
176
     1
 90
        5
176
     1
 90
        0
176
     1
 90
        0
176
     1
290
     0
176
     1
 90
        1
176
     1
 40
0.0
176
     1
 90
        0
176
     1
290
     0
176
     1
290
     1
176
     1
290
     1
176
     1
290
     0
176
     1
290
     0
176
     1
290
     0
176
     1
290
     0
176
     1
290
     0
176
     1
290
     0
176
     1
 90
       50
176
     1
 40
0.0
176
     1
 40
1.0
176
     1
 90
        0
176
     1
 62
    18
420
        0
176
     1
 90
       50
176
     1
 90
        3
176
     1
 62
     5
420
      255
176
     1
290
     0
176
     1
 90
       50
176
     1
 90
       50
176
     1
 90
       50
176
     1
290
     0
176
     1
 90
       50
176
     1
 62
   256
176
     0
 40
1.0
176
     0
 90
        2
176
     1
  1
strokes_ogs.tif
176
     1
290
     0
176
     1
 40
1.0
176
     1
 40
1.0
176
     1
  0
VISUALSTYLE
  5
7BEC
102
{ACAD_REACTORS
330
7BE0
102
}
330
7BE0
100
AcDbVisualStyle
  2
Brighten
 70
    12
177
     3
291
     1
 70
    58
 90
        2
176
     1
 90
        2
176
     1
 90
        0
176
     1
 90
        0
176
     1
 40
0.6
176
     1
 40
30.0
176
     1
 62
     7
420
 16777215
176
     1
 90
        1
176
     1
 90
        4
176
     1
 62
     7
176
     1
 62
   257
176
     1
 90
        1
176
     1
 90
        1
176
     1
 40
1.0
176
     1
 90
        8
176
     1
 62
     7
176
     1
 40
1.0
176
     1
 90
        1
176
     1
 90
        6
176
     1
 90
        2
176
     1
 62
     7
176
     1
 90
        5
176
     1
 90
        0
176
     1
 90
        0
176
     1
290
     0
176
     1
 90
        1
176
     1
 40
50.0
176
     1
 90
        0
176
     1
290
     0
176
     1
290
     1
176
     1
290
     1
176
     1
290
     0
176
     1
290
     0
176
     1
290
     0
176
     1
290
     0
176
     1
290
     0
176
     1
290
     0
176
     1
 90
       50
176
     1
 40
0.0
176
     1
 40
1.0
176
     1
 90
        0
176
     1
 62
    18
420
        0
176
     1
 90
       50
176
     1
 90
        3
176
     1
 62
     5
420
      255
176
     1
290
     0
176
     1
 90
       50
176
     1
 90
       50
176
     1
 90
       50
176
     1
290
     0
176
     1
 90
       50
176
     1
 62
   256
176
     0
 40
1.0
176
     0
 90
        2
176
     1
  1
strokes_ogs.tif
176
     1
290
     0
176
     1
 40
1.0
176
     1
 40
1.0
176
     1
  0
VISUALSTYLE
  5
7BF0
102
{ACAD_REACTORS
330
7BE0
102
}
330
7BE0
100
AcDbVisualStyle
  2
ColorChange
 70
    16
177
     3
291
     1
 70
    58
 90
        2
176
     1
 90
        2
176
     1
 90
        3
176
     1
 90
        0
176
     1
 40
0.6
176
     1
 40
30.0
176
     1
 62
     8
420
  8421504
176
     1
 90
        1
176
     1
 90
        4
176
     1
 62
     7
176
     1
 62
   257
176
     1
 90
        1
176
     1
 90
        1
176
     1
 40
1.0
176
     1
 90
        8
176
     1
 62
     8
420
  8421504
176
     1
 40
1.0
176
     1
 90
        1
176
     1
 90
        6
176
     1
 90
        2
176
     1
 62
     7
176
     1
 90
        5
176
     1
 90
        0
176
     1
 90
        0
176
     1
290
     0
176
     1
 90
        1
176
     1
 40
0.0
176
     1
 90
        0
176
     1
290
     0
176
     1
290
     1
176
     1
290
     1
176
     1
290
     0
176
     1
290
     0
176
     1
290
     0
176
     1
290
     0
176
     1
290
     0
176
     1
290
     0
176
     1
 90
       50
176
     1
 40
0.0
176
     1
 40
1.0
176
     1
 90
        0
176
     1
 62
    18
420
        0
176
     1
 90
       50
176
     1
 90
        3
176
     1
 62
     5
420
      255
176
     1
290
     0
176
     1
 90
       50
176
     1
 90
       50
176
     1
 90
       50
176
     1
290
     0
176
     1
 90
       50
176
     1
 62
   256
176
     0
 40
1.0
176
     0
 90
        2
176
     1
  1
strokes_ogs.tif
176
     1
290
     0
176
     1
 40
1.0
176
     1
 40
1.0
176
     1
  0
VISUALSTYLE
  5
7BE9
102
{ACAD_REACTORS
330
7BE0
102
}
330
7BE0
100
AcDbVisualStyle
  2
Conceptual
 70
     9
177
     3
291
     0
 70
    58
 90
        3
176
     1
 90
        2
176
     1
 90
        0
176
     1
 90
        0
176
     1
 40
0.6
176
     1
 40
30.0
176
     1
 62
     7
420
 16777215
176
     1
 90
        2
176
     1
 90
        2
176
     1
 62
     7
176
     1
 62
   257
176
     1
 90
        1
176
     1
 90
        1
176
     1
 40
179.0
176
     1
 90
        8
176
     1
 62
     7
176
     1
 40
1.0
176
     1
 90
        1
176
     1
 90
        6
176
     1
 90
        2
176
     1
 62
     7
176
     1
 90
        3
176
     1
 90
        0
176
     1
 90
        0
176
     1
290
     0
176
     1
 90
        1
176
     1
 40
0.0
176
     1
 90
        0
176
     1
290
     0
176
     1
290
     1
176
     1
290
     1
176
     1
290
     0
176
     1
290
     0
176
     1
290
     0
176
     1
290
     0
176
     1
290
     0
176
     1
290
     0
176
     1
 90
       50
176
     1
 40
0.0
176
     1
 40
1.0
176
     1
 90
        0
176
     1
 62
    18
420
        0
176
     1
 90
       50
176
     1
 90
        3
176
     1
 62
     5
420
      255
176
     1
290
     0
176
     1
 90
       50
176
     1
 90
       50
176
     1
 90
       50
176
     1
290
     0
176
     1
 90
       50
176
     1
 62
   256
176
     0
 40
1.0
176
     0
 90
        2
176
     1
  1
strokes_ogs.tif
176
     1
290
     0
176
     1
 40
1.0
176
     1
 40
1.0
176
     1
  0
VISUALSTYLE
  5
7BEB
102
{ACAD_REACTORS
330
7BE0
102
}
330
7BE0
100
AcDbVisualStyle
  2
Dim
 70
    11
177
     3
291
     1
 70
    58
 90
        2
176
     1
 90
        2
176
     1
 90
        0
176
     1
 90
        0
176
     1
 40
0.6
176
     1
 40
30.0
176
     1
 62
     7
420
 16777215
176
     1
 90
        1
176
     1
 90
        4
176
     1
 62
     7
176
     1
 62
   257
176
     1
 90
        1
176
     1
 90
        1
176
     1
 40
1.0
176
     1
 90
        8
176
     1
 62
     7
176
     1
 40
1.0
176
     1
 90
        1
176
     1
 90
        6
176
     1
 90
        2
176
     1
 62
     7
176
     1
 90
        5
176
     1
 90
        0
176
     1
 90
        0
176
     1
290
     0
176
     1
 90
        1
176
     1
 40
-50.0
176
     1
 90
        0
176
     1
290
     0
176
     1
290
     1
176
     1
290
     1
176
     1
290
     0
176
     1
290
     0
176
     1
290
     0
176
     1
290
     0
176
     1
290
     0
176
     1
290
     0
176
     1
 90
       50
176
     1
 40
0.0
176
     1
 40
1.0
176
     1
 90
        0
176
     1
 62
    18
420
        0
176
     1
 90
       50
176
     1
 90
        3
176
     1
 62
     5
420
      255
176
     1
290
     0
176
     1
 90
       50
176
     1
 90
       50
176
     1
 90
       50
176
     1
290
     0
176
     1
 90
       50
176
     1
 62
   256
176
     0
 40
1.0
176
     0
 90
        2
176
     1
  1
strokes_ogs.tif
176
     1
290
     0
176
     1
 40
1.0
176
     1
 40
1.0
176
     1
  0
VISUALSTYLE
  5
7BF8
102
{ACAD_REACTORS
330
7BE0
102
}
330
7BE0
100
AcDbVisualStyle
  2
EdgeColorOff
 70
    22
177
     3
291
     1
 70
    58
 90
        2
176
     0
 90
        2
176
     0
 90
        0
176
     0
 90
        0
176
     0
 40
0.6
176
     0
 40
30.0
176
     0
 62
     7
420
 16777215
176
     0
 90
        1
176
     0
 90
        4
176
     0
 62
     7
176
     0
 62
   257
176
     0
 90
        1
176
     0
 90
        1
176
     0
 40
1.0
176
     0
 90
        8
176
     2
 62
     7
176
     0
 40
1.0
176
     0
 90
        1
176
     0
 90
        6
176
     0
 90
        2
176
     0
 62
     7
176
     0
 90
        5
176
     0
 90
        0
176
     0
 90
        0
176
     0
290
     0
176
     0
 90
        1
176
     0
 40
0.0
176
     0
 90
        0
176
     0
290
     0
176
     0
290
     1
176
     0
290
     1
176
     0
290
     0
176
     0
290
     0
176
     0
290
     0
176
     0
290
     0
176
     0
290
     0
176
     0
290
     0
176
     0
 90
       50
176
     0
 40
0.0
176
     0
 40
1.0
176
     0
 90
        0
176
     0
 62
    18
420
        0
176
     0
 90
       50
176
     0
 90
        3
176
     0
 62
     5
420
      255
176
     0
290
     0
176
     0
 90
       50
176
     0
 90
       50
176
     0
 90
       50
176
     0
290
     0
176
     0
 90
       50
176
     0
 62
   256
176
     0
 40
1.0
176
     0
 90
        2
176
     0
  1
strokes_ogs.tif
176
     0
290
     0
176
     0
 40
1.0
176
     0
 40
1.0
176
     0
  0
VISUALSTYLE
  5
7BEF
102
{ACAD_REACTORS
330
7BE0
102
}
330
7BE0
100
AcDbVisualStyle
  2
Facepattern
 70
    15
177
     3
291
     1
 70
    58
 90
        2
176
     1
 90
        2
176
     1
 90
        0
176
     1
 90
        0
176
     1
 40
0.6
176
     1
 40
30.0
176
     1
 62
     7
420
 16777215
176
     1
 90
        1
176
     1
 90
        4
176
     1
 62
     7
176
     1
 62
   257
176
     1
 90
        1
176
     1
 90
        1
176
     1
 40
1.0
176
     1
 90
        8
176
     1
 62
     7
176
     1
 40
1.0
176
     1
 90
        1
176
     1
 90
        6
176
     1
 90
        2
176
     1
 62
     7
176
     1
 90
        5
176
     1
 90
        0
176
     1
 90
        0
176
     1
290
     0
176
     1
 90
        1
176
     1
 40
0.0
176
     1
 90
        0
176
     1
290
     0
176
     1
290
     1
176
     1
290
     1
176
     1
290
     0
176
     1
290
     0
176
     1
290
     0
176
     1
290
     0
176
     1
290
     0
176
     1
290
     0
176
     1
 90
       50
176
     1
 40
0.0
176
     1
 40
1.0
176
     1
 90
        0
176
     1
 62
    18
420
        0
176
     1
 90
       50
176
     1
 90
        3
176
     1
 62
     5
420
      255
176
     1
290
     0
176
     1
 90
       50
176
     1
 90
       50
176
     1
 90
       50
176
     1
290
     0
176
     1
 90
       50
176
     1
 62
   256
176
     0
 40
1.0
176
     0
 90
        2
176
     1
  1
strokes_ogs.tif
176
     1
290
     0
176
     1
 40
1.0
176
     1
 40
1.0
176
     1
  0
VISUALSTYLE
  5
7BE1
102
{ACAD_REACTORS
330
7BE0
102
}
330
7BE0
100
AcDbVisualStyle
  2
Flat
 70
     0
177
     3
291
     1
 70
    58
 90
        2
176
     1
 90
        1
176
     1
 90
        1
176
     1
 90
        2
176
     1
 40
0.6
176
     1
 40
30.0
176
     1
 62
     7
420
 16777215
176
     1
 90
        0
176
     1
 90
        0
176
     1
 62
     7
176
     1
 62
   257
176
     1
 90
        1
176
     1
 90
        1
176
     1
 40
1.0
176
     1
 90
        8
176
     1
 62
     7
176
     1
 40
1.0
176
     1
 90
        1
176
     1
 90
        6
176
     1
 90
        2
176
     1
 62
     7
176
     1
 90
        5
176
     1
 90
        0
176
     1
 90
        0
176
     1
290
     0
176
     1
 90
       13
176
     1
 40
0.0
176
     1
 90
        0
176
     1
290
     0
176
     1
290
     1
176
     1
290
     1
176
     1
290
     0
176
     1
290
     0
176
     1
290
     0
176
     1
290
     0
176
     1
290
     0
176
     1
290
     0
176
     1
 90
       50
176
     1
 40
0.0
176
     1
 40
1.0
176
     1
 90
        0
176
     1
 62
    18
420
        0
176
     1
 90
       50
176
     1
 90
        3
176
     1
 62
     5
420
      255
176
     1
290
     0
176
     1
 90
       50
176
     1
 90
       50
176
     1
 90
       50
176
     1
290
     0
176
     1
 90
       50
176
     1
 62
   256
176
     0
 40
1.0
176
     0
 90
        2
176
     1
  1
strokes_ogs.tif
176
     1
290
     0
176
     1
 40
1.0
176
     1
 40
1.0
176
     1
  0
VISUALSTYLE
  5
7BE2
102
{ACAD_REACTORS
330
7BE0
102
}
330
7BE0
100
AcDbVisualStyle
  2
FlatWithEdges
 70
     1
177
     3
291
     1
 70
    58
 90
        2
176
     1
 90
        1
176
     1
 90
        1
176
     1
 90
        2
176
     1
 40
0.6
176
     1
 40
30.0
176
     1
 62
     7
420
 16777215
176
     1
 90
        1
176
     1
 90
        0
176
     1
 62
     7
176
     1
 62
   257
176
     1
 90
        1
176
     1
 90
        1
176
     1
 40
1.0
176
     1
 90
        0
176
     1
 62
   257
176
     1
 40
1.0
176
     1
 90
        1
176
     1
 90
        6
176
     1
 90
        2
176
     1
 62
     7
176
     1
 90
        5
176
     1
 90
        0
176
     1
 90
        0
176
     1
290
     0
176
     1
 90
       13
176
     1
 40
0.0
176
     1
 90
        0
176
     1
290
     0
176
     1
290
     1
176
     1
290
     1
176
     1
290
     0
176
     1
290
     0
176
     1
290
     0
176
     1
290
     0
176
     1
290
     0
176
     1
290
     0
176
     1
 90
       50
176
     1
 40
0.0
176
     1
 40
1.0
176
     1
 90
        0
176
     1
 62
    18
420
        0
176
     1
 90
       50
176
     1
 90
        3
176
     1
 62
     5
420
      255
176
     1
290
     0
176
     1
 90
       50
176
     1
 90
       50
176
     1
 90
       50
176
     1
290
     0
176
     1
 90
       50
176
     1
 62
   256
176
     0
 40
1.0
176
     0
 90
        2
176
     1
  1
strokes_ogs.tif
176
     1
290
     0
176
     1
 40
1.0
176
     1
 40
1.0
176
     1
  0
VISUALSTYLE
  5
7BE3
102
{ACAD_REACTORS
330
7BE0
102
}
330
7BE0
100
AcDbVisualStyle
  2
Gouraud
 70
     2
177
     3
291
     1
 70
    58
 90
        2
176
     1
 90
        2
176
     1
 90
        1
176
     1
 90
        2
176
     1
 40
0.6
176
     1
 40
30.0
176
     1
 62
     7
420
 16777215
176
     1
 90
        0
176
     1
 90
        0
176
     1
 62
     7
176
     1
 62
   257
176
     1
 90
        1
176
     1
 90
        1
176
     1
 40
1.0
176
     1
 90
        0
176
     1
 62
     7
176
     1
 40
1.0
176
     1
 90
        1
176
     1
 90
        6
176
     1
 90
        2
176
     1
 62
     7
176
     1
 90
        5
176
     1
 90
        0
176
     1
 90
        0
176
     1
290
     0
176
     1
 90
       13
176
     1
 40
0.0
176
     1
 90
        0
176
     1
290
     0
176
     1
290
     1
176
     1
290
     1
176
     1
290
     0
176
     1
290
     0
176
     1
290
     0
176
     1
290
     0
176
     1
290
     0
176
     1
290
     0
176
     1
 90
       50
176
     1
 40
0.0
176
     1
 40
1.0
176
     1
 90
        0
176
     1
 62
    18
420
        0
176
     1
 90
       50
176
     1
 90
        3
176
     1
 62
     5
420
      255
176
     1
290
     0
176
     1
 90
       50
176
     1
 90
       50
176
     1
 90
       50
176
     1
290
     0
176
     1
 90
       50
176
     1
 62
   256
176
     0
 40
1.0
176
     0
 90
        2
176
     1
  1
strokes_ogs.tif
176
     1
290
     0
176
     1
 40
1.0
176
     1
 40
1.0
176
     1
  0
VISUALSTYLE
  5
7BE4
102
{ACAD_REACTORS
330
7BE0
102
}
330
7BE0
100
AcDbVisualStyle
  2
GouraudWithEdges
 70
     3
177
     3
291
     1
 70
    58
 90
        2
176
     1
 90
        2
176
     1
 90
        1
176
     1
 90
        2
176
     1
 40
0.6
176
     1
 40
30.0
176
     1
 62
     7
420
 16777215
176
     1
 90
        1
176
     1
 90
        0
176
     1
 62
     7
176
     1
 62
   257
176
     1
 90
        1
176
     1
 90
        1
176
     1
 40
1.0
176
     1
 90
        0
176
     1
 62
   257
176
     1
 40
1.0
176
     1
 90
        1
176
     1
 90
        6
176
     1
 90
        2
176
     1
 62
     7
176
     1
 90
        5
176
     1
 90
        0
176
     1
 90
        0
176
     1
290
     0
176
     1
 90
       13
176
     1
 40
0.0
176
     1
 90
        0
176
     1
290
     0
176
     1
290
     1
176
     1
290
     1
176
     1
290
     0
176
     1
290
     0
176
     1
290
     0
176
     1
290
     0
176
     1
290
     0
176
     1
290
     0
176
     1
 90
       50
176
     1
 40
0.0
176
     1
 40
1.0
176
     1
 90
        0
176
     1
 62
    18
420
        0
176
     1
 90
       50
176
     1
 90
        3
176
     1
 62
     5
420
      255
176
     1
290
     0
176
     1
 90
       50
176
     1
 90
       50
176
     1
 90
       50
176
     1
290
     0
176
     1
 90
       50
176
     1
 62
   256
176
     0
 40
1.0
176
     0
 90
        2
176
     1
  1
strokes_ogs.tif
176
     1
290
     0
176
     1
 40
1.0
176
     1
 40
1.0
176
     1
  0
VISUALSTYLE
  5
7BE8
102
{ACAD_REACTORS
330
7BE0
102
}
330
7BE0
100
AcDbVisualStyle
  2
Hidden
 70
     6
177
     3
291
     0
 70
    58
 90
        1
176
     1
 90
        2
176
     1
 90
        2
176
     1
 90
        0
176
     1
 40
0.6
176
     1
 40
30.0
176
     1
 62
     7
420
 16777215
176
     1
 90
        2
176
     1
 90
        2
176
     1
 62
     7
176
     1
 62
   257
176
     1
 90
        2
176
     1
 90
        1
176
     1
 40
40.0
176
     1
 90
        0
176
     1
 62
   257
176
     1
 40
1.0
176
     1
 90
        1
176
     1
 90
        6
176
     1
 90
        2
176
     1
 62
     7
176
     1
 90
        3
176
     1
 90
        0
176
     1
 90
        0
176
     1
290
     0
176
     1
 90
        1
176
     1
 40
0.0
176
     1
 90
        0
176
     1
290
     0
176
     1
290
     1
176
     1
290
     1
176
     1
290
     0
176
     1
290
     0
176
     1
290
     0
176
     1
290
     0
176
     1
290
     0
176
     1
290
     0
176
     1
 90
       50
176
     1
 40
0.0
176
     1
 40
1.0
176
     1
 90
        0
176
     1
 62
    18
420
        0
176
     1
 90
       50
176
     1
 90
        3
176
     1
 62
     5
420
      255
176
     1
290
     0
176
     1
 90
       50
176
     1
 90
       50
176
     1
 90
       50
176
     1
290
     0
176
     1
 90
       50
176
     1
 62
   256
176
     0
 40
1.0
176
     0
 90
        2
176
     1
  1
strokes_ogs.tif
176
     1
290
     0
176
     1
 40
1.0
176
     1
 40
1.0
176
     1
  0
VISUALSTYLE
  5
7BF6
102
{ACAD_REACTORS
330
7BE0
102
}
330
7BE0
100
AcDbVisualStyle
  2
JitterOff
 70
    20
177
     3
291
     1
 70
    58
 90
        2
176
     0
 90
        2
176
     0
 90
        0
176
     0
 90
        0
176
     0
 40
0.6
176
     0
 40
30.0
176
     0
 62
     7
420
 16777215
176
     0
 90
        1
176
     0
 90
        4
176
     0
 62
     7
176
     0
 62
   257
176
     0
 90
        1
176
     0
 90
        1
176
     0
 40
1.0
176
     0
 90
       10
176
     2
 62
     7
176
     0
 40
1.0
176
     0
 90
        1
176
     0
 90
        6
176
     0
 90
        2
176
     0
 62
     7
176
     0
 90
        5
176
     0
 90
        0
176
     0
 90
        0
176
     0
290
     0
176
     0
 90
        1
176
     0
 40
0.0
176
     0
 90
        0
176
     0
290
     0
176
     0
290
     1
176
     0
290
     1
176
     0
290
     0
176
     0
290
     0
176
     0
290
     0
176
     0
290
     0
176
     0
290
     0
176
     0
290
     0
176
     0
 90
       50
176
     0
 40
0.0
176
     0
 40
1.0
176
     0
 90
        0
176
     0
 62
    18
420
        0
176
     0
 90
       50
176
     0
 90
        3
176
     0
 62
     5
420
      255
176
     0
290
     0
176
     0
 90
       50
176
     0
 90
       50
176
     0
 90
       50
176
     0
290
     0
176
     0
 90
       50
176
     0
 62
   256
176
     0
 40
1.0
176
     0
 90
        2
176
     0
  1
strokes_ogs.tif
176
     0
290
     0
176
     0
 40
1.0
176
     0
 40
1.0
176
     0
  0
VISUALSTYLE
  5
7BEE
102
{ACAD_REACTORS
330
7BE0
102
}
330
7BE0
100
AcDbVisualStyle
  2
Linepattern
 70
    14
177
     3
291
     1
 70
    58
 90
        2
176
     1
 90
        2
176
     1
 90
        0
176
     1
 90
        0
176
     1
 40
0.6
176
     1
 40
30.0
176
     1
 62
     7
420
 16777215
176
     1
 90
        1
176
     1
 90
        4
176
     1
 62
     7
176
     1
 62
   257
176
     1
 90
        7
176
     1
 90
        7
176
     1
 40
1.0
176
     1
 90
        8
176
     1
 62
     7
176
     1
 40
1.0
176
     1
 90
        1
176
     1
 90
        6
176
     1
 90
        2
176
     1
 62
     7
176
     1
 90
        5
176
     1
 90
        0
176
     1
 90
        0
176
     1
290
     0
176
     1
 90
        1
176
     1
 40
0.0
176
     1
 90
        0
176
     1
290
     0
176
     1
290
     1
176
     1
290
     1
176
     1
290
     0
176
     1
290
     0
176
     1
290
     0
176
     1
290
     0
176
     1
290
     0
176
     1
290
     0
176
     1
 90
       50
176
     1
 40
0.0
176
     1
 40
1.0
176
     1
 90
        0
176
     1
 62
    18
420
        0
176
     1
 90
       50
176
     1
 90
        3
176
     1
 62
     5
420
      255
176
     1
290
     0
176
     1
 90
       50
176
     1
 90
       50
176
     1
 90
       50
176
     1
290
     0
176
     1
 90
       50
176
     1
 62
   256
176
     0
 40
1.0
176
     0
 90
        2
176
     1
  1
strokes_ogs.tif
176
     1
290
     0
176
     1
 40
1.0
176
     1
 40
1.0
176
     1
  0
VISUALSTYLE
  5
7BF7
102
{ACAD_REACTORS
330
7BE0
102
}
330
7BE0
100
AcDbVisualStyle
  2
OverhangOff
 70
    21
177
     3
291
     1
 70
    58
 90
        2
176
     0
 90
        2
176
     0
 90
        0
176
     0
 90
        0
176
     0
 40
0.6
176
     0
 40
30.0
176
     0
 62
     7
420
 16777215
176
     0
 90
        1
176
     0
 90
        4
176
     0
 62
     7
176
     0
 62
   257
176
     0
 90
        1
176
     0
 90
        1
176
     0
 40
1.0
176
     0
 90
        9
176
     2
 62
     7
176
     0
 40
1.0
176
     0
 90
        1
176
     0
 90
        6
176
     0
 90
        2
176
     0
 62
     7
176
     0
 90
        5
176
     0
 90
        0
176
     0
 90
        0
176
     0
290
     0
176
     0
 90
        1
176
     0
 40
0.0
176
     0
 90
        0
176
     0
290
     0
176
     0
290
     1
176
     0
290
     1
176
     0
290
     0
176
     0
290
     0
176
     0
290
     0
176
     0
290
     0
176
     0
290
     0
176
     0
290
     0
176
     0
 90
       50
176
     0
 40
0.0
176
     0
 40
1.0
176
     0
 90
        0
176
     0
 62
    18
420
        0
176
     0
 90
       50
176
     0
 90
        3
176
     0
 62
     5
420
      255
176
     0
290
     0
176
     0
 90
       50
176
     0
 90
       50
176
     0
 90
       50
176
     0
290
     0
176
     0
 90
       50
176
     0
 62
   256
176
     0
 40
1.0
176
     0
 90
        2
176
     0
  1
strokes_ogs.tif
176
     0
290
     0
176
     0
 40
1.0
176
     0
 40
1.0
176
     0
  0
VISUALSTYLE
  5
7BEA
102
{ACAD_REACTORS
330
7BE0
102
}
330
7BE0
100
AcDbVisualStyle
  2
Realistic
 70
     8
177
     3
291
     0
 70
    58
 90
        2
176
     1
 90
        3
176
     1
 90
        0
176
     1
 90
        2
176
     1
 40
0.6
176
     1
 40
30.0
176
     1
 62
     7
420
 16777215
176
     1
 90
        0
176
     1
 90
        0
176
     1
 62
     7
176
     1
 62
   257
176
     1
 90
        1
176
     1
 90
        1
176
     1
 40
1.0
176
     1
 90
        8
176
     1
 62
   257
176
     1
 40
1.0
176
     1
 90
        1
176
     1
 90
        6
176
     1
 90
        2
176
     1
 62
     7
176
     1
 90
        3
176
     1
 90
        0
176
     1
 90
        0
176
     1
290
     0
176
     1
 90
       13
176
     1
 40
0.0
176
     1
 90
        0
176
     1
290
     0
176
     1
290
     1
176
     1
290
     1
176
     1
290
     0
176
     1
290
     0
176
     1
290
     0
176
     1
290
     0
176
     1
290
     0
176
     1
290
     0
176
     1
 90
       50
176
     1
 40
0.0
176
     1
 40
1.0
176
     1
 90
        0
176
     1
 62
    18
420
        0
176
     1
 90
       50
176
     1
 90
        3
176
     1
 62
     5
420
      255
176
     1
290
     0
176
     1
 90
       50
176
     1
 90
       50
176
     1
 90
       50
176
     1
290
     0
176
     1
 90
       50
176
     1
 62
   256
176
     0
 40
1.0
176
     0
 90
        2
176
     1
  1
strokes_ogs.tif
176
     1
290
     0
176
     1
 40
1.0
176
     1
 40
1.0
176
     1
  0
VISUALSTYLE
  5
7BF5
102
{ACAD_REACTORS
330
7BE0
102
}
330
7BE0
100
AcDbVisualStyle
  2
Shaded
 70
    27
177
     3
291
     0
 70
    58
 90
        2
176
     1
 90
        2
176
     1
 90
        1
176
     1
 90
        2
176
     1
 40
0.6
176
     1
 40
30.0
176
     1
 62
     7
420
 16777215
176
     1
 90
        0
176
     1
 90
        4
176
     1
 62
     7
176
     1
 62
   257
176
     1
 90
        1
176
     1
 90
        1
176
     1
 40
1.0
176
     1
 90
        8
176
     1
 62
   257
176
     1
 40
1.0
176
     1
 90
        1
176
     1
 90
        6
176
     1
 90
        2
176
     1
 62
     8
420
  7895160
176
     1
 90
        3
176
     1
 90
        0
176
     1
 90
        0
176
     1
290
     0
176
     1
 90
        5
176
     1
 40
0.0
176
     1
 90
        0
176
     1
290
     0
176
     1
290
     1
176
     1
290
     1
176
     1
290
     0
176
     1
290
     0
176
     1
290
     0
176
     1
290
     0
176
     1
290
     0
176
     1
290
     0
176
     1
 90
       50
176
     1
 40
0.0
176
     1
 40
1.0
176
     1
 90
        0
176
     1
 62
    18
420
        0
176
     1
 90
       50
176
     1
 90
        3
176
     1
 62
     5
420
      255
176
     1
290
     0
176
     1
 90
       50
176
     1
 90
       50
176
     1
 90
       50
176
     1
290
     0
176
     1
 90
       50
176
     1
 62
   256
176
     0
 40
1.0
176
     0
 90
        2
176
     1
  1
strokes_ogs.tif
176
     1
290
     0
176
     1
 40
1.0
176
     1
 40
1.0
176
     1
  0
VISUALSTYLE
  5
7BF4
102
{ACAD_REACTORS
330
7BE0
102
}
330
7BE0
100
AcDbVisualStyle
  2
Shaded with edges
 70
    26
177
     3
291
     0
 70
    58
 90
        2
176
     1
 90
        2
176
     1
 90
        1
176
     1
 90
        2
176
     1
 40
0.6
176
     1
 40
30.0
176
     1
 62
     7
420
 16777215
176
     1
 90
        1
176
     1
 90
        2
176
     1
 62
     7
176
     1
 62
   257
176
     1
 90
        2
176
     1
 90
        1
176
     1
 40
1.0
176
     1
 90
        8
176
     1
 62
   257
176
     1
 40
1.0
176
     1
 90
        1
176
     1
 90
        6
176
     1
 90
        2
176
     1
 62
     7
176
     1
 90
        3
176
     1
 90
        0
176
     1
 90
        0
176
     1
290
     0
176
     1
 90
        5
176
     1
 40
0.0
176
     1
 90
        0
176
     1
290
     0
176
     1
290
     1
176
     1
290
     1
176
     1
290
     0
176
     1
290
     0
176
     1
290
     0
176
     1
290
     0
176
     1
290
     0
176
     1
290
     0
176
     1
 90
       50
176
     1
 40
0.0
176
     1
 40
1.0
176
     1
 90
        0
176
     1
 62
    18
420
        0
176
     1
 90
       50
176
     1
 90
        3
176
     1
 62
     5
420
      255
176
     1
290
     0
176
     1
 90
       50
176
     1
 90
       50
176
     1
 90
       50
176
     1
290
     0
176
     1
 90
       50
176
     1
 62
   256
176
     0
 40
1.0
176
     0
 90
        2
176
     1
  1
strokes_ogs.tif
176
     1
290
     0
176
     1
 40
1.0
176
     1
 40
1.0
176
     1
  0
VISUALSTYLE
  5
7BF1
102
{ACAD_REACTORS
330
7BE0
102
}
330
7BE0
100
AcDbVisualStyle
  2
Shades of Gray
 70
    23
177
     3
291
     0
 70
    58
 90
        2
176
     1
 90
        2
176
     1
 90
        3
176
     1
 90
        0
176
     1
 40
0.6
176
     1
 40
30.0
176
     1
 62
     7
420
 16777215
176
     1
 90
        2
176
     1
 90
        2
176
     1
 62
     7
176
     1
 62
     7
176
     1
 90
        1
176
     1
 90
        1
176
     1
 40
40.0
176
     1
 90
        8
176
     1
 62
     7
176
     1
 40
1.0
176
     1
 90
        1
176
     1
 90
        6
176
     1
 90
        2
176
     1
 62
     7
176
     1
 90
        3
176
     1
 90
        0
176
     1
 90
        0
176
     1
290
     0
176
     1
 90
        1
176
     1
 40
0.0
176
     1
 90
        0
176
     1
290
     0
176
     1
290
     1
176
     1
290
     1
176
     1
290
     0
176
     1
290
     0
176
     1
290
     0
176
     1
290
     0
176
     1
290
     0
176
     1
290
     0
176
     1
 90
       50
176
     1
 40
0.0
176
     1
 40
1.0
176
     1
 90
        0
176
     1
 62
    18
420
        0
176
     1
 90
       50
176
     1
 90
        3
176
     1
 62
     5
420
      255
176
     1
290
     0
176
     1
 90
       50
176
     1
 90
       50
176
     1
 90
       50
176
     1
290
     0
176
     1
 90
       50
176
     1
 62
   256
176
     0
 40
1.0
176
     0
 90
        2
176
     1
  1
strokes_ogs.tif
176
     1
290
     0
176
     1
 40
1.0
176
     1
 40
1.0
176
     1
  0
VISUALSTYLE
  5
7BF2
102
{ACAD_REACTORS
330
7BE0
102
}
330
7BE0
100
AcDbVisualStyle
  2
Sketchy
 70
    24
177
     3
291
     0
 70
    58
 90
        1
176
     1
 90
        2
176
     1
 90
        2
176
     1
 90
        0
176
     1
 40
0.6
176
     1
 40
30.0
176
     1
 62
     7
420
 16777215
176
     1
 90
        2
176
     1
 90
        2
176
     1
 62
     7
176
     1
 62
     7
176
     1
 90
        1
176
     1
 90
        1
176
     1
 40
40.0
176
     1
 90
       11
176
     1
 62
     7
176
     1
 40
1.0
176
     1
 90
        1
176
     1
 90
        6
176
     1
 90
        2
176
     1
 62
     7
176
     1
 90
        6
176
     1
 90
        0
176
     1
 90
        0
176
     1
290
     0
176
     1
 90
        1
176
     1
 40
0.0
176
     1
 90
        0
176
     1
290
     0
176
     1
290
     1
176
     1
290
     1
176
     1
290
     0
176
     1
290
     0
176
     1
290
     0
176
     1
290
     0
176
     1
290
     0
176
     1
290
     0
176
     1
 90
       50
176
     1
 40
0.0
176
     1
 40
1.0
176
     1
 90
        0
176
     1
 62
    18
420
        0
176
     1
 90
       50
176
     1
 90
        3
176
     1
 62
     5
420
      255
176
     1
290
     0
176
     1
 90
       50
176
     1
 90
       50
176
     1
 90
       50
176
     1
290
     0
176
     1
 90
       50
176
     1
 62
   256
176
     0
 40
1.0
176
     0
 90
        2
176
     1
  1
strokes_ogs.tif
176
     1
290
     0
176
     1
 40
1.0
176
     1
 40
1.0
176
     1
  0
VISUALSTYLE
  5
7BED
102
{ACAD_REACTORS
330
7BE0
102
}
330
7BE0
100
AcDbVisualStyle
  2
Thicken
 70
    13
177
     3
291
     1
 70
    58
 90
        2
176
     1
 90
        2
176
     1
 90
        0
176
     1
 90
        0
176
     1
 40
0.6
176
     1
 40
30.0
176
     1
 62
     7
420
 16777215
176
     1
 90
        1
176
     1
 90
        4
176
     1
 62
     7
176
     1
 62
   257
176
     1
 90
        1
176
     1
 90
        1
176
     1
 40
1.0
176
     1
 90
       12
176
     1
 62
     7
176
     1
 40
1.0
176
     1
 90
        1
176
     1
 90
        6
176
     1
 90
        2
176
     1
 62
     7
176
     1
 90
        5
176
     1
 90
        0
176
     1
 90
        0
176
     1
290
     0
176
     1
 90
        1
176
     1
 40
0.0
176
     1
 90
        0
176
     1
290
     0
176
     1
290
     1
176
     1
290
     1
176
     1
290
     0
176
     1
290
     0
176
     1
290
     0
176
     1
290
     0
176
     1
290
     0
176
     1
290
     0
176
     1
 90
       50
176
     1
 40
0.0
176
     1
 40
1.0
176
     1
 90
        0
176
     1
 62
    18
420
        0
176
     1
 90
       50
176
     1
 90
        3
176
     1
 62
     5
420
      255
176
     1
290
     0
176
     1
 90
       50
176
     1
 90
       50
176
     1
 90
       50
176
     1
290
     0
176
     1
 90
       50
176
     1
 62
   256
176
     0
 40
1.0
176
     0
 90
        2
176
     1
  1
strokes_ogs.tif
176
     1
290
     0
176
     1
 40
1.0
176
     1
 40
1.0
176
     1
  0
VISUALSTYLE
  5
7BE7
102
{ACAD_REACTORS
330
7BE0
102
}
330
7BE0
100
AcDbVisualStyle
  2
Wireframe
 70
     5
177
     3
291
     0
 70
    58
 90
        0
176
     1
 90
        2
176
     1
 90
        0
176
     1
 90
        0
176
     1
 40
0.6
176
     1
 40
30.0
176
     1
 62
     7
420
 16777215
176
     1
 90
        1
176
     1
 90
        4
176
     1
 62
     7
176
     1
 62
   257
176
     1
 90
        1
176
     1
 90
        1
176
     1
 40
1.0
176
     1
 90
        0
176
     1
 62
   257
176
     1
 40
1.0
176
     1
 90
        1
176
     1
 90
        6
176
     1
 90
        2
176
     1
 62
     7
176
     1
 90
        3
176
     1
 90
        0
176
     1
 90
        0
176
     1
290
     0
176
     1
 90
        1
176
     1
 40
0.0
176
     1
 90
        0
176
     1
290
     0
176
     1
290
     1
176
     1
290
     1
176
     1
290
     0
176
     1
290
     0
176
     1
290
     0
176
     1
290
     0
176
     1
290
     0
176
     1
290
     0
176
     1
 90
       50
176
     1
 40
0.0
176
     1
 40
1.0
176
     1
 90
        0
176
     1
 62
    18
420
        0
176
     1
 90
       50
176
     1
 90
        3
176
     1
 62
     5
420
      255
176
     1
290
     0
176
     1
 90
       50
176
     1
 90
       50
176
     1
 90
       50
176
     1
290
     0
176
     1
 90
       50
176
     1
 62
   256
176
     0
 40
1.0
176
     0
 90
        2
176
     1
  1
strokes_ogs.tif
176
     1
290
     0
176
     1
 40
1.0
176
     1
 40
1.0
176
     1
  0
VISUALSTYLE
  5
7BF3
102
{ACAD_REACTORS
330
7BE0
102
}
330
7BE0
100
AcDbVisualStyle
  2
X-Ray
 70
    25
177
     3
291
     0
 70
    58
 90
        2
176
     1
 90
        2
176
     1
 90
        1
176
     1
 90
        1
176
     1
 40
0.5
176
     1
 40
30.0
176
     1
 62
     7
420
 16777215
176
     1
 90
        1
176
     1
 90
        0
176
     1
 62
     7
176
     1
 62
   257
176
     1
 90
        1
176
     1
 90
        1
176
     1
 40
1.0
176
     1
 90
        8
176
     1
 62
     7
176
     1
 40
1.0
176
     1
 90
        1
176
     1
 90
        6
176
     1
 90
        2
176
     1
 62
     7
176
     1
 90
        3
176
     1
 90
        0
176
     1
 90
        0
176
     1
290
     0
176
     1
 90
       13
176
     1
 40
0.0
176
     1
 90
        0
176
     1
290
     0
176
     1
290
     1
176
     1
290
     1
176
     1
290
     0
176
     1
290
     0
176
     1
290
     0
176
     1
290
     0
176
     1
290
     0
176
     1
290
     0
176
     1
 90
       50
176
     1
 40
0.0
176
     1
 40
1.0
176
     1
 90
        0
176
     1
 62
    18
420
        0
176
     1
 90
       50
176
     1
 90
        3
176
     1
 62
     5
420
      255
176
     1
290
     0
176
     1
 90
       50
176
     1
 90
       50
176
     1
 90
       50
176
     1
290
     0
176
     1
 90
       50
176
     1
 62
   256
176
     0
 40
1.0
176
     0
 90
        2
176
     1
  1
strokes_ogs.tif
176
     1
290
     0
176
     1
 40
1.0
176
     1
 40
1.0
176
     1
  0
DICTIONARYVAR
  5
7CA8
102
{ACAD_REACTORS
330
7CA3
102
}
330
7CA3
100
DictionaryVariables
280
     0
  1
1:1
  0
DICTIONARYVAR
  5
7CA5
102
{ACAD_REACTORS
330
7CA3
102
}
330
7CA3
100
DictionaryVariables
280
     0
  1
STANDARD
  0
DICTIONARYVAR
  5
7CA4
102
{ACAD_REACTORS
330
7CA3
102
}
330
7CA3
100
DictionaryVariables
280
     0
  1
STANDARD
  0
DICTIONARYVAR
  5
7CA6
102
{ACAD_REACTORS
330
7CA3
102
}
330
7CA3
100
DictionaryVariables
280
     0
  1
Imperial24
  0
DICTIONARYVAR
  5
7CA7
102
{ACAD_REACTORS
330
7CA3
102
}
330
7CA3
100
DictionaryVariables
280
     0
  1
Imperial24
  0
DICTIONARY
  5
7BD1
330
7BD0
100
AcDbDictionary
280
     1
281
     1
  3
BUMPTILE
360
7BD3
  3
DIFFUSETILE
360
7BD2
  3
OPACITYTILE
360
7BD6
  3
REFLECTIONTILE
360
7BD5
  3
REFRACTIONTILE
360
7BD7
  3
SPECULARTILE
360
7BD4
  0
DICTIONARY
  5
7BC9
330
7BC8
100
AcDbDictionary
280
     1
281
     1
  3
BUMPTILE
360
7BCB
  3
DIFFUSETILE
360
7BCA
  3
OPACITYTILE
360
7BCE
  3
REFLECTIONTILE
360
7BCD
  3
REFRACTIONTILE
360
7BCF
  3
SPECULARTILE
360
7BCC
  0
DICTIONARY
  5
7BD9
330
7BD8
100
AcDbDictionary
280
     1
281
     1
  3
BUMPTILE
360
7BDB
  3
DIFFUSETILE
360
7BDA
  3
OPACITYTILE
360
7BDE
  3
REFLECTIONTILE
360
7BDD
  3
REFRACTIONTILE
360
7BDF
  3
SPECULARTILE
360
7BDC
  0
DICTIONARY
  5
7CC7
330
7BFB
100
AcDbDictionary
280
     1
281
     1
  3
ACAD_ROUNDTRIP_2008_TABLESTYLE_CELLSTYLEMAP
360
7CC8
  0
XRECORD
  5
7BD3
102
{ACAD_REACTORS
330
7BD1
102
}
330
7BD1
100
AcDbXrecord
280
     1
270
     1
271
     1
  0
XRECORD
  5
7BD2
102
{ACAD_REACTORS
330
7BD1
102
}
330
7BD1
100
AcDbXrecord
280
     1
270
     1
271
     1
  0
XRECORD
  5
7BD6
102
{ACAD_REACTORS
330
7BD1
102
}
330
7BD1
100
AcDbXrecord
280
     1
270
     1
271
     1
  0
XRECORD
  5
7BD5
102
{ACAD_REACTORS
330
7BD1
102
}
330
7BD1
100
AcDbXrecord
280
     1
270
     1
271
     1
  0
XRECORD
  5
7BD7
102
{ACAD_REACTORS
330
7BD1
102
}
330
7BD1
100
AcDbXrecord
280
     1
270
     1
271
     1
  0
XRECORD
  5
7BD4
102
{ACAD_REACTORS
330
7BD1
102
}
330
7BD1
100
AcDbXrecord
280
     1
270
     1
271
     1
  0
XRECORD
  5
7BCB
102
{ACAD_REACTORS
330
7BC9
102
}
330
7BC9
100
AcDbXrecord
280
     1
270
     1
271
     1
  0
XRECORD
  5
7BCA
102
{ACAD_REACTORS
330
7BC9
102
}
330
7BC9
100
AcDbXrecord
280
     1
270
     1
271
     1
  0
XRECORD
  5
7BCE
102
{ACAD_REACTORS
330
7BC9
102
}
330
7BC9
100
AcDbXrecord
280
     1
270
     1
271
     1
  0
XRECORD
  5
7BCD
102
{ACAD_REACTORS
330
7BC9
102
}
330
7BC9
100
AcDbXrecord
280
     1
270
     1
271
     1
  0
XRECORD
  5
7BCF
102
{ACAD_REACTORS
330
7BC9
102
}
330
7BC9
100
AcDbXrecord
280
     1
270
     1
271
     1
  0
XRECORD
  5
7BCC
102
{ACAD_REACTORS
330
7BC9
102
}
330
7BC9
100
AcDbXrecord
280
     1
270
     1
271
     1
  0
XRECORD
  5
7BDB
102
{ACAD_REACTORS
330
7BD9
102
}
330
7BD9
100
AcDbXrecord
280
     1
270
     1
271
     1
  0
XRECORD
  5
7BDA
102
{ACAD_REACTORS
330
7BD9
102
}
330
7BD9
100
AcDbXrecord
280
     1
270
     1
271
     1
  0
XRECORD
  5
7BDE
102
{ACAD_REACTORS
330
7BD9
102
}
330
7BD9
100
AcDbXrecord
280
     1
270
     1
271
     1
  0
XRECORD
  5
7BDD
102
{ACAD_REACTORS
330
7BD9
102
}
330
7BD9
100
AcDbXrecord
280
     1
270
     1
271
     1
  0
XRECORD
  5
7BDF
102
{ACAD_REACTORS
330
7BD9
102
}
330
7BD9
100
AcDbXrecord
280
     1
270
     1
271
     1
  0
XRECORD
  5
7BDC
102
{ACAD_REACTORS
330
7BD9
102
}
330
7BD9
100
AcDbXrecord
280
     1
270
     1
271
     1
  0
CELLSTYLEMAP
  5
7CC8
102
{ACAD_REACTORS
330
7CC7
102
}
330
7CC7
100
AcDbCellStyleMap
 90
        3
300
CELLSTYLE
  1
TABLEFORMAT_BEGIN
 90
        5
170
     1
 91
        0
 92
    32768
 62
   257
 93
        1
300
CONTENTFORMAT
  1
CONTENTFORMAT_BEGIN
 90
        0
 91
        0
 92
      512
 93
        0
300

 40
0.0
140
1.0
 94
        5
 62
     0
340
43C3
144
0.25
309
CONTENTFORMAT_END
171
     0
 94
        0
309
TABLEFORMAT_END
  1
CELLSTYLE_BEGIN
 90
        1
 91
        1
300
_TITLE
309
CELLSTYLE_END
300
CELLSTYLE
  1
TABLEFORMAT_BEGIN
 90
        5
170
     1
 91
        0
 92
        0
 62
   257
 93
        1
300
CONTENTFORMAT
  1
CONTENTFORMAT_BEGIN
 90
        0
 91
        0
 92
      512
 93
        0
300

 40
0.0
140
1.0
 94
        5
 62
     0
340
43C3
144
0.18
309
CONTENTFORMAT_END
171
     0
 94
        0
309
TABLEFORMAT_END
  1
CELLSTYLE_BEGIN
 90
        2
 91
        1
300
_HEADER
309
CELLSTYLE_END
300
CELLSTYLE
  1
TABLEFORMAT_BEGIN
 90
        5
170
     1
 91
        0
 92
        0
 62
   257
 93
        1
300
CONTENTFORMAT
  1
CONTENTFORMAT_BEGIN
 90
        0
 91
        0
 92
      512
 93
        0
300

 40
0.0
140
1.0
 94
        2
 62
     0
340
43C3
144
0.18
309
CONTENTFORMAT_END
171
     0
 94
        0
309
TABLEFORMAT_END
  1
CELLSTYLE_BEGIN
 90
        3
 91
        2
300
_DATA
309
CELLSTYLE_END
  0
ENDSEC
  0
EOF
