0
SECTION
2
HEADER
9
$ACADVER
1
AC1021
9
$DWGCODEPAGE
3
ANSI_1252
9
$LASTSAVEDBY
1
shearn
9
$HANDSEED
5
12FF
9
$ANGBASE
50
0.0
9
$ANGDIR
70
0
9
$ATTMODE
70
1
9
$AUNITS
70
0
9
$AUPREC
70
0
9
$CECOLOR
62
256
9
$CELTSCALE
40
1.0
9
$CELTYPE
6
ByLayer
9
$CELWEIGHT
370
-1
9
$CLAYER
8
0
9
$CMLJUST
70
0
9
$CMLSCALE
40
20.0
9
$CMLSTYLE
2
Standard
9
$DIMSTYLE
2
Standard
9
$TEXTSIZE
40
0.2
9
$TEXTSTYLE
7
Standard
9
$LUNITS
70
2
9
$LUPREC
70
4
9
$EXTNAMES
290
1
9
$INSBASE
10
0.0
20
0.0
30
0.0
9
$INSUNITS
70
1
9
$LTSCALE
40
1.0
9
$LWDISPLAY
290
0
9
$PDMODE
70
0
9
$PDSIZE
40
0.0
9
$PLINEGEN
70
0
9
$PSLTSCALE
70
1
9
$TDCREATE
40
2457459.2989584
9
$TDUCREATE
40
2457459.46562507
9
$TDUPDATE
40
2457691.55351615
9
$TDUUPDATE
40
2457691.72018281
9
$TDINDWG
40
0.0265577777777778
9
$DIMADEC
70
0
9
$DIMAUNIT
70
0
9
$DIMASZ
40
0.18
9
$DIMAZIN
70
3
9
$DIMBLK
1

9
$DIMBLK1
1

9
$DIMBLK2
1

9
$DIMLDRBLK
1

9
$DIMCEN
40
0.09
9
$DIMCLRD
70
0
9
$DIMCLRE
70
0
9
$DIMCLRT
70
0
9
$DIMDEC
70
2
9
$DIMDLE
40
0.0
9
$DIMDLI
40
0.38
9
$DIMDSEP
70
46
9
$DIMEXE
40
0.18
9
$DIMEXO
40
0.0625
9
$DIMGAP
40
0.09
9
$DIMJUST
70
0
9
$DIMLFAC
40
1.0
9
$DIMLUNIT
70
2
9
$DIMLWD
70
-2
9
$DIMLWE
70
-2
9
$DIMPOST
1
<>
9
$DIMRND
40
0.0
9
$DIMSAH
70
0
9
$DIMSCALE
40
1.0
9
$DIMSE1
70
0
9
$DIMSE2
70
0
9
$DIMTAD
70
1
9
$DIMTIH
70
0
9
$DIMTOH
70
0
9
$DIMTXT
40
0.18
9
$DIMZIN
70
0
9
$DIMFRAC
70
0
9
$DIMLTYPE
6
ByBlock
9
$DIMLTEX1
6
ByBlock
9
$DIMLTEX2
6
ByBlock
0
ENDSEC
0
SECTION
2
CLASSES
0
CLASS
1
RASTERVARIABLES
2
AcDbRasterVariables
3
ISM
90
0
91
1
280
0
281
0
0
ENDSEC
0
SECTION
2
TABLES
0
TABLE
2
APPID
5
4
330
0
100
AcDbSymbolTable
70
9
0
APPID
5
17
330
4
100
AcDbSymbolTableRecord
100
AcDbRegAppTableRecord
2
ACAD
70
0
0
APPID
5
87
330
4
100
AcDbSymbolTableRecord
100
AcDbRegAppTableRecord
2
AcCmTransparency
70
0
0
APPID
5
88
330
4
100
AcDbSymbolTableRecord
100
AcDbRegAppTableRecord
2
GradientColor1ACI
70
0
0
APPID
5
89
330
4
100
AcDbSymbolTableRecord
100
AcDbRegAppTableRecord
2
GradientColor2ACI
70
0
0
APPID
5
551
330
4
100
AcDbSymbolTableRecord
100
AcDbRegAppTableRecord
2
ACAD_MLEADERVER
70
0
0
APPID
5
604
330
4
100
AcDbSymbolTableRecord
100
AcDbRegAppTableRecord
2
ACAD_NAV_VCDISPLAY
70
0
0
APPID
5
995
330
4
100
AcDbSymbolTableRecord
100
AcDbRegAppTableRecord
2
AcAecLayerStandard
70
0
0
APPID
5
996
330
4
100
AcDbSymbolTableRecord
100
AcDbRegAppTableRecord
2
ACAD_PSEXT
70
0
0
APPID
5
9A0
330
4
100
AcDbSymbolTableRecord
100
AcDbRegAppTableRecord
2
ACAD_EXEMPT_FROM_CAD_STANDARDS
70
0
0
ENDTAB
0
TABLE
2
VPORT
5
1
330
0
100
AcDbSymbolTable
70
1
0
VPORT
5
1269
330
1
100
AcDbSymbolTableRecord
100
AcDbViewportTableRecord
2
*Active
70
0
10
0.0
20
0.0
11
1.0
21
1.0
12
17.0
22
11.0
13
0.0
23
0.0
14
0.5
24
0.5
15
10.0
25
10.0
16
0.0
26
0.0
36
1.0
17
0.0
27
0.0
37
0.0
40
22.0
41
1.0
75
0
76
1
0
ENDTAB
0
TABLE
2
LTYPE
5
6
330
0
100
AcDbSymbolTable
70
4
0
LTYPE
5
15
330
6
100
AcDbSymbolTableRecord
100
AcDbLinetypeTableRecord
70
0
2
ByBlock
3

72
65
73
0
40
0.0
0
LTYPE
5
14
330
6
100
AcDbSymbolTableRecord
100
AcDbLinetypeTableRecord
70
0
2
ByLayer
3

72
65
73
0
40
0.0
0
LTYPE
5
13
330
6
100
AcDbSymbolTableRecord
100
AcDbLinetypeTableRecord
70
0
2
Continuous
3
Solid line
72
65
73
0
40
0.0
0
LTYPE
5
1274
330
6
100
AcDbSymbolTableRecord
100
AcDbLinetypeTableRecord
70
0
2
Dashed
3
Dashed, __ __ __ __ __ __ __ __ __ __ __ __ __ _
72
65
73
2
40
0.75
49
0.5
74
0
49
-0.25
74
0
0
ENDTAB
0
TABLE
2
LAYER
5
5
330
0
100
AcDbSymbolTable
70
12
0
LAYER
5
12
330
5
100
AcDbSymbolTableRecord
100
AcDbLayerTableRecord
2
0
70
0
62
7
6
Continuous
290
1
370
-3
390
0
0
LAYER
5
DD
330
5
100
AcDbSymbolTableRecord
100
AcDbLayerTableRecord
2
TITLEBLOCK
70
0
62
7
6
Continuous
290
1
370
-3
390
0
0
LAYER
5
FDE
330
5
100
AcDbSymbolTableRecord
100
AcDbLayerTableRecord
2
Text
70
0
62
7
6
Continuous
290
1
370
-3
390
0
0
LAYER
5
126F
330
5
100
AcDbSymbolTableRecord
100
AcDbLayerTableRecord
2
Plate
70
0
62
7
6
Continuous
290
1
370
-3
390
0
0
LAYER
5
1270
330
5
100
AcDbSymbolTableRecord
100
AcDbLayerTableRecord
2
Gasket
70
0
62
5
6
Continuous
290
1
370
-3
390
0
0
LAYER
5
1271
330
5
100
AcDbSymbolTableRecord
100
AcDbLayerTableRecord
2
Stud
70
0
62
1
6
Continuous
290
1
370
-3
390
0
0
LAYER
5
1272
330
5
100
AcDbSymbolTableRecord
100
AcDbLayerTableRecord
2
Dimension
70
0
62
7
6
Continuous
290
1
370
-3
390
0
0
LAYER
5
1273
330
5
100
AcDbSymbolTableRecord
100
AcDbLayerTableRecord
2
PrevBezel
70
0
62
8
6
Dashed
290
1
370
-3
390
0
0
LAYER
5
1275
330
5
100
AcDbSymbolTableRecord
100
AcDbLayerTableRecord
2
PrevCutout
70
0
62
4
6
Dashed
290
1
370
-3
390
0
0
LAYER
5
1276
330
5
100
AcDbSymbolTableRecord
100
AcDbLayerTableRecord
2
NewBezel
70
0
62
6
6
Dashed
290
1
370
-3
390
0
0
LAYER
5
1277
330
5
100
AcDbSymbolTableRecord
100
AcDbLayerTableRecord
2
BackPlate
70
0
62
30
6
Continuous
290
1
370
-3
390
0
0
LAYER
5
12B1
330
5
100
AcDbSymbolTableRecord
100
AcDbLayerTableRecord
2
Defpoints
70
0
62
7
6
Continuous
290
0
370
-3
390
0
0
ENDTAB
0
TABLE
2
STYLE
5
7
330
0
100
AcDbSymbolTable
70
1
0
STYLE
5
16
330
7
100
AcDbSymbolTableRecord
100
AcDbTextStyleTableRecord
2
Standard
3
simplex.shx
70
0
71
0
40
0.0
41
1.0
42
0.0
50
0.0
0
ENDTAB
0
TABLE
2
DIMSTYLE
5
8
330
0
100
AcDbSymbolTable
70
2
100
AcDbDimStyleTable
0
DIMSTYLE
105
18
330
8
100
AcDbSymbolTableRecord
100
AcDbDimStyleTableRecord
2
Standard
70
0
3
<>
40
1.0
41
0.18
42
0.0625
43
0.38
44
0.18
45
0.0
46
0.0
73
0
74
0
75
0
76
0
77
1
78
0
79
3
140
0.18
141
0.09
144
1.0
147
0.09
173
0
176
0
177
0
178
0
179
0
271
2
275
0
276
0
277
2
278
46
280
0
340
16
345
15
346
15
347
15
371
-2
372
-2
0
DIMSTYLE
105
1278
330
8
100
AcDbSymbolTableRecord
100
AcDbDimStyleTableRecord
2
DimStyle
70
0
3
<>
40
1.0
41
0.18
42
0.0625
43
0.38
44
0.18
45
0.0
46
0.0
73
0
74
0
75
0
76
0
77
1
78
0
79
0
140
0.18
141
0.09
144
1.0
147
0.09
173
0
176
0
177
0
178
0
179
0
271
2
275
0
276
0
277
2
278
46
280
0
340
16
345
15
346
15
347
15
371
-2
372
-2
0
ENDTAB
0
TABLE
2
VIEW
5
3
330
0
100
AcDbSymbolTable
70
0
0
ENDTAB
0
TABLE
2
UCS
5
A
330
0
100
AcDbSymbolTable
70
0
0
ENDTAB
0
TABLE
2
BLOCK_RECORD
5
B
330
0
100
AcDbSymbolTable
70
7
0
BLOCK_RECORD
5
1A
330
B
100
AcDbSymbolTableRecord
100
AcDbBlockTableRecord
2
*Model_Space
340
1E
0
BLOCK_RECORD
5
56C
330
B
100
AcDbSymbolTableRecord
100
AcDbBlockTableRecord
2
*Paper_Space
340
56D
0
BLOCK_RECORD
5
D97
330
B
100
AcDbSymbolTableRecord
100
AcDbBlockTableRecord
2
A$C3473086C
340
0
70
1
280
1
281
0
1001
ACAD
1000
DesignCenter Data
1002
{
1070
1
1070
1
1002
}
0
BLOCK_RECORD
5
12AD
330
B
100
AcDbSymbolTableRecord
100
AcDbBlockTableRecord
2
*D1
340
0
0
BLOCK_RECORD
5
12BB
330
B
100
AcDbSymbolTableRecord
100
AcDbBlockTableRecord
2
*D2
340
0
0
BLOCK_RECORD
5
12C8
330
B
100
AcDbSymbolTableRecord
100
AcDbBlockTableRecord
2
*D3
340
0
0
BLOCK_RECORD
5
12D5
330
B
100
AcDbSymbolTableRecord
100
AcDbBlockTableRecord
2
*D4
340
0
0
ENDTAB
0
ENDSEC
0
SECTION
2
BLOCKS
0
BLOCK
5
1C
330
1A
100
AcDbEntity
8
0
100
AcDbBlockBegin
2
*Model_Space
70
0
10
0.0
20
0.0
30
0.0
3
*Model_Space
0
ENDBLK
5
1B
330
1A
100
AcDbEntity
8
0
100
AcDbBlockEnd
0
BLOCK
5
56E
330
56C
100
AcDbEntity
8
0
100
AcDbBlockBegin
2
*Paper_Space
70
0
10
0.0
20
0.0
30
0.0
3
*Paper_Space
0
ENDBLK
5
56F
330
56C
100
AcDbEntity
8
0
100
AcDbBlockEnd
0
BLOCK
5
F5E
330
D97
100
AcDbEntity
8
0
100
AcDbBlockBegin
2
A$C3473086C
70
0
10
0.0
20
0.0
30
0.0
3
A$C3473086C
0
TEXT
5
D98
330
D97
100
AcDbEntity
8
TITLEBLOCK
62
154
6
ByLayer
370
-1
48
1.0
60
0
100
AcDbText
1
#
10
1.00504195979196
20
-0.275094061566832
30
0.0
40
0.0424828789003611
41
1.0
50
0.0
51
0.0
7
Standard
11
1.00504195979196
21
-0.275094061566832
31
0.0
210
0.0
220
0.0
230
1.0
72
1
100
AcDbText
73
2
0
HATCH
5
D99
330
D97
100
AcDbEntity
8
TITLEBLOCK
62
154
6
Continuous
370
-1
48
1.0
60
0
100
AcDbHatch
10
0.0
20
0.0
30
0.0
210
0.0
220
0.0
230
1.0
2
ANSI31
70
0
71
0
91
5
92
7
72
1
73
1
93
16
10
1.01971424964248
20
-0.0430361962343147
42
0.0
10
1.01435502520576
20
-0.0215992984874109
42
0.0
10
0.998926954857611
20
-0.0058464266582465
42
0.0
10
0.977490057110705
20
-0.0000000000000009
42
0.0
10
-0.977490057110705
20
-0.0000000000000009
42
0.0
10
-0.998764554117104
20
-0.0058464266582465
42
0.0
10
-1.01419262446525
20
-0.0215992984874109
42
0.0
10
-1.01955184890198
20
-0.0430361962343147
42
0.0
10
-1.01955184890198
20
-0.567752988811934
42
0.0
10
-1.01419262446525
20
-0.589189886558838
42
0.0
10
-0.998764554117104
20
-0.604942758388002
42
0.0
10
-0.977490057110705
20
-0.610789185046248
42
0.0
10
0.977490057110705
20
-0.610789185046248
42
0.0
10
0.998926954857611
20
-0.604942758388002
42
0.0
10
1.01435502520576
20
-0.589189886558838
42
0.0
10
1.01971424964248
20
-0.567752988811934
42
0.0
97
0
92
23
72
1
73
1
93
12
10
-0.689228742711057
20
-0.0907820139433278
42
0.0
10
-0.683057514571795
20
-0.0760035465572042
42
0.0
10
-0.668116646445169
20
-0.0698323184179444
42
0.0
10
0.679809499761658
20
-0.0698323184179444
42
0.0
10
0.694587967147781
20
-0.0760035465572042
42
0.0
10
0.700759195287043
20
-0.0907820139433278
42
0.0
10
0.700759195287043
20
-0.513673542223155
42
0.0
10
0.694587967147781
20
-0.528614410349784
42
0.0
10
0.679809499761658
20
-0.534785638489044
42
0.0
10
-0.668116646445169
20
-0.534785638489044
42
0.0
10
-0.683057514571795
20
-0.528614410349784
42
0.0
10
-0.689228742711057
20
-0.513673542223155
42
0.0
97
0
92
7
72
1
73
1
93
20
10
-0.493373449659798
20
-0.123586963525711
42
0.0
10
-0.482167798564829
20
-0.114654922797834
42
0.0
10
-0.394796200172143
20
-0.114654922797834
42
0.0
10
-0.383752949817675
20
-0.123749364266217
42
0.0
10
-0.383752949817675
20
-0.261952394437543
42
0.0
10
-0.217779393019681
20
-0.261952394437543
42
0.0
10
-0.217779393019681
20
-0.123262162044696
42
0.0
10
-0.206411341184202
20
-0.114654922797834
42
0.0
10
-0.121313353158611
20
-0.114654922797834
42
0.0
10
-0.110432503544656
20
-0.123749364266217
42
0.0
10
-0.110432503544656
20
-0.485903015596484
42
0.0
10
-0.121638154639628
20
-0.494997457064867
42
0.0
10
-0.206411341184202
20
-0.494997457064867
42
0.0
10
-0.217779393019681
20
-0.485903015596484
42
0.0
10
-0.217779393019681
20
-0.34964879431124
42
0.0
10
-0.383752949817675
20
-0.34964879431124
42
0.0
10
-0.383752949817675
20
-0.485903015596484
42
0.0
10
-0.395121001653157
20
-0.494997457064867
42
0.0
10
-0.482167798564829
20
-0.494997457064867
42
0.0
10
-0.493373449659798
20
-0.485903015596484
42
0.0
97
0
92
7
72
1
73
1
93
60
10
-0.0901324109812993
20
-0.123586963525711
42
0.0
10
-0.0787643591458203
20
-0.114654922797834
42
0.0
10
0.0082824377658444
20
-0.114654922797834
42
0.0
10
0.0103936473924353
20
-0.115791727981381
42
0.0
10
0.0138040629430822
20
-0.119202143532026
42
0.0
10
0.018513684417778
20
-0.124723768709258
42
0.0
10
0.0243601110760263
20
-0.132681404994095
42
0.0
10
0.0315057436583235
20
-0.142750250905522
42
0.0
10
0.0397881814241732
20
-0.154930306443531
42
0.0
10
0.0493698251140931
20
-0.169546373089143
42
0.0
10
0.060250674728044
20
-0.186273649361347
42
0.0
10
0.0722683295255475
20
-0.205274536000654
42
0.0
10
0.0857475909876211
20
-0.22654903300706
42
0.0
10
0.10020125689257
20
-0.249934739639893
42
0.0
10
0.116116529462422
20
-0.275756457380617
42
0.0
10
0.1331686072156
20
-0.303689384747813
42
0.0
10
0.148984409331726
20
-0.329833873960148
42
0.0
10
0.151195089411869
20
-0.325613484716228
42
0.0
10
0.154443104222002
20
-0.319929458798488
42
0.0
10
0.159152725696702
20
-0.31197182251367
42
0.0
10
0.165323953835967
20
-0.30174057586172
42
0.0
10
0.172956788639786
20
-0.28907331810219
42
0.0
10
0.182051230108174
20
-0.274132449975556
42
0.0
10
0.192607278241107
20
-0.256755570741354
42
0.0
10
0.204624933038618
20
-0.237105081139954
42
0.0
10
0.218104194500713
20
-0.215180981171573
42
0.0
10
0.233045062627413
20
-0.190983270835928
42
0.0
10
0.249447537418517
20
-0.164349549392929
42
0.0
10
0.267311618874269
20
-0.135279816842203
42
0.0
10
0.2799788766338
20
-0.114654922797834
42
0.0
10
0.373846504646762
20
-0.114654922797834
42
0.0
10
0.384889755001224
20
-0.123749364266217
42
0.0
10
0.384889755001224
20
-0.485903015596484
42
0.0
10
0.373521703165745
20
-0.494997457064867
42
0.0
10
0.288748516621174
20
-0.494997457064867
42
0.0
10
0.277542865526195
20
-0.485903015596484
42
0.0
10
0.277542865526195
20
-0.291184527728775
42
0.0
10
0.267636420355286
20
-0.307262201038947
42
0.0
10
0.251396346304576
20
-0.333246319520063
42
0.0
10
0.237267481880506
20
-0.35565762171
42
0.0
10
0.224762624861475
20
-0.374983309830311
42
0.0
10
0.214206576728527
20
-0.390898582399976
42
0.0
10
0.20543693674116
20
-0.403403439419005
42
0.0
10
0.19861610563987
20
-0.412660281627895
42
0.0
10
0.193581682684156
20
-0.41866910902665
42
0.0
10
0.190130666948386
20
-0.421429921615266
42
0.0
10
0.106534885772492
20
-0.421429921615266
42
0.0
10
0.103449271702855
20
-0.419156311248171
42
0.0
10
0.0985772494876525
20
-0.413797086811443
42
0.0
10
0.0919188191268763
20
-0.405189847564581
42
0.0
10
0.0834739806205196
20
-0.393496994248085
42
0.0
10
0.073242733968586
20
-0.378393725380953
42
0.0
10
0.0612250791710753
20
-0.360367243184688
42
0.0
10
0.0474210162279878
20
-0.338930345437775
42
0.0
10
0.0318305451393339
20
-0.314407833621248
42
0.0
10
0.0172144784937256
20
-0.291022126988269
42
0.0
10
0.0172144784937256
20
-0.485903015596484
42
0.0
10
0.0060088273987535
20
-0.494997457064867
42
0.0
10
-0.0787643591458203
20
-0.494997457064867
42
0.0
10
-0.0901324109812993
20
-0.485903015596484
42
0.0
97
0
92
7
72
1
73
1
93
8
10
0.409412266817759
20
-0.123586963525711
42
0.0
10
0.420617917912734
20
-0.114654922797834
42
0.0
10
0.50311749409021
20
-0.114654922797834
42
0.0
10
0.514160744444668
20
-0.123749364266217
42
0.0
10
0.514160744444668
20
-0.485903015596484
42
0.0
10
0.502792692609189
20
-0.494997457064867
42
0.0
10
0.420617917912734
20
-0.494997457064867
42
0.0
10
0.409412266817759
20
-0.485903015596484
42
0.0
97
0
75
1
76
1
52
0.0
41
0.004763286
77
0
78
1
53
45.0
43
-1.82635398809821
44
-2.10343678291998
45
-0.0004210189789164
46
0.0004210189789164
79
0
47
0.0
98
1
10
0.0
20
0.0
1001
GradientColor1ACI
1070
5
1001
GradientColor2ACI
1070
2
1001
ACAD
1010
0.0
1020
0.0
1030
0.0
0
LINE
5
D9A
330
D97
100
AcDbEntity
8
TITLEBLOCK
62
154
6
ByLayer
370
0
48
1.0
60
0
100
AcDbLine
10
1.01971424964248
20
-0.0430361962343136
30
0.0
11
1.01435502520576
21
-0.0215992984874098
31
0.0
39
0.0
210
0.0
220
0.0
230
1.0
0
LINE
5
D9B
330
D97
100
AcDbEntity
8
TITLEBLOCK
62
154
6
ByLayer
370
0
48
1.0
60
0
100
AcDbLine
10
1.01435502520576
20
-0.0215992984874098
30
0.0
11
0.998926954857611
21
-0.0058464266582459
31
0.0
39
0.0
210
0.0
220
0.0
230
1.0
0
LINE
5
D9C
330
D97
100
AcDbEntity
8
TITLEBLOCK
62
154
6
ByLayer
370
0
48
1.0
60
0
100
AcDbLine
10
0.998926954857611
20
-0.0058464266582459
30
0.0
11
0.977490057110705
21
0.0
31
0.0
39
0.0
210
0.0
220
0.0
230
1.0
0
LINE
5
D9D
330
D97
100
AcDbEntity
8
TITLEBLOCK
62
154
6
ByLayer
370
0
48
1.0
60
0
100
AcDbLine
10
0.977490057110705
20
0.0
30
0.0
11
-0.977490057110705
21
0.0
31
0.0
39
0.0
210
0.0
220
0.0
230
1.0
0
LINE
5
D9E
330
D97
100
AcDbEntity
8
TITLEBLOCK
62
154
6
ByLayer
370
0
48
1.0
60
0
100
AcDbLine
10
-1.01955184890198
20
-0.0422241925317799
30
0.0
11
-1.01955184890198
21
-0.568727393254975
31
0.0
39
0.0
210
0.0
220
0.0
230
1.0
0
LINE
5
D9F
330
D97
100
AcDbEntity
8
TITLEBLOCK
62
154
6
ByLayer
370
0
48
1.0
60
0
100
AcDbLine
10
-0.977490057110705
20
-0.610789185046248
30
0.0
11
0.977490057110705
21
-0.610789185046248
31
0.0
39
0.0
210
0.0
220
0.0
230
1.0
0
LINE
5
DA0
330
D97
100
AcDbEntity
8
TITLEBLOCK
62
154
6
ByLayer
370
0
48
1.0
60
0
100
AcDbLine
10
1.01971424964248
20
-0.568727393254975
30
0.0
11
1.01971424964248
21
-0.0422241925317799
31
0.0
39
0.0
210
0.0
220
0.0
230
1.0
0
LINE
5
DA1
330
D97
100
AcDbEntity
8
TITLEBLOCK
62
154
6
ByLayer
370
0
48
1.0
60
0
100
AcDbLine
10
-0.977490057110705
20
0.0
30
0.0
11
-0.998764554117104
21
-0.0058464266582459
31
0.0
39
0.0
210
0.0
220
0.0
230
1.0
0
LINE
5
DA2
330
D97
100
AcDbEntity
8
TITLEBLOCK
62
154
6
ByLayer
370
0
48
1.0
60
0
100
AcDbLine
10
-0.998764554117104
20
-0.0058464266582459
30
0.0
11
-1.01419262446525
21
-0.0215992984874098
31
0.0
39
0.0
210
0.0
220
0.0
230
1.0
0
LINE
5
DA3
330
D97
100
AcDbEntity
8
TITLEBLOCK
62
154
6
ByLayer
370
0
48
1.0
60
0
100
AcDbLine
10
-1.01419262446525
20
-0.0215992984874098
30
0.0
11
-1.01955184890198
21
-0.0430361962343136
31
0.0
39
0.0
210
0.0
220
0.0
230
1.0
0
LINE
5
DA4
330
D97
100
AcDbEntity
8
TITLEBLOCK
62
154
6
ByLayer
370
0
48
1.0
60
0
100
AcDbLine
10
0.977490057110705
20
-0.610789185046248
30
0.0
11
0.998926954857611
21
-0.604942758388001
31
0.0
39
0.0
210
0.0
220
0.0
230
1.0
0
LINE
5
DA5
330
D97
100
AcDbEntity
8
TITLEBLOCK
62
154
6
ByLayer
370
0
48
1.0
60
0
100
AcDbLine
10
0.998926954857611
20
-0.604942758388001
30
0.0
11
1.01435502520576
21
-0.589189886558837
31
0.0
39
0.0
210
0.0
220
0.0
230
1.0
0
LINE
5
DA6
330
D97
100
AcDbEntity
8
TITLEBLOCK
62
154
6
ByLayer
370
0
48
1.0
60
0
100
AcDbLine
10
1.01435502520576
20
-0.589189886558837
30
0.0
11
1.01971424964248
21
-0.567752988811934
31
0.0
39
0.0
210
0.0
220
0.0
230
1.0
0
LINE
5
DA7
330
D97
100
AcDbEntity
8
TITLEBLOCK
62
154
6
ByLayer
370
0
48
1.0
60
0
100
AcDbLine
10
0.977490057110705
20
-0.610789185046248
30
0.0
11
-0.977490057110705
21
-0.610789185046248
31
0.0
39
0.0
210
0.0
220
0.0
230
1.0
0
LINE
5
DA8
330
D97
100
AcDbEntity
8
TITLEBLOCK
62
154
6
ByLayer
370
0
48
1.0
60
0
100
AcDbLine
10
-1.01955184890198
20
-0.567752988811933
30
0.0
11
-1.01419262446525
21
-0.589189886558836
31
0.0
39
0.0
210
0.0
220
0.0
230
1.0
0
LINE
5
DA9
330
D97
100
AcDbEntity
8
TITLEBLOCK
62
154
6
ByLayer
370
0
48
1.0
60
0
100
AcDbLine
10
-1.01419262446525
20
-0.589189886558836
30
0.0
11
-0.998764554117104
21
-0.604942758388
31
0.0
39
0.0
210
0.0
220
0.0
230
1.0
0
LINE
5
DAA
330
D97
100
AcDbEntity
8
TITLEBLOCK
62
154
6
ByLayer
370
0
48
1.0
60
0
100
AcDbLine
10
-0.998764554117104
20
-0.604942758388
30
0.0
11
-0.977490057110705
21
-0.610789185046247
31
0.0
39
0.0
210
0.0
220
0.0
230
1.0
0
LINE
5
DAB
330
D97
100
AcDbEntity
8
TITLEBLOCK
62
154
6
ByLayer
370
0
48
1.0
60
0
100
AcDbLine
10
0.700759195287043
20
-0.0907820139433266
30
0.0
11
0.694587967147781
21
-0.0760035465572038
31
0.0
39
0.0
210
0.0
220
0.0
230
1.0
0
LINE
5
DAC
330
D97
100
AcDbEntity
8
TITLEBLOCK
62
154
6
ByLayer
370
0
48
1.0
60
0
100
AcDbLine
10
0.694587967147781
20
-0.0760035465572038
30
0.0
11
0.679809499761658
21
-0.0698323184179435
31
0.0
39
0.0
210
0.0
220
0.0
230
1.0
0
LINE
5
DAD
330
D97
100
AcDbEntity
8
TITLEBLOCK
62
154
6
ByLayer
370
0
48
1.0
60
0
100
AcDbLine
10
-0.668116646445169
20
-0.0698323184179435
30
0.0
11
0.679809499761658
21
-0.0698323184179435
31
0.0
39
0.0
210
0.0
220
0.0
230
1.0
0
LINE
5
DAE
330
D97
100
AcDbEntity
8
TITLEBLOCK
62
154
6
ByLayer
370
0
48
1.0
60
0
100
AcDbLine
10
0.700759195287043
20
-0.0907820139433266
30
0.0
11
0.700759195287043
21
-0.513673542223154
31
0.0
39
0.0
210
0.0
220
0.0
230
1.0
0
LINE
5
DAF
330
D97
100
AcDbEntity
8
TITLEBLOCK
62
154
6
ByLayer
370
0
48
1.0
60
0
100
AcDbLine
10
0.679809499761658
20
-0.534785638489044
30
0.0
11
-0.668116646445169
21
-0.534785638489044
31
0.0
39
0.0
210
0.0
220
0.0
230
1.0
0
LINE
5
DB0
330
D97
100
AcDbEntity
8
TITLEBLOCK
62
154
6
ByLayer
370
0
48
1.0
60
0
100
AcDbLine
10
-0.689228742711057
20
-0.513673542223154
30
0.0
11
-0.689228742711057
21
-0.0907820139433266
31
0.0
39
0.0
210
0.0
220
0.0
230
1.0
0
LINE
5
DB1
330
D97
100
AcDbEntity
8
TITLEBLOCK
62
154
6
ByLayer
370
0
48
1.0
60
0
100
AcDbLine
10
-0.668116646445169
20
-0.0698323184179435
30
0.0
11
-0.683057514571795
21
-0.0760035465572038
31
0.0
39
0.0
210
0.0
220
0.0
230
1.0
0
LINE
5
DB2
330
D97
100
AcDbEntity
8
TITLEBLOCK
62
154
6
ByLayer
370
0
48
1.0
60
0
100
AcDbLine
10
-0.683057514571795
20
-0.0760035465572038
30
0.0
11
-0.689228742711057
21
-0.0907820139433266
31
0.0
39
0.0
210
0.0
220
0.0
230
1.0
0
LINE
5
DB3
330
D97
100
AcDbEntity
8
TITLEBLOCK
62
154
6
ByLayer
370
0
48
1.0
60
0
100
AcDbLine
10
-0.683057514571795
20
-0.528614410349784
30
0.0
11
-0.668116646445169
21
-0.534785638489044
31
0.0
39
0.0
210
0.0
220
0.0
230
1.0
0
LINE
5
DB4
330
D97
100
AcDbEntity
8
TITLEBLOCK
62
154
6
ByLayer
370
0
48
1.0
60
0
100
AcDbLine
10
0.694587967147781
20
-0.528614410349784
30
0.0
11
0.700759195287043
21
-0.513673542223154
31
0.0
39
0.0
210
0.0
220
0.0
230
1.0
0
LINE
5
DB5
330
D97
100
AcDbEntity
8
TITLEBLOCK
62
154
6
ByLayer
370
0
48
1.0
60
0
100
AcDbLine
10
0.679809499761658
20
-0.534785638489044
30
0.0
11
0.694587967147781
21
-0.528614410349784
31
0.0
39
0.0
210
0.0
220
0.0
230
1.0
0
LINE
5
DB6
330
D97
100
AcDbEntity
8
TITLEBLOCK
62
154
6
ByLayer
370
0
48
1.0
60
0
100
AcDbLine
10
-0.689228742711057
20
-0.513673542223154
30
0.0
11
-0.683057514571795
21
-0.528614410349784
31
0.0
39
0.0
210
0.0
220
0.0
230
1.0
0
HATCH
5
DB7
330
D97
100
AcDbEntity
8
TITLEBLOCK
62
154
6
ByLayer
370
-1
48
1.0
60
0
100
AcDbHatch
10
0.0
20
0.0
30
0.0
210
0.0
220
0.0
230
1.0
2
SOLID
70
1
71
1
91
3
92
7
72
1
73
1
93
20
10
-0.143185618084557
20
-0.123749364266216
42
0.0
10
-0.154066467698511
20
-0.114654922797833
42
0.0
10
-0.239164455724103
20
-0.114654922797833
42
0.0
10
-0.250532507559582
20
-0.123262162044695
42
0.0
10
-0.250532507559582
20
-0.261952394437542
42
0.0
10
-0.416506064357575
20
-0.261952394437542
42
0.0
10
-0.416506064357575
20
-0.123749364266216
42
0.0
10
-0.427549314712044
20
-0.114654922797833
42
0.0
10
-0.51492091310473
20
-0.114654922797833
42
0.0
10
-0.526126564199698
20
-0.123586963525709
42
0.0
10
-0.526126564199698
20
-0.485903015596483
42
0.0
10
-0.51492091310473
20
-0.494997457064867
42
0.0
10
-0.427874116193058
20
-0.494997457064867
42
0.0
10
-0.416506064357575
20
-0.485903015596483
42
0.0
10
-0.416506064357575
20
-0.349648794311239
42
0.0
10
-0.250532507559582
20
-0.349648794311239
42
0.0
10
-0.250532507559582
20
-0.485903015596483
42
0.0
10
-0.239164455724103
20
-0.494997457064867
42
0.0
10
-0.154391269179529
20
-0.494997457064867
42
0.0
10
-0.143185618084557
20
-0.485903015596483
42
0.0
97
20
330
DCB
330
DC2
330
DC3
330
DC4
330
DC5
330
DC0
330
DC1
330
DB8
330
DB9
330
DBA
330
DBB
330
DBC
330
DBD
330
DBE
330
DBF
330
DC6
330
DC7
330
DC8
330
DC9
330
DCA
92
7
72
1
73
1
93
62
10
0.0172144784937256
20
-0.291022126988267
42
0.0
10
0.0318305451393367
20
-0.314407833621251
42
0.0
10
0.0474210162280041
20
-0.338930345437795
42
0.0
10
0.0612250791710765
20
-0.360367243184687
42
0.0
10
0.0732427339685841
20
-0.378393725380946
42
0.0
10
0.0834739806205202
20
-0.393496994248088
42
0.0
10
0.0919188191268768
20
-0.40518984756458
42
0.0
10
0.0985772494876526
20
-0.413797086811443
42
0.0
10
0.103449271702855
20
-0.41915631124817
42
0.0
10
0.106534885772492
20
-0.421429921615265
42
0.0
10
0.189846465652503
20
-0.421429921615265
42
0.0
10
0.190333667874024
20
-0.421267520874758
42
0.0
10
0.193581682684156
20
-0.418669109026649
42
0.0
10
0.19861610563987
20
-0.412660281627895
42
0.0
10
0.205436936741161
20
-0.403403439419006
42
0.0
10
0.214206576728525
20
-0.390898582399979
42
0.0
10
0.224762624861476
20
-0.374983309830311
42
0.0
10
0.2372674818805
20
-0.355657621709995
42
0.0
10
0.251396346304593
20
-0.333246319520057
42
0.0
10
0.267636420355291
20
-0.30726220103895
42
0.0
10
0.277542865526195
20
-0.291184527728775
42
0.0
10
0.277542865526195
20
-0.485903015596483
42
0.0
10
0.288748516621174
20
-0.494997457064867
42
0.0
10
0.373521703165745
20
-0.494997457064867
42
0.0
10
0.384889755001224
20
-0.485903015596483
42
0.0
10
0.384889755001224
20
-0.123749364266216
42
0.0
10
0.373846504646762
20
-0.114654922797833
42
0.0
10
0.2799788766338
20
-0.114654922797833
42
0.0
10
0.267311618874269
20
-0.135279816842202
42
0.0
10
0.249447537418517
20
-0.164349549392928
42
0.0
10
0.233045062627349
20
-0.190983270836025
42
0.0
10
0.218104194500706
20
-0.215180981171555
42
0.0
10
0.204624933038633
20
-0.237105081140007
42
0.0
10
0.192607278241127
20
-0.256755570741313
42
0.0
10
0.182051230108174
20
-0.274132449975555
42
0.0
10
0.172956788639777
20
-0.289073318102195
42
0.0
10
0.165323953835967
20
-0.301740575861719
42
0.0
10
0.159152725696707
20
-0.311971822513657
42
0.0
10
0.154443104222009
20
-0.319929458798486
42
0.0
10
0.151195089411873
20
-0.325613484716225
42
0.0
10
0.149408681266293
20
-0.32902390026687
42
0.0
10
0.149083879785286
20
-0.329998304709911
42
0.0
10
0.133168607215613
20
-0.303689384747811
42
0.0
10
0.116116529462384
20
-0.275756457380617
42
0.0
10
0.10020125689272
20
-0.24993473964004
42
0.0
10
0.0857475909876126
20
-0.226549033007044
42
0.0
10
0.0722683295255475
20
-0.205274536000653
42
0.0
10
0.0602506747280428
20
-0.186273649361354
42
0.0
10
0.0493698251140853
20
-0.169546373089137
42
0.0
10
0.0397881814241787
20
-0.154930306443533
42
0.0
10
0.031505743658326
20
-0.142750250905517
42
0.0
10
0.0243601110760252
20
-0.132681404994091
42
0.0
10
0.0185136844177786
20
-0.124723768709257
42
0.0
10
0.0138040629430827
20
-0.119202143532025
42
0.0
10
0.0103936473924352
20
-0.115791727981381
42
0.0
10
0.0082824377658444
20
-0.114654922797833
42
0.0
10
-0.0787643591458203
20
-0.114654922797833
42
0.0
10
-0.0901324109812994
20
-0.123586963525709
42
0.0
10
-0.0901324109812993
20
-0.485903015596483
42
0.0
10
-0.0787643591458203
20
-0.494997457064867
42
0.0
10
0.0060088273987535
20
-0.494997457064867
42
0.0
10
0.0172144784937256
20
-0.485903015596483
42
0.0
97
62
330
DD4
330
DD5
330
DD6
330
DD7
330
DD8
330
DD9
330
DDA
330
DDB
330
DDC
330
DDD
330
DDE
330
DDF
330
DE0
330
DE1
330
DE2
330
DE3
330
DE4
330
DE5
330
DD2
330
DD3
330
DF1
330
DF2
330
DF3
330
DF4
330
DF5
330
DF6
330
DE8
330
DE9
330
DEA
330
DEB
330
DEC
330
DED
330
DEE
330
DEF
330
DF0
330
DCC
330
DCE
330
DCD
330
DD0
330
DD1
330
DCF
330
DE6
330
DE7
330
DFE
330
DFF
330
E00
330
E01
330
E02
330
E03
330
E04
330
E05
330
E07
330
E0D
330
E06
330
E0B
330
DF7
330
DF8
330
DF9
330
DFA
330
DFB
330
DFC
330
DFD
92
7
72
1
73
1
93
8
10
0.442165381357659
20
-0.485903015596483
42
0.0
10
0.453371032452635
20
-0.494997457064867
42
0.0
10
0.53554580714909
20
-0.494997457064867
42
0.0
10
0.546913858984569
20
-0.485903015596483
42
0.0
10
0.546913858984569
20
-0.123749364266216
42
0.0
10
0.535870608630111
20
-0.114654922797833
42
0.0
10
0.453371032452635
20
-0.114654922797833
42
0.0
10
0.442165381357659
20
-0.123586963525709
42
0.0
97
8
330
E0F
330
E08
330
E14
330
E13
330
E11
330
E10
330
E0C
330
E0A
75
1
76
1
47
0.0
98
1
10
0.0
20
0.0
1001
GradientColor1ACI
1070
5
1001
GradientColor2ACI
1070
2
1001
ACAD
1010
0.0
1020
0.0
1030
0.0
0
LINE
5
DB8
102
{ACAD_REACTORS
330
DB7
102
}
330
D97
100
AcDbEntity
8
TITLEBLOCK
62
154
6
ByLayer
370
0
48
1.0
60
0
100
AcDbLine
10
-0.427549314712044
20
-0.114654922797833
30
0.0
11
-0.51492091310473
21
-0.114654922797833
31
0.0
39
0.0
210
0.0
220
0.0
230
1.0
0
LINE
5
DB9
102
{ACAD_REACTORS
330
DB7
102
}
330
D97
100
AcDbEntity
8
TITLEBLOCK
62
154
6
ByLayer
370
0
48
1.0
60
0
100
AcDbLine
10
-0.51492091310473
20
-0.114654922797833
30
0.0
11
-0.526126564199698
21
-0.123586963525709
31
0.0
39
0.0
210
0.0
220
0.0
230
1.0
0
LINE
5
DBA
102
{ACAD_REACTORS
330
DB7
102
}
330
D97
100
AcDbEntity
8
TITLEBLOCK
62
154
6
ByLayer
370
0
48
1.0
60
0
100
AcDbLine
10
-0.526126564199698
20
-0.123586963525709
30
0.0
11
-0.526126564199698
21
-0.485903015596483
31
0.0
39
0.0
210
0.0
220
0.0
230
1.0
0
LINE
5
DBB
102
{ACAD_REACTORS
330
DB7
102
}
330
D97
100
AcDbEntity
8
TITLEBLOCK
62
154
6
ByLayer
370
0
48
1.0
60
0
100
AcDbLine
10
-0.526126564199698
20
-0.485903015596483
30
0.0
11
-0.51492091310473
21
-0.494997457064867
31
0.0
39
0.0
210
0.0
220
0.0
230
1.0
0
LINE
5
DBC
102
{ACAD_REACTORS
330
DB7
102
}
330
D97
100
AcDbEntity
8
TITLEBLOCK
62
154
6
ByLayer
370
0
48
1.0
60
0
100
AcDbLine
10
-0.51492091310473
20
-0.494997457064867
30
0.0
11
-0.427874116193058
21
-0.494997457064867
31
0.0
39
0.0
210
0.0
220
0.0
230
1.0
0
LINE
5
DBD
102
{ACAD_REACTORS
330
DB7
102
}
330
D97
100
AcDbEntity
8
TITLEBLOCK
62
154
6
ByLayer
370
0
48
1.0
60
0
100
AcDbLine
10
-0.427874116193058
20
-0.494997457064867
30
0.0
11
-0.416506064357575
21
-0.485903015596483
31
0.0
39
0.0
210
0.0
220
0.0
230
1.0
0
LINE
5
DBE
102
{ACAD_REACTORS
330
DB7
102
}
330
D97
100
AcDbEntity
8
TITLEBLOCK
62
154
6
ByLayer
370
0
48
1.0
60
0
100
AcDbLine
10
-0.416506064357575
20
-0.485903015596483
30
0.0
11
-0.416506064357575
21
-0.349648794311239
31
0.0
39
0.0
210
0.0
220
0.0
230
1.0
0
LINE
5
DBF
102
{ACAD_REACTORS
330
DB7
102
}
330
D97
100
AcDbEntity
8
TITLEBLOCK
62
154
6
ByLayer
370
0
48
1.0
60
0
100
AcDbLine
10
-0.416506064357575
20
-0.349648794311239
30
0.0
11
-0.250532507559582
21
-0.349648794311239
31
0.0
39
0.0
210
0.0
220
0.0
230
1.0
0
LINE
5
DC0
102
{ACAD_REACTORS
330
DB7
102
}
330
D97
100
AcDbEntity
8
TITLEBLOCK
62
154
6
ByLayer
370
0
48
1.0
60
0
100
AcDbLine
10
-0.416506064357575
20
-0.261952394437542
30
0.0
11
-0.416506064357575
21
-0.123749364266216
31
0.0
39
0.0
210
0.0
220
0.0
230
1.0
0
LINE
5
DC1
102
{ACAD_REACTORS
330
DB7
102
}
330
D97
100
AcDbEntity
8
TITLEBLOCK
62
154
6
ByLayer
370
0
48
1.0
60
0
100
AcDbLine
10
-0.416506064357575
20
-0.123749364266216
30
0.0
11
-0.427549314712044
21
-0.114654922797833
31
0.0
39
0.0
210
0.0
220
0.0
230
1.0
0
LINE
5
DC2
102
{ACAD_REACTORS
330
DB7
102
}
330
D97
100
AcDbEntity
8
TITLEBLOCK
62
154
6
ByLayer
370
0
48
1.0
60
0
100
AcDbLine
10
-0.154066467698511
20
-0.114654922797833
30
0.0
11
-0.239164455724103
21
-0.114654922797833
31
0.0
39
0.0
210
0.0
220
0.0
230
1.0
0
LINE
5
DC3
102
{ACAD_REACTORS
330
DB7
102
}
330
D97
100
AcDbEntity
8
TITLEBLOCK
62
154
6
ByLayer
370
0
48
1.0
60
0
100
AcDbLine
10
-0.239164455724103
20
-0.114654922797833
30
0.0
11
-0.250532507559582
21
-0.123262162044695
31
0.0
39
0.0
210
0.0
220
0.0
230
1.0
0
LINE
5
DC4
102
{ACAD_REACTORS
330
DB7
102
}
330
D97
100
AcDbEntity
8
TITLEBLOCK
62
154
6
ByLayer
370
0
48
1.0
60
0
100
AcDbLine
10
-0.250532507559582
20
-0.123262162044695
30
0.0
11
-0.250532507559582
21
-0.261952394437542
31
0.0
39
0.0
210
0.0
220
0.0
230
1.0
0
LINE
5
DC5
102
{ACAD_REACTORS
330
DB7
102
}
330
D97
100
AcDbEntity
8
TITLEBLOCK
62
154
6
ByLayer
370
0
48
1.0
60
0
100
AcDbLine
10
-0.250532507559582
20
-0.261952394437542
30
0.0
11
-0.416506064357575
21
-0.261952394437542
31
0.0
39
0.0
210
0.0
220
0.0
230
1.0
0
LINE
5
DC6
102
{ACAD_REACTORS
330
DB7
102
}
330
D97
100
AcDbEntity
8
TITLEBLOCK
62
154
6
ByLayer
370
0
48
1.0
60
0
100
AcDbLine
10
-0.250532507559582
20
-0.349648794311239
30
0.0
11
-0.250532507559582
21
-0.485903015596483
31
0.0
39
0.0
210
0.0
220
0.0
230
1.0
0
LINE
5
DC7
102
{ACAD_REACTORS
330
DB7
102
}
330
D97
100
AcDbEntity
8
TITLEBLOCK
62
154
6
ByLayer
370
0
48
1.0
60
0
100
AcDbLine
10
-0.250532507559582
20
-0.485903015596483
30
0.0
11
-0.239164455724103
21
-0.494997457064867
31
0.0
39
0.0
210
0.0
220
0.0
230
1.0
0
LINE
5
DC8
102
{ACAD_REACTORS
330
DB7
102
}
330
D97
100
AcDbEntity
8
TITLEBLOCK
62
154
6
ByLayer
370
0
48
1.0
60
0
100
AcDbLine
10
-0.239164455724103
20
-0.494997457064867
30
0.0
11
-0.154391269179529
21
-0.494997457064867
31
0.0
39
0.0
210
0.0
220
0.0
230
1.0
0
LINE
5
DC9
102
{ACAD_REACTORS
330
DB7
102
}
330
D97
100
AcDbEntity
8
TITLEBLOCK
62
154
6
ByLayer
370
0
48
1.0
60
0
100
AcDbLine
10
-0.154391269179529
20
-0.494997457064867
30
0.0
11
-0.143185618084557
21
-0.485903015596483
31
0.0
39
0.0
210
0.0
220
0.0
230
1.0
0
LINE
5
DCA
102
{ACAD_REACTORS
330
DB7
102
}
330
D97
100
AcDbEntity
8
TITLEBLOCK
62
154
6
ByLayer
370
0
48
1.0
60
0
100
AcDbLine
10
-0.143185618084557
20
-0.485903015596483
30
0.0
11
-0.143185618084557
21
-0.123749364266216
31
0.0
39
0.0
210
0.0
220
0.0
230
1.0
0
LINE
5
DCB
102
{ACAD_REACTORS
330
DB7
102
}
330
D97
100
AcDbEntity
8
TITLEBLOCK
62
154
6
ByLayer
370
0
48
1.0
60
0
100
AcDbLine
10
-0.143185618084557
20
-0.123749364266216
30
0.0
11
-0.154066467698511
21
-0.114654922797833
31
0.0
39
0.0
210
0.0
220
0.0
230
1.0
0
LINE
5
DCC
102
{ACAD_REACTORS
330
DB7
102
}
330
D97
100
AcDbEntity
8
TITLEBLOCK
62
154
6
ByLayer
370
0
48
1.0
60
0
100
AcDbLine
10
0.172956788639789
20
-0.289073318102186
30
0.0
11
0.165323953835967
21
-0.301740575861719
31
0.0
39
0.0
210
0.0
220
0.0
230
1.0
0
LINE
5
DCD
102
{ACAD_REACTORS
330
DB7
102
}
330
D97
100
AcDbEntity
8
TITLEBLOCK
62
154
6
ByLayer
370
0
48
1.0
60
0
100
AcDbLine
10
0.159152725696709
20
-0.311971822513651
30
0.0
11
0.154443104222009
21
-0.319929458798486
31
0.0
39
0.0
210
0.0
220
0.0
230
1.0
0
LINE
5
DCE
102
{ACAD_REACTORS
330
DB7
102
}
330
D97
100
AcDbEntity
8
TITLEBLOCK
62
154
6
ByLayer
370
0
48
1.0
60
0
100
AcDbLine
10
0.165323953835967
20
-0.301740575861719
30
0.0
11
0.159152725696709
21
-0.311971822513651
31
0.0
39
0.0
210
0.0
220
0.0
230
1.0
0
LINE
5
DCF
102
{ACAD_REACTORS
330
DB7
102
}
330
D97
100
AcDbEntity
8
TITLEBLOCK
62
154
6
ByLayer
370
0
48
1.0
60
0
100
AcDbLine
10
0.149408681266293
20
-0.32902390026687
30
0.0
11
0.149083879785286
21
-0.329998304709911
31
0.0
39
0.0
210
0.0
220
0.0
230
1.0
0
LINE
5
DD0
102
{ACAD_REACTORS
330
DB7
102
}
330
D97
100
AcDbEntity
8
TITLEBLOCK
62
154
6
ByLayer
370
0
48
1.0
60
0
100
AcDbLine
10
0.154443104222009
20
-0.319929458798486
30
0.0
11
0.151195089411873
21
-0.325613484716226
31
0.0
39
0.0
210
0.0
220
0.0
230
1.0
0
LINE
5
DD1
102
{ACAD_REACTORS
330
DB7
102
}
330
D97
100
AcDbEntity
8
TITLEBLOCK
62
154
6
ByLayer
370
0
48
1.0
60
0
100
AcDbLine
10
0.151195089411873
20
-0.325613484716226
30
0.0
11
0.149408681266293
21
-0.32902390026687
31
0.0
39
0.0
210
0.0
220
0.0
230
1.0
0
LINE
5
DD2
102
{ACAD_REACTORS
330
DB7
102
}
330
D97
100
AcDbEntity
8
TITLEBLOCK
62
154
6
ByLayer
370
0
48
1.0
60
0
100
AcDbLine
10
0.251396346304597
20
-0.333246319520048
30
0.0
11
0.267636420355283
21
-0.307262201038952
31
0.0
39
0.0
210
0.0
220
0.0
230
1.0
0
LINE
5
DD3
102
{ACAD_REACTORS
330
DB7
102
}
330
D97
100
AcDbEntity
8
TITLEBLOCK
62
154
6
ByLayer
370
0
48
1.0
60
0
100
AcDbLine
10
0.267636420355283
20
-0.307262201038952
30
0.0
11
0.277542865526195
21
-0.291184527728775
31
0.0
39
0.0
210
0.0
220
0.0
230
1.0
0
LINE
5
DD4
102
{ACAD_REACTORS
330
DB7
102
}
330
D97
100
AcDbEntity
8
TITLEBLOCK
62
154
6
ByLayer
370
0
48
1.0
60
0
100
AcDbLine
10
0.0172144784937256
20
-0.291022126988267
30
0.0
11
0.0318305451393375
21
-0.314407833621254
31
0.0
39
0.0
210
0.0
220
0.0
230
1.0
0
LINE
5
DD5
102
{ACAD_REACTORS
330
DB7
102
}
330
D97
100
AcDbEntity
8
TITLEBLOCK
62
154
6
ByLayer
370
0
48
1.0
60
0
100
AcDbLine
10
0.0318305451393375
20
-0.314407833621254
30
0.0
11
0.0474210162279984
21
-0.338930345437788
31
0.0
39
0.0
210
0.0
220
0.0
230
1.0
0
LINE
5
DD6
102
{ACAD_REACTORS
330
DB7
102
}
330
D97
100
AcDbEntity
8
TITLEBLOCK
62
154
6
ByLayer
370
0
48
1.0
60
0
100
AcDbLine
10
0.0474210162279984
20
-0.338930345437788
30
0.0
11
0.0612250791710789
21
-0.360367243184691
31
0.0
39
0.0
210
0.0
220
0.0
230
1.0
0
LINE
5
DD7
102
{ACAD_REACTORS
330
DB7
102
}
330
D97
100
AcDbEntity
8
TITLEBLOCK
62
154
6
ByLayer
370
0
48
1.0
60
0
100
AcDbLine
10
0.0612250791710789
20
-0.360367243184691
30
0.0
11
0.073242733968586
21
-0.37839372538095
31
0.0
39
0.0
210
0.0
220
0.0
230
1.0
0
LINE
5
DD8
102
{ACAD_REACTORS
330
DB7
102
}
330
D97
100
AcDbEntity
8
TITLEBLOCK
62
154
6
ByLayer
370
0
48
1.0
60
0
100
AcDbLine
10
0.073242733968586
20
-0.37839372538095
30
0.0
11
0.0834739806205196
21
-0.393496994248087
31
0.0
39
0.0
210
0.0
220
0.0
230
1.0
0
LINE
5
DD9
102
{ACAD_REACTORS
330
DB7
102
}
330
D97
100
AcDbEntity
8
TITLEBLOCK
62
154
6
ByLayer
370
0
48
1.0
60
0
100
AcDbLine
10
0.0834739806205196
20
-0.393496994248087
30
0.0
11
0.0919188191268763
21
-0.40518984756458
31
0.0
39
0.0
210
0.0
220
0.0
230
1.0
0
LINE
5
DDA
102
{ACAD_REACTORS
330
DB7
102
}
330
D97
100
AcDbEntity
8
TITLEBLOCK
62
154
6
ByLayer
370
0
48
1.0
60
0
100
AcDbLine
10
0.0919188191268763
20
-0.40518984756458
30
0.0
11
0.0985772494876525
21
-0.413797086811443
31
0.0
39
0.0
210
0.0
220
0.0
230
1.0
0
LINE
5
DDB
102
{ACAD_REACTORS
330
DB7
102
}
330
D97
100
AcDbEntity
8
TITLEBLOCK
62
154
6
ByLayer
370
0
48
1.0
60
0
100
AcDbLine
10
0.0985772494876525
20
-0.413797086811443
30
0.0
11
0.103449271702855
21
-0.41915631124817
31
0.0
39
0.0
210
0.0
220
0.0
230
1.0
0
LINE
5
DDC
102
{ACAD_REACTORS
330
DB7
102
}
330
D97
100
AcDbEntity
8
TITLEBLOCK
62
154
6
ByLayer
370
0
48
1.0
60
0
100
AcDbLine
10
0.103449271702855
20
-0.41915631124817
30
0.0
11
0.106534885772492
21
-0.421429921615265
31
0.0
39
0.0
210
0.0
220
0.0
230
1.0
0
LINE
5
DDD
102
{ACAD_REACTORS
330
DB7
102
}
330
D97
100
AcDbEntity
8
TITLEBLOCK
62
154
6
ByLayer
370
0
48
1.0
60
0
100
AcDbLine
10
0.106534885772492
20
-0.421429921615265
30
0.0
11
0.189846465652502
21
-0.421429921615265
31
0.0
39
0.0
210
0.0
220
0.0
230
1.0
0
LINE
5
DDE
102
{ACAD_REACTORS
330
DB7
102
}
330
D97
100
AcDbEntity
8
TITLEBLOCK
62
154
6
ByLayer
370
0
48
1.0
60
0
100
AcDbLine
10
0.189846465652502
20
-0.421429921615265
30
0.0
11
0.190333667874024
21
-0.421267520874758
31
0.0
39
0.0
210
0.0
220
0.0
230
1.0
0
LINE
5
DDF
102
{ACAD_REACTORS
330
DB7
102
}
330
D97
100
AcDbEntity
8
TITLEBLOCK
62
154
6
ByLayer
370
0
48
1.0
60
0
100
AcDbLine
10
0.190333667874024
20
-0.421267520874758
30
0.0
11
0.193581682684156
21
-0.418669109026649
31
0.0
39
0.0
210
0.0
220
0.0
230
1.0
0
LINE
5
DE0
102
{ACAD_REACTORS
330
DB7
102
}
330
D97
100
AcDbEntity
8
TITLEBLOCK
62
154
6
ByLayer
370
0
48
1.0
60
0
100
AcDbLine
10
0.193581682684156
20
-0.418669109026649
30
0.0
11
0.19861610563987
21
-0.412660281627895
31
0.0
39
0.0
210
0.0
220
0.0
230
1.0
0
LINE
5
DE1
102
{ACAD_REACTORS
330
DB7
102
}
330
D97
100
AcDbEntity
8
TITLEBLOCK
62
154
6
ByLayer
370
0
48
1.0
60
0
100
AcDbLine
10
0.19861610563987
20
-0.412660281627895
30
0.0
11
0.20543693674116
21
-0.403403439419005
31
0.0
39
0.0
210
0.0
220
0.0
230
1.0
0
LINE
5
DE2
102
{ACAD_REACTORS
330
DB7
102
}
330
D97
100
AcDbEntity
8
TITLEBLOCK
62
154
6
ByLayer
370
0
48
1.0
60
0
100
AcDbLine
10
0.20543693674116
20
-0.403403439419005
30
0.0
11
0.214206576728527
21
-0.390898582399978
31
0.0
39
0.0
210
0.0
220
0.0
230
1.0
0
LINE
5
DE3
102
{ACAD_REACTORS
330
DB7
102
}
330
D97
100
AcDbEntity
8
TITLEBLOCK
62
154
6
ByLayer
370
0
48
1.0
60
0
100
AcDbLine
10
0.214206576728527
20
-0.390898582399978
30
0.0
11
0.224762624861475
21
-0.374983309830307
31
0.0
39
0.0
210
0.0
220
0.0
230
1.0
0
LINE
5
DE4
102
{ACAD_REACTORS
330
DB7
102
}
330
D97
100
AcDbEntity
8
TITLEBLOCK
62
154
6
ByLayer
370
0
48
1.0
60
0
100
AcDbLine
10
0.224762624861475
20
-0.374983309830307
30
0.0
11
0.237267481880499
21
-0.355657621709993
31
0.0
39
0.0
210
0.0
220
0.0
230
1.0
0
LINE
5
DE5
102
{ACAD_REACTORS
330
DB7
102
}
330
D97
100
AcDbEntity
8
TITLEBLOCK
62
154
6
ByLayer
370
0
48
1.0
60
0
100
AcDbLine
10
0.237267481880499
20
-0.355657621709993
30
0.0
11
0.251396346304597
21
-0.333246319520048
31
0.0
39
0.0
210
0.0
220
0.0
230
1.0
0
LINE
5
DE6
102
{ACAD_REACTORS
330
DB7
102
}
330
D97
100
AcDbEntity
8
TITLEBLOCK
62
154
6
ByLayer
370
0
48
1.0
60
0
100
AcDbLine
10
0.149083879785286
20
-0.329998304709911
30
0.0
11
0.133168607215614
21
-0.303689384747801
31
0.0
39
0.0
210
0.0
220
0.0
230
1.0
0
LINE
5
DE7
102
{ACAD_REACTORS
330
DB7
102
}
330
D97
100
AcDbEntity
8
TITLEBLOCK
62
154
6
ByLayer
370
0
48
1.0
60
0
100
AcDbLine
10
0.133168607215614
20
-0.303689384747801
30
0.0
11
0.116116529462394
21
-0.275756457380624
31
0.0
39
0.0
210
0.0
220
0.0
230
1.0
0
LINE
5
DE8
102
{ACAD_REACTORS
330
DB7
102
}
330
D97
100
AcDbEntity
8
TITLEBLOCK
62
154
6
ByLayer
370
0
48
1.0
60
0
100
AcDbLine
10
0.373846504646762
20
-0.114654922797833
30
0.0
11
0.2799788766338
21
-0.114654922797833
31
0.0
39
0.0
210
0.0
220
0.0
230
1.0
0
LINE
5
DE9
102
{ACAD_REACTORS
330
DB7
102
}
330
D97
100
AcDbEntity
8
TITLEBLOCK
62
154
6
ByLayer
370
0
48
1.0
60
0
100
AcDbLine
10
0.2799788766338
20
-0.114654922797833
30
0.0
11
0.267311618874269
21
-0.135279816842202
31
0.0
39
0.0
210
0.0
220
0.0
230
1.0
0
LINE
5
DEA
102
{ACAD_REACTORS
330
DB7
102
}
330
D97
100
AcDbEntity
8
TITLEBLOCK
62
154
6
ByLayer
370
0
48
1.0
60
0
100
AcDbLine
10
0.267311618874269
20
-0.135279816842202
30
0.0
11
0.249447537418517
21
-0.164349549392928
31
0.0
39
0.0
210
0.0
220
0.0
230
1.0
0
LINE
5
DEB
102
{ACAD_REACTORS
330
DB7
102
}
330
D97
100
AcDbEntity
8
TITLEBLOCK
62
154
6
ByLayer
370
0
48
1.0
60
0
100
AcDbLine
10
0.249447537418517
20
-0.164349549392928
30
0.0
11
0.233045062627324
21
-0.19098327083605
31
0.0
39
0.0
210
0.0
220
0.0
230
1.0
0
LINE
5
DEC
102
{ACAD_REACTORS
330
DB7
102
}
330
D97
100
AcDbEntity
8
TITLEBLOCK
62
154
6
ByLayer
370
0
48
1.0
60
0
100
AcDbLine
10
0.233045062627324
20
-0.19098327083605
30
0.0
11
0.218104194500695
21
-0.215180981171571
31
0.0
39
0.0
210
0.0
220
0.0
230
1.0
0
LINE
5
DED
102
{ACAD_REACTORS
330
DB7
102
}
330
D97
100
AcDbEntity
8
TITLEBLOCK
62
154
6
ByLayer
370
0
48
1.0
60
0
100
AcDbLine
10
0.218104194500695
20
-0.215180981171571
30
0.0
11
0.204624933038628
21
-0.237105081139995
31
0.0
39
0.0
210
0.0
220
0.0
230
1.0
0
LINE
5
DEE
102
{ACAD_REACTORS
330
DB7
102
}
330
D97
100
AcDbEntity
8
TITLEBLOCK
62
154
6
ByLayer
370
0
48
1.0
60
0
100
AcDbLine
10
0.204624933038628
20
-0.237105081139995
30
0.0
11
0.192607278241118
21
-0.256755570741323
31
0.0
39
0.0
210
0.0
220
0.0
230
1.0
0
LINE
5
DEF
102
{ACAD_REACTORS
330
DB7
102
}
330
D97
100
AcDbEntity
8
TITLEBLOCK
62
154
6
ByLayer
370
0
48
1.0
60
0
100
AcDbLine
10
0.192607278241118
20
-0.256755570741323
30
0.0
11
0.182051230108174
21
-0.274132449975555
31
0.0
39
0.0
210
0.0
220
0.0
230
1.0
0
LINE
5
DF0
102
{ACAD_REACTORS
330
DB7
102
}
330
D97
100
AcDbEntity
8
TITLEBLOCK
62
154
6
ByLayer
370
0
48
1.0
60
0
100
AcDbLine
10
0.182051230108174
20
-0.274132449975555
30
0.0
11
0.172956788639789
21
-0.289073318102186
31
0.0
39
0.0
210
0.0
220
0.0
230
1.0
0
LINE
5
DF1
102
{ACAD_REACTORS
330
DB7
102
}
330
D97
100
AcDbEntity
8
TITLEBLOCK
62
154
6
ByLayer
370
0
48
1.0
60
0
100
AcDbLine
10
0.277542865526195
20
-0.291184527728775
30
0.0
11
0.277542865526195
21
-0.485903015596483
31
0.0
39
0.0
210
0.0
220
0.0
230
1.0
0
LINE
5
DF2
102
{ACAD_REACTORS
330
DB7
102
}
330
D97
100
AcDbEntity
8
TITLEBLOCK
62
154
6
ByLayer
370
0
48
1.0
60
0
100
AcDbLine
10
0.277542865526195
20
-0.485903015596483
30
0.0
11
0.288748516621174
21
-0.494997457064867
31
0.0
39
0.0
210
0.0
220
0.0
230
1.0
0
LINE
5
DF3
102
{ACAD_REACTORS
330
DB7
102
}
330
D97
100
AcDbEntity
8
TITLEBLOCK
62
154
6
ByLayer
370
0
48
1.0
60
0
100
AcDbLine
10
0.288748516621174
20
-0.494997457064867
30
0.0
11
0.373521703165745
21
-0.494997457064867
31
0.0
39
0.0
210
0.0
220
0.0
230
1.0
0
LINE
5
DF4
102
{ACAD_REACTORS
330
DB7
102
}
330
D97
100
AcDbEntity
8
TITLEBLOCK
62
154
6
ByLayer
370
0
48
1.0
60
0
100
AcDbLine
10
0.373521703165745
20
-0.494997457064867
30
0.0
11
0.384889755001224
21
-0.485903015596483
31
0.0
39
0.0
210
0.0
220
0.0
230
1.0
0
LINE
5
DF5
102
{ACAD_REACTORS
330
DB7
102
}
330
D97
100
AcDbEntity
8
TITLEBLOCK
62
154
6
ByLayer
370
0
48
1.0
60
0
100
AcDbLine
10
0.384889755001224
20
-0.485903015596483
30
0.0
11
0.384889755001224
21
-0.123749364266216
31
0.0
39
0.0
210
0.0
220
0.0
230
1.0
0
LINE
5
DF6
102
{ACAD_REACTORS
330
DB7
102
}
330
D97
100
AcDbEntity
8
TITLEBLOCK
62
154
6
ByLayer
370
0
48
1.0
60
0
100
AcDbLine
10
0.384889755001224
20
-0.123749364266216
30
0.0
11
0.373846504646762
21
-0.114654922797833
31
0.0
39
0.0
210
0.0
220
0.0
230
1.0
0
LINE
5
DF7
102
{ACAD_REACTORS
330
DB7
102
}
330
D97
100
AcDbEntity
8
TITLEBLOCK
62
154
6
ByLayer
370
0
48
1.0
60
0
100
AcDbLine
10
0.0082824377658444
20
-0.114654922797833
30
0.0
11
-0.0787643591458203
21
-0.114654922797833
31
0.0
39
0.0
210
0.0
220
0.0
230
1.0
0
LINE
5
DF8
102
{ACAD_REACTORS
330
DB7
102
}
330
D97
100
AcDbEntity
8
TITLEBLOCK
62
154
6
ByLayer
370
0
48
1.0
60
0
100
AcDbLine
10
-0.0787643591458203
20
-0.114654922797833
30
0.0
11
-0.0901324109812993
21
-0.123586963525709
31
0.0
39
0.0
210
0.0
220
0.0
230
1.0
0
LINE
5
DF9
102
{ACAD_REACTORS
330
DB7
102
}
330
D97
100
AcDbEntity
8
TITLEBLOCK
62
154
6
ByLayer
370
0
48
1.0
60
0
100
AcDbLine
10
-0.0901324109812993
20
-0.123586963525709
30
0.0
11
-0.0901324109812993
21
-0.485903015596483
31
0.0
39
0.0
210
0.0
220
0.0
230
1.0
0
LINE
5
DFA
102
{ACAD_REACTORS
330
DB7
102
}
330
D97
100
AcDbEntity
8
TITLEBLOCK
62
154
6
ByLayer
370
0
48
1.0
60
0
100
AcDbLine
10
-0.0901324109812993
20
-0.485903015596483
30
0.0
11
-0.0787643591458203
21
-0.494997457064867
31
0.0
39
0.0
210
0.0
220
0.0
230
1.0
0
LINE
5
DFB
102
{ACAD_REACTORS
330
DB7
102
}
330
D97
100
AcDbEntity
8
TITLEBLOCK
62
154
6
ByLayer
370
0
48
1.0
60
0
100
AcDbLine
10
-0.0787643591458203
20
-0.494997457064867
30
0.0
11
0.0060088273987535
21
-0.494997457064867
31
0.0
39
0.0
210
0.0
220
0.0
230
1.0
0
LINE
5
DFC
102
{ACAD_REACTORS
330
DB7
102
}
330
D97
100
AcDbEntity
8
TITLEBLOCK
62
154
6
ByLayer
370
0
48
1.0
60
0
100
AcDbLine
10
0.0060088273987535
20
-0.494997457064867
30
0.0
11
0.0172144784937256
21
-0.485903015596483
31
0.0
39
0.0
210
0.0
220
0.0
230
1.0
0
LINE
5
DFD
102
{ACAD_REACTORS
330
DB7
102
}
330
D97
100
AcDbEntity
8
TITLEBLOCK
62
154
6
ByLayer
370
0
48
1.0
60
0
100
AcDbLine
10
0.0172144784937256
20
-0.485903015596483
30
0.0
11
0.0172144784937256
21
-0.291022126988267
31
0.0
39
0.0
210
0.0
220
0.0
230
1.0
0
LINE
5
DFE
102
{ACAD_REACTORS
330
DB7
102
}
330
D97
100
AcDbEntity
8
TITLEBLOCK
62
154
6
ByLayer
370
0
48
1.0
60
0
100
AcDbLine
10
0.116116529462394
20
-0.275756457380624
30
0.0
11
0.100201256892722
21
-0.249934739640036
31
0.0
39
0.0
210
0.0
220
0.0
230
1.0
0
LINE
5
DFF
102
{ACAD_REACTORS
330
DB7
102
}
330
D97
100
AcDbEntity
8
TITLEBLOCK
62
154
6
ByLayer
370
0
48
1.0
60
0
100
AcDbLine
10
0.100201256892722
20
-0.249934739640036
30
0.0
11
0.085747590987614
21
-0.22654903300705
31
0.0
39
0.0
210
0.0
220
0.0
230
1.0
0
LINE
5
E00
102
{ACAD_REACTORS
330
DB7
102
}
330
D97
100
AcDbEntity
8
TITLEBLOCK
62
154
6
ByLayer
370
0
48
1.0
60
0
100
AcDbLine
10
0.085747590987614
20
-0.22654903300705
30
0.0
11
0.0722683295255475
21
-0.205274536000653
31
0.0
39
0.0
210
0.0
220
0.0
230
1.0
0
LINE
5
E01
102
{ACAD_REACTORS
330
DB7
102
}
330
D97
100
AcDbEntity
8
TITLEBLOCK
62
154
6
ByLayer
370
0
48
1.0
60
0
100
AcDbLine
10
0.0722683295255475
20
-0.205274536000653
30
0.0
11
0.0602506747280405
21
-0.186273649361352
31
0.0
39
0.0
210
0.0
220
0.0
230
1.0
0
LINE
5
E02
102
{ACAD_REACTORS
330
DB7
102
}
330
D97
100
AcDbEntity
8
TITLEBLOCK
62
154
6
ByLayer
370
0
48
1.0
60
0
100
AcDbLine
10
0.0602506747280405
20
-0.186273649361352
30
0.0
11
0.0493698251140824
21
-0.169546373089147
31
0.0
39
0.0
210
0.0
220
0.0
230
1.0
0
LINE
5
E03
102
{ACAD_REACTORS
330
DB7
102
}
330
D97
100
AcDbEntity
8
TITLEBLOCK
62
154
6
ByLayer
370
0
48
1.0
60
0
100
AcDbLine
10
0.0493698251140824
20
-0.169546373089147
30
0.0
11
0.0397881814241767
21
-0.154930306443531
31
0.0
39
0.0
210
0.0
220
0.0
230
1.0
0
LINE
5
E04
102
{ACAD_REACTORS
330
DB7
102
}
330
D97
100
AcDbEntity
8
TITLEBLOCK
62
154
6
ByLayer
370
0
48
1.0
60
0
100
AcDbLine
10
0.0397881814241767
20
-0.154930306443531
30
0.0
11
0.031505743658327
21
-0.142750250905517
31
0.0
39
0.0
210
0.0
220
0.0
230
1.0
0
LINE
5
E05
102
{ACAD_REACTORS
330
DB7
102
}
330
D97
100
AcDbEntity
8
TITLEBLOCK
62
154
6
ByLayer
370
0
48
1.0
60
0
100
AcDbLine
10
0.031505743658327
20
-0.142750250905517
30
0.0
11
0.0243601110760263
21
-0.132681404994092
31
0.0
39
0.0
210
0.0
220
0.0
230
1.0
0
LINE
5
E06
102
{ACAD_REACTORS
330
DB7
102
}
330
D97
100
AcDbEntity
8
TITLEBLOCK
62
154
6
ByLayer
370
0
48
1.0
60
0
100
AcDbLine
10
0.0138040629430822
20
-0.119202143532025
30
0.0
11
0.0103936473924353
21
-0.115791727981381
31
0.0
39
0.0
210
0.0
220
0.0
230
1.0
0
LINE
5
E07
102
{ACAD_REACTORS
330
DB7
102
}
330
D97
100
AcDbEntity
8
TITLEBLOCK
62
154
6
ByLayer
370
0
48
1.0
60
0
100
AcDbLine
10
0.0243601110760263
20
-0.132681404994092
30
0.0
11
0.018513684417778
21
-0.124723768709257
31
0.0
39
0.0
210
0.0
220
0.0
230
1.0
0
LINE
5
E08
102
{ACAD_REACTORS
330
DB7
102
}
330
D97
100
AcDbEntity
8
TITLEBLOCK
62
154
6
ByLayer
370
0
48
1.0
60
0
100
AcDbLine
10
0.453371032452635
20
-0.114654922797833
30
0.0
11
0.535870608630111
21
-0.114654922797833
31
0.0
39
0.0
210
0.0
220
0.0
230
1.0
0
LINE
5
E09
330
D97
100
AcDbEntity
8
TITLEBLOCK
62
154
6
ByLayer
370
0
48
1.0
60
0
100
AcDbLine
10
0.546913858984569
20
-0.123749364266216
30
0.0
11
0.546913858984569
21
-0.123749364266216
31
0.0
39
0.0
210
0.0
220
0.0
230
1.0
0
LINE
5
E0A
102
{ACAD_REACTORS
330
DB7
102
}
330
D97
100
AcDbEntity
8
TITLEBLOCK
62
154
6
ByLayer
370
0
48
1.0
60
0
100
AcDbLine
10
0.546913858984569
20
-0.123749364266216
30
0.0
11
0.546913858984569
21
-0.485903015596483
31
0.0
39
0.0
210
0.0
220
0.0
230
1.0
0
LINE
5
E0B
102
{ACAD_REACTORS
330
DB7
102
}
330
D97
100
AcDbEntity
8
TITLEBLOCK
62
154
6
ByLayer
370
0
48
1.0
60
0
100
AcDbLine
10
0.0103936473924353
20
-0.115791727981381
30
0.0
11
0.0082824377658444
21
-0.114654922797833
31
0.0
39
0.0
210
0.0
220
0.0
230
1.0
0
LINE
5
E0C
102
{ACAD_REACTORS
330
DB7
102
}
330
D97
100
AcDbEntity
8
TITLEBLOCK
62
154
6
ByLayer
370
0
48
1.0
60
0
100
AcDbLine
10
0.546913858984569
20
-0.485903015596483
30
0.0
11
0.53554580714909
21
-0.494997457064867
31
0.0
39
0.0
210
0.0
220
0.0
230
1.0
0
LINE
5
E0D
102
{ACAD_REACTORS
330
DB7
102
}
330
D97
100
AcDbEntity
8
TITLEBLOCK
62
154
6
ByLayer
370
0
48
1.0
60
0
100
AcDbLine
10
0.018513684417778
20
-0.124723768709257
30
0.0
11
0.0138040629430822
21
-0.119202143532025
31
0.0
39
0.0
210
0.0
220
0.0
230
1.0
0
LINE
5
E0E
330
D97
100
AcDbEntity
8
TITLEBLOCK
62
154
6
ByLayer
370
0
48
1.0
60
0
100
AcDbLine
10
0.53554580714909
20
-0.494997457064867
30
0.0
11
0.53554580714909
21
-0.494997457064867
31
0.0
39
0.0
210
0.0
220
0.0
230
1.0
0
LINE
5
E0F
102
{ACAD_REACTORS
330
DB7
102
}
330
D97
100
AcDbEntity
8
TITLEBLOCK
62
154
6
ByLayer
370
0
48
1.0
60
0
100
AcDbLine
10
0.535870608630111
20
-0.114654922797833
30
0.0
11
0.546913858984569
21
-0.123749364266216
31
0.0
39
0.0
210
0.0
220
0.0
230
1.0
0
LINE
5
E10
102
{ACAD_REACTORS
330
DB7
102
}
330
D97
100
AcDbEntity
8
TITLEBLOCK
62
154
6
ByLayer
370
0
48
1.0
60
0
100
AcDbLine
10
0.53554580714909
20
-0.494997457064867
30
0.0
11
0.453371032452635
21
-0.494997457064867
31
0.0
39
0.0
210
0.0
220
0.0
230
1.0
0
LINE
5
E11
102
{ACAD_REACTORS
330
DB7
102
}
330
D97
100
AcDbEntity
8
TITLEBLOCK
62
154
6
ByLayer
370
0
48
1.0
60
0
100
AcDbLine
10
0.453371032452635
20
-0.494997457064867
30
0.0
11
0.442165381357659
21
-0.485903015596483
31
0.0
39
0.0
210
0.0
220
0.0
230
1.0
0
LINE
5
E12
330
D97
100
AcDbEntity
8
TITLEBLOCK
62
154
6
ByLayer
370
0
48
1.0
60
0
100
AcDbLine
10
0.442165381357659
20
-0.485903015596483
30
0.0
11
0.442165381357659
21
-0.485903015596483
31
0.0
39
0.0
210
0.0
220
0.0
230
1.0
0
LINE
5
E13
102
{ACAD_REACTORS
330
DB7
102
}
330
D97
100
AcDbEntity
8
TITLEBLOCK
62
154
6
ByLayer
370
0
48
1.0
60
0
100
AcDbLine
10
0.442165381357659
20
-0.485903015596483
30
0.0
11
0.442165381357659
21
-0.123586963525709
31
0.0
39
0.0
210
0.0
220
0.0
230
1.0
0
LINE
5
E14
102
{ACAD_REACTORS
330
DB7
102
}
330
D97
100
AcDbEntity
8
TITLEBLOCK
62
154
6
ByLayer
370
0
48
1.0
60
0
100
AcDbLine
10
0.442165381357659
20
-0.123586963525709
30
0.0
11
0.453371032452635
21
-0.114654922797833
31
0.0
39
0.0
210
0.0
220
0.0
230
1.0
0
LINE
5
E15
330
D97
100
AcDbEntity
8
TITLEBLOCK
62
154
6
ByLayer
370
0
48
1.0
60
0
100
AcDbLine
10
0.453371032452635
20
-0.114654922797833
30
0.0
11
0.453371032452635
21
-0.114654922797833
31
0.0
39
0.0
210
0.0
220
0.0
230
1.0
0
LINE
5
E16
330
D97
100
AcDbEntity
8
TITLEBLOCK
62
154
6
ByLayer
370
0
48
1.0
60
0
100
AcDbLine
10
0.453371032452635
20
-0.114654922797833
30
0.0
11
0.453371032452635
21
-0.114654922797833
31
0.0
39
0.0
210
0.0
220
0.0
230
1.0
0
LINE
5
E17
330
D97
100
AcDbEntity
8
TITLEBLOCK
62
154
6
ByLayer
370
0
48
1.0
60
0
100
AcDbLine
10
0.453371032452635
20
-0.114654922797833
30
0.0
11
0.453371032452635
21
-0.114654922797833
31
0.0
39
0.0
210
0.0
220
0.0
230
1.0
0
HATCH
5
E18
330
D97
100
AcDbEntity
8
TITLEBLOCK
62
154
6
Continuous
370
-1
48
1.0
60
0
100
AcDbHatch
10
0.0
20
0.0
30
0.0
210
0.0
220
0.0
230
1.0
2
ANSI31
70
0
71
0
91
20
92
7
72
1
73
1
93
22
10
-0.836688615091271
20
-0.700759195287041
42
0.0
10
-0.838150221755834
20
-0.690690349375617
42
0.0
10
-0.843509446192558
20
-0.680946304945206
42
0.0
10
-0.852766288401453
20
-0.673313470141384
42
0.0
10
-0.866083149123012
20
-0.668116646445165
42
0.0
10
-0.883297627616739
20
-0.665193433116041
42
0.0
10
-0.979438865996792
20
-0.665193433116041
42
0.0
10
-0.989020509686691
20
-0.667467043483137
42
0.0
10
-1.00217496966775
20
-0.673313470141384
42
0.0
10
-1.01143181187664
20
-0.681433507166726
42
0.0
10
-1.01711583779438
20
-0.691827154559164
42
0.0
10
-1.01906464668046
20
-0.704494412318698
42
0.0
10
-1.01906464668046
20
-0.841723038046983
42
0.0
10
-1.01354302150322
20
-0.846107858040668
42
0.0
10
-0.972130832673977
20
-0.846107858040668
42
0.0
10
-0.966771608237257
20
-0.841723038046983
42
0.0
10
-0.966771608237257
20
-0.81102929809119
42
0.0
10
-0.890118458718023
20
-0.81102929809119
42
0.0
10
-0.890118458718023
20
-0.841723038046983
42
0.0
10
-0.884759234281299
20
-0.846107858040668
42
0.0
10
-0.842047839527994
20
-0.846107858040668
42
0.0
10
-0.836688615091271
20
-0.841723038046983
42
0.0
97
0
92
23
72
1
73
1
93
10
10
-0.890118458718023
20
-0.770104311483464
42
0.0
10
-0.965634803053705
20
-0.770104311483464
42
0.0
10
-0.965634803053705
20
-0.721059287850397
42
0.0
10
-0.965310001572694
20
-0.717648872299753
42
0.0
10
-0.958164368990394
20
-0.709528835274411
42
0.0
10
-0.942249096420719
20
-0.706930423426301
42
0.0
10
-0.913341764610502
20
-0.706930423426301
42
0.0
10
-0.907982540173778
20
-0.707092824166808
42
0.0
10
-0.894503278711708
20
-0.711315243419986
42
0.0
10
-0.890118458718023
20
-0.721059287850397
42
0.0
97
0
92
7
72
1
73
1
93
20
10
-0.645380542774207
20
-0.670227856071754
42
0.0
10
-0.650577366470424
20
-0.665843036078069
42
0.0
10
-0.691502353078148
20
-0.665843036078069
42
0.0
10
-0.696861577514875
20
-0.670065455331248
42
0.0
10
-0.696861577514875
20
-0.701246397508562
42
0.0
10
-0.792190812192393
20
-0.701246397508562
42
0.0
10
-0.797062834407603
20
-0.702545603432617
42
0.0
10
-0.81086689735068
20
-0.708229629350356
42
0.0
10
-0.820773342521603
20
-0.716349666375698
42
0.0
10
-0.826619769179848
20
-0.726580913027629
42
0.0
10
-0.828568578065932
20
-0.739248170787164
42
0.0
10
-0.828568578065932
20
-0.809080489205107
42
0.0
10
-0.828406177325421
20
-0.813140507717778
42
0.0
10
-0.824670960293764
20
-0.825158162515285
42
0.0
10
-0.821260544743124
20
-0.829867783989983
42
0.0
10
-0.81086689735068
20
-0.838962225458366
42
0.0
10
-0.797874838110138
20
-0.844321449895092
42
0.0
10
-0.782284367021477
20
-0.846107858040668
42
0.0
10
-0.650739767210931
20
-0.846107858040668
42
0.0
10
-0.645380542774207
20
-0.841723038046983
42
0.0
97
0
92
23
72
1
73
1
93
10
10
-0.696861577514875
20
-0.804858069951929
42
0.0
10
-0.76019786631255
20
-0.804858069951929
42
0.0
10
-0.770591513704991
20
-0.802259658103819
42
0.0
10
-0.77692514258475
20
-0.791378808489861
42
0.0
10
-0.77692514258475
20
-0.755001042616328
42
0.0
10
-0.775788337401208
20
-0.753864237432779
42
0.0
10
-0.774326730736641
20
-0.74866741373656
42
0.0
10
-0.764745087046739
20
-0.742658586337807
42
0.0
10
-0.746231402628959
20
-0.740709777451725
42
0.0
10
-0.696861577514875
20
-0.740709777451725
42
0.0
97
0
92
7
72
1
73
1
93
20
10
-0.46592772451414
20
-0.731128133761822
42
0.0
10
-0.466902128957186
20
-0.728042519692191
42
0.0
10
-0.473073357096441
20
-0.715862464154177
42
0.0
10
-0.482167798564829
20
-0.707092824166808
42
0.0
10
-0.494023052621826
20
-0.701896000470589
42
0.0
10
-0.508801520007952
20
-0.700109592325013
42
0.0
10
-0.591788298406945
20
-0.700109592325013
42
0.0
10
-0.604130754685469
20
-0.702058401211096
42
0.0
10
-0.617934817628553
20
-0.706930423426301
42
0.0
10
-0.627841262799466
20
-0.714238456749109
42
0.0
10
-0.633687689457718
20
-0.72398250117952
42
0.0
10
-0.635636498343798
20
-0.736000155977027
42
0.0
10
-0.635636498343798
20
-0.809567691426627
42
0.0
10
-0.633850090198221
20
-0.81768772845197
42
0.0
10
-0.628653266502001
20
-0.830192585470997
42
0.0
10
-0.620533229476658
20
-0.838962225458366
42
0.0
10
-0.6096523798627
20
-0.844321449895092
42
0.0
10
-0.595848316919616
20
-0.846107858040668
42
0.0
10
-0.47112454821036
20
-0.846107858040668
42
0.0
10
-0.46592772451414
20
-0.841723038046983
42
0.0
97
0
92
23
72
1
73
1
93
13
10
-0.513998343704168
20
-0.758249057426464
42
0.0
10
-0.513998343704168
20
-0.805020470692436
42
0.0
10
-0.572362671369399
20
-0.805020470692436
42
0.0
10
-0.583830662122113
20
-0.800635650698751
42
0.0
10
-0.587403478413263
20
-0.787968392939217
42
0.0
10
-0.587403478413263
20
-0.759223461869506
42
0.0
10
-0.586429073970221
20
-0.755975447059368
42
0.0
10
-0.585617070267689
20
-0.751428226325177
42
0.0
10
-0.577821834723357
20
-0.743795391521355
42
0.0
10
-0.561581760672675
20
-0.741359380413753
42
0.0
10
-0.537871252558675
20
-0.741359380413753
42
0.0
10
-0.529101612571301
20
-0.74200898337578
42
0.0
10
-0.517733560735826
20
-0.747368207812506
42
0.0
97
0
92
7
72
1
73
1
93
19
10
-0.271534038127447
20
-0.736000155977026
42
0.0
10
-0.274132449975559
20
-0.72398250117952
42
0.0
10
-0.280303678114818
20
-0.715537662673164
42
0.0
10
-0.290859726247758
20
-0.707417625647822
42
0.0
10
-0.304176586969321
20
-0.702545603432617
42
0.0
10
-0.320091859538996
20
-0.700921596027548
42
0.0
10
-0.449525249722951
20
-0.700921596027548
42
0.0
10
-0.454884474159675
20
-0.704981614540219
42
0.0
10
-0.454884474159675
20
-0.894665679452215
42
0.0
10
-0.449525249722951
20
-0.898888098705393
42
0.0
10
-0.408762663855731
20
-0.898888098705393
42
0.0
10
-0.403403439419003
20
-0.894665679452215
42
0.0
10
-0.403403439419003
20
-0.846757461002695
42
0.0
10
-0.316681443988353
20
-0.846757461002695
42
0.0
10
-0.30498859067186
20
-0.845783056559654
42
0.0
10
-0.292321332912325
20
-0.841723038046983
42
0.0
10
-0.282577288481915
20
-0.834577405464682
42
0.0
10
-0.275594056640118
20
-0.824183758072244
42
0.0
10
-0.271534038127447
20
-0.810704496610176
42
0.0
97
0
92
23
72
1
73
1
93
9
10
-0.323177473608625
20
-0.792840415154424
42
0.0
10
-0.323339874349133
20
-0.794464422559491
42
0.0
10
-0.329186301007377
20
-0.803396463287368
42
0.0
10
-0.344614371355528
20
-0.806319676616491
42
0.0
10
-0.402104233494951
20
-0.806319676616491
42
0.0
10
-0.402104233494951
20
-0.742171384116286
42
0.0
10
-0.341041555064374
20
-0.742171384116286
42
0.0
10
-0.329673503228902
20
-0.744932196704903
42
0.0
10
-0.323177473608625
20
-0.755650645578355
42
0.0
97
0
92
7
72
1
73
1
93
12
10
-0.1684095679056
20
-0.740060174489698
42
0.0
10
-0.125210970930778
20
-0.740060174489698
42
0.0
10
-0.125210970930778
20
-0.699947191584507
42
0.0
10
-0.1684095679056
20
-0.699947191584507
42
0.0
10
-0.1684095679056
20
-0.665193433116041
42
0.0
10
-0.216642587836135
20
-0.665193433116041
42
0.0
10
-0.216642587836135
20
-0.699947191584507
42
0.0
10
-0.259841184810954
20
-0.699947191584507
42
0.0
10
-0.259841184810954
20
-0.740060174489698
42
0.0
10
-0.216642587836135
20
-0.740060174489698
42
0.0
10
-0.216642587836135
20
-0.845295854338134
42
0.0
10
-0.1684095679056
20
-0.845295854338134
42
0.0
97
0
92
7
72
1
73
1
93
31
10
0.0678835095318622
20
-0.73989777374919
42
0.0
10
0.0644730939812117
20
-0.725768909325097
42
0.0
10
0.0583018658419601
20
-0.714888059711137
42
0.0
10
0.0493698251140824
20
-0.707092824166808
42
0.0
10
0.0376769717975893
20
-0.70238320269211
42
0.0
10
0.0232233058924738
20
-0.700921596027548
42
0.0
10
-0.0665843036078062
20
-0.700921596027548
42
0.0
10
-0.0745419398926419
20
-0.701246397508562
42
0.0
10
-0.0898076095002889
20
-0.704819213799712
42
0.0
10
-0.0941924294939742
20
-0.706605621945288
42
0.0
10
-0.10556048132945
20
-0.714400857489616
42
0.0
10
-0.11238131243074
20
-0.724632104141547
42
0.0
10
-0.114654922797831
20
-0.737461762641589
42
0.0
10
-0.114654922797831
20
-0.807943684021559
42
0.0
10
-0.112218911690233
20
-0.820610941781094
42
0.0
10
-0.107509290215534
20
-0.829380581768463
42
0.0
10
-0.098414848747149
20
-0.838637423977353
42
0.0
10
-0.086397193949642
20
-0.844321449895092
42
0.0
10
-0.0712939250825091
20
-0.846107858040668
42
0.0
10
0.0211120962658864
20
-0.846107858040668
42
0.0
10
0.0360529643925194
20
-0.843671846933065
42
0.0
10
0.0500194280761068
20
-0.838637423977353
42
0.0
10
0.0599258732470265
20
-0.831491791395052
42
0.0
10
0.0659347006457782
20
-0.822072548445655
42
0.0
10
0.0678835095318622
20
-0.810542095869669
42
0.0
10
0.0623618843546279
20
-0.805182871432943
42
0.0
10
-0.0422241925317781
20
-0.805182871432943
42
0.0
10
-0.0571650606584076
20
-0.802584459584834
42
0.0
10
-0.0634986895381768
20
-0.795438827002532
42
0.0
10
0.0623618843546279
20
-0.795438827002532
42
0.0
10
0.0678835095318622
20
-0.791054007008847
42
0.0
97
0
92
23
72
1
73
1
93
6
10
0.0159152725696696
20
-0.752565031508725
42
0.0
10
-0.0630114873166594
20
-0.752565031508725
42
0.0
10
-0.0602506747280405
20
-0.746718604850479
42
0.0
10
-0.0482330199305334
20
-0.741846582635273
42
0.0
10
-0.0012992059240577
20
-0.741846582635273
42
0.0
10
0.0108808496139599
20
-0.745256998185917
42
0.0
97
0
92
7
72
1
73
1
93
13
10
0.174255994563849
20
-0.738760968565643
42
0.0
10
0.174255994563849
20
-0.706768022685795
42
0.0
10
0.169059170867625
20
-0.702545603432617
42
0.0
10
0.085747590987614
20
-0.702545603432617
42
0.0
10
0.0803883665508867
20
-0.706605621945288
42
0.0
10
0.0803883665508867
20
-0.841723038046983
42
0.0
10
0.085747590987614
20
-0.846107858040668
42
0.0
10
0.1256981731523
20
-0.846107858040668
42
0.0
10
0.131057397589023
20
-0.841723038046983
42
0.0
10
0.131057397589023
20
-0.758086656685957
42
0.0
10
0.136091820544733
20
-0.747043406331492
42
0.0
10
0.148271876082747
20
-0.742983387818821
42
0.0
10
0.168896770127118
20
-0.742983387818821
42
0.0
97
0
92
7
72
1
73
1
93
25
10
0.440106006773549
20
-0.68581832716041
42
0.0
10
0.435883587520374
20
-0.680296701983178
42
0.0
10
0.425489940127934
20
-0.671851863476822
42
0.0
10
0.412173079406374
20
-0.66681744052111
42
0.0
10
0.396095406096199
20
-0.665193433116041
42
0.0
10
0.2681236225768
20
-0.665193433116041
42
0.0
10
0.262764398140076
20
-0.669253451628713
42
0.0
10
0.262764398140076
20
-0.841723038046983
42
0.0
10
0.2681236225768
20
-0.846107858040668
42
0.0
10
0.30856140696301
20
-0.846107858040668
42
0.0
10
0.313920631399734
20
-0.841723038046983
42
0.0
10
0.313920631399734
20
-0.828893379546942
42
0.0
10
0.313920631399734
20
-0.828243776584931
42
0.0
10
0.314083032140237
20
-0.818174930673412
42
0.0
10
0.314245432880744
20
-0.805994875135503
42
0.0
10
0.314570234361762
20
-0.792028411451878
42
0.0
10
0.315057436583279
20
-0.776113138882218
42
0.0
10
0.410224270520294
20
-0.776113138882218
42
0.0
10
0.420293116431713
20
-0.77286512407208
42
0.0
10
0.431173966045675
20
-0.766369094451807
42
0.0
10
0.438969201590007
20
-0.757112252242916
42
0.0
10
0.443516422324196
20
-0.745419398926423
42
0.0
10
0.445140429729269
20
-0.73129053450233
42
0.0
10
0.445140429729269
20
-0.710340838976947
42
0.0
10
0.443841223805206
20
-0.694912768628795
42
0.0
97
0
92
23
72
1
73
1
93
7
10
0.313920631399734
20
-0.70595601898326
42
0.0
10
0.378718526861961
20
-0.70595601898326
42
0.0
10
0.387975369070857
20
-0.708716831571876
42
0.0
10
0.393984196469605
20
-0.720247284147863
42
0.0
10
0.390248979437947
20
-0.729341725616246
42
0.0
10
0.376282515754363
20
-0.734213747831451
42
0.0
10
0.313920631399734
20
-0.734213747831451
42
0.0
97
0
92
7
72
1
73
1
93
8
10
0.505066302976291
20
-0.66941585236922
42
0.0
10
0.499707078539567
20
-0.665193433116041
42
0.0
10
0.45926929415336
20
-0.665193433116041
42
0.0
10
0.453910069716636
20
-0.669253451628713
42
0.0
10
0.453910069716636
20
-0.841723038046983
42
0.0
10
0.45926929415336
20
-0.846107858040668
42
0.0
10
0.499544677799056
20
-0.846107858040668
42
0.0
10
0.505066302976291
20
-0.841723038046983
42
0.0
97
0
92
7
72
1
73
1
93
20
10
0.679809499761658
20
-0.715862464154178
42
0.0
10
0.67071505829327
20
-0.707092824166808
42
0.0
10
0.658859804236274
20
-0.701896000470589
42
0.0
10
0.644243737590655
20
-0.700109592325013
42
0.0
10
0.561094558451155
20
-0.700109592325013
42
0.0
10
0.548752102172633
20
-0.702058401211096
42
0.0
10
0.534948039229553
20
-0.706930423426301
42
0.0
10
0.525203994799137
20
-0.714238456749109
42
0.0
10
0.519195167400385
20
-0.72398250117952
42
0.0
10
0.517246358514305
20
-0.736000155977027
42
0.0
10
0.517246358514305
20
-0.809567691426629
42
0.0
10
0.519032766659882
20
-0.817687728451971
42
0.0
10
0.524391991096602
20
-0.830192585470997
42
0.0
10
0.532512028121948
20
-0.838962225458366
42
0.0
10
0.543392877735906
20
-0.844321449895092
42
0.0
10
0.55703453993848
20
-0.846107858040668
42
0.0
10
0.681758308647742
20
-0.846107858040668
42
0.0
10
0.686955132343956
20
-0.841723038046983
42
0.0
10
0.686955132343956
20
-0.731128133761821
42
0.0
10
0.685980727900921
20
-0.728042519692192
42
0.0
97
0
92
23
72
1
73
1
93
14
10
0.591301096185427
20
-0.741359380413753
42
0.0
10
0.615011604299427
20
-0.741359380413753
42
0.0
10
0.623781244286794
20
-0.74200898337578
42
0.0
10
0.635149296122274
20
-0.747368207812506
42
0.0
10
0.638884513153931
20
-0.758249057426465
42
0.0
10
0.638884513153931
20
-0.805020470692436
42
0.0
10
0.580582647311976
20
-0.805020470692436
42
0.0
10
0.580257845830959
20
-0.804858069951929
42
0.0
10
0.56905219473599
20
-0.800635650698751
42
0.0
10
0.565479378444833
20
-0.787968392939218
42
0.0
10
0.565479378444833
20
-0.759223461869507
42
0.0
10
0.566453782887878
20
-0.755975447059368
42
0.0
10
0.56726578659041
20
-0.751428226325177
42
0.0
10
0.575061022134738
20
-0.743795391521355
42
0.0
97
0
92
7
72
1
73
1
93
12
10
0.83279099731911
20
-0.699947191584507
42
0.0
10
0.789592400344281
20
-0.699947191584507
42
0.0
10
0.789592400344281
20
-0.665193433116041
42
0.0
10
0.741359380413749
20
-0.665193433116041
42
0.0
10
0.741359380413749
20
-0.699947191584507
42
0.0
10
0.698160783438931
20
-0.699947191584507
42
0.0
10
0.698160783438931
20
-0.740060174489698
42
0.0
10
0.741359380413749
20
-0.740060174489698
42
0.0
10
0.741359380413749
20
-0.845295854338134
42
0.0
10
0.789592400344281
20
-0.845295854338134
42
0.0
10
0.789592400344281
20
-0.740060174489698
42
0.0
10
0.83279099731911
20
-0.740060174489698
42
0.0
97
0
92
7
72
1
73
1
93
31
10
1.01630383409185
20
-0.714888059711136
42
0.0
10
1.00737179336396
20
-0.707092824166808
42
0.0
10
0.995678940047471
20
-0.70238320269211
42
0.0
10
0.981387674882869
20
-0.700921596027548
42
0.0
10
0.891417664642075
20
-0.700921596027548
42
0.0
10
0.883622429097746
20
-0.701246397508562
42
0.0
10
0.8681943587496
20
-0.704819213799712
42
0.0
10
0.863809538755911
20
-0.706605621945288
42
0.0
10
0.852441486920435
20
-0.714400857489616
42
0.0
10
0.845620655819145
20
-0.724632104141547
42
0.0
10
0.843347045452051
20
-0.737461762641589
42
0.0
10
0.843347045452051
20
-0.807943684021558
42
0.0
10
0.845783056559652
20
-0.820610941781094
42
0.0
10
0.850492678034351
20
-0.829380581768463
42
0.0
10
0.859587119502736
20
-0.838637423977353
42
0.0
10
0.87160477430024
20
-0.844321449895092
42
0.0
10
0.886708043167376
20
-0.846107858040668
42
0.0
10
0.979114064515775
20
-0.846107858040668
42
0.0
10
0.994054932642404
20
-0.843671846933065
42
0.0
10
1.00802139632599
20
-0.838637423977353
42
0.0
10
1.01792784149691
20
-0.831491791395051
42
0.0
10
1.02393666889567
20
-0.822072548445655
42
0.0
10
1.02604787852225
20
-0.810542095869669
42
0.0
10
1.02052625334502
20
-0.805182871432943
42
0.0
10
0.91577777571811
20
-0.805182871432943
42
0.0
10
0.900836907591474
20
-0.802584459584834
42
0.0
10
0.894503278711705
20
-0.795438827002532
42
0.0
10
1.02052625334502
20
-0.795438827002532
42
0.0
10
1.02604787852225
20
-0.791054007008847
42
0.0
10
1.02604787852225
20
-0.740570576817004
42
0.0
10
1.0224750622311
20
-0.725768909325096
42
0.0
97
0
92
23
72
1
73
1
93
6
10
0.956702762325831
20
-0.741846582635273
42
0.0
10
0.968882817863845
20
-0.745256998185917
42
0.0
10
0.973917240819551
20
-0.752565031508725
42
0.0
10
0.895152881673733
20
-0.752565031508725
42
0.0
10
0.897751293521844
20
-0.746718604850479
42
0.0
10
0.909768948319348
20
-0.741846582635273
42
0.0
97
0
75
1
76
1
52
0.0
41
0.004763286
77
0
78
1
53
45.0
43
-1.82635398809821
44
-2.10343678291998
45
-0.0004210189789164
46
0.0004210189789164
79
0
47
0.0
98
1
10
0.0
20
0.0
1001
GradientColor1ACI
1070
5
1001
GradientColor2ACI
1070
2
1001
ACAD
1010
0.0
1020
0.0
1030
0.0
0
LINE
5
E19
330
D97
100
AcDbEntity
8
TITLEBLOCK
62
154
6
ByLayer
370
0
48
1.0
60
0
100
AcDbLine
10
-1.01906464668046
20
-0.704494412318698
30
0.0
11
-1.01906464668046
21
-0.841723038046983
31
0.0
39
0.0
210
0.0
220
0.0
230
1.0
0
LINE
5
E1A
330
D97
100
AcDbEntity
8
TITLEBLOCK
62
154
6
ByLayer
370
0
48
1.0
60
0
100
AcDbLine
10
-1.01906464668046
20
-0.841723038046983
30
0.0
11
-1.01354302150322
21
-0.846107858040668
31
0.0
39
0.0
210
0.0
220
0.0
230
1.0
0
LINE
5
E1B
330
D97
100
AcDbEntity
8
TITLEBLOCK
62
154
6
ByLayer
370
0
48
1.0
60
0
100
AcDbLine
10
-1.01354302150322
20
-0.846107858040668
30
0.0
11
-0.972130832673977
21
-0.846107858040668
31
0.0
39
0.0
210
0.0
220
0.0
230
1.0
0
LINE
5
E1C
330
D97
100
AcDbEntity
8
TITLEBLOCK
62
154
6
ByLayer
370
0
48
1.0
60
0
100
AcDbLine
10
-0.972130832673977
20
-0.846107858040668
30
0.0
11
-0.966771608237257
21
-0.841723038046983
31
0.0
39
0.0
210
0.0
220
0.0
230
1.0
0
LINE
5
E1D
330
D97
100
AcDbEntity
8
TITLEBLOCK
62
154
6
ByLayer
370
0
48
1.0
60
0
100
AcDbLine
10
-0.966771608237257
20
-0.841723038046983
30
0.0
11
-0.966771608237257
21
-0.811029298091189
31
0.0
39
0.0
210
0.0
220
0.0
230
1.0
0
LINE
5
E1E
330
D97
100
AcDbEntity
8
TITLEBLOCK
62
154
6
ByLayer
370
0
48
1.0
60
0
100
AcDbLine
10
-0.966771608237257
20
-0.811029298091189
30
0.0
11
-0.890118458718023
21
-0.811029298091189
31
0.0
39
0.0
210
0.0
220
0.0
230
1.0
0
LINE
5
E1F
330
D97
100
AcDbEntity
8
TITLEBLOCK
62
154
6
ByLayer
370
0
48
1.0
60
0
100
AcDbLine
10
-0.965634803053705
20
-0.770104311483463
30
0.0
11
-0.965634803053705
21
-0.721059287850396
31
0.0
39
0.0
210
0.0
220
0.0
230
1.0
0
LINE
5
E20
330
D97
100
AcDbEntity
8
TITLEBLOCK
62
154
6
ByLayer
370
0
48
1.0
60
0
100
AcDbLine
10
-0.965634803053705
20
-0.721059287850396
30
0.0
11
-0.965310001572694
21
-0.717648872299752
31
0.0
39
0.0
210
0.0
220
0.0
230
1.0
0
LINE
5
E21
330
D97
100
AcDbEntity
8
TITLEBLOCK
62
154
6
ByLayer
370
0
48
1.0
60
0
100
AcDbLine
10
-0.965310001572694
20
-0.717648872299752
30
0.0
11
-0.958164368990394
21
-0.70952883527441
31
0.0
39
0.0
210
0.0
220
0.0
230
1.0
0
LINE
5
E22
330
D97
100
AcDbEntity
8
TITLEBLOCK
62
154
6
ByLayer
370
0
48
1.0
60
0
100
AcDbLine
10
-0.958164368990394
20
-0.70952883527441
30
0.0
11
-0.942249096420719
21
-0.706930423426301
31
0.0
39
0.0
210
0.0
220
0.0
230
1.0
0
LINE
5
E23
330
D97
100
AcDbEntity
8
TITLEBLOCK
62
154
6
ByLayer
370
0
48
1.0
60
0
100
AcDbLine
10
-0.942249096420719
20
-0.706930423426301
30
0.0
11
-0.913341764610502
21
-0.706930423426301
31
0.0
39
0.0
210
0.0
220
0.0
230
1.0
0
LINE
5
E24
330
D97
100
AcDbEntity
8
TITLEBLOCK
62
154
6
ByLayer
370
0
48
1.0
60
0
100
AcDbLine
10
-0.883297627616739
20
-0.665193433116041
30
0.0
11
-0.979438865996792
21
-0.665193433116041
31
0.0
39
0.0
210
0.0
220
0.0
230
1.0
0
LINE
5
E25
330
D97
100
AcDbEntity
8
TITLEBLOCK
62
154
6
ByLayer
370
0
48
1.0
60
0
100
AcDbLine
10
-0.979438865996792
20
-0.665193433116041
30
0.0
11
-0.989020509686691
21
-0.667467043483137
31
0.0
39
0.0
210
0.0
220
0.0
230
1.0
0
LINE
5
E26
330
D97
100
AcDbEntity
8
TITLEBLOCK
62
154
6
ByLayer
370
0
48
1.0
60
0
100
AcDbLine
10
-0.989020509686691
20
-0.667467043483137
30
0.0
11
-1.00217496966775
21
-0.673313470141383
31
0.0
39
0.0
210
0.0
220
0.0
230
1.0
0
LINE
5
E27
330
D97
100
AcDbEntity
8
TITLEBLOCK
62
154
6
ByLayer
370
0
48
1.0
60
0
100
AcDbLine
10
-1.00217496966775
20
-0.673313470141383
30
0.0
11
-1.01143181187664
21
-0.681433507166726
31
0.0
39
0.0
210
0.0
220
0.0
230
1.0
0
LINE
5
E28
330
D97
100
AcDbEntity
8
TITLEBLOCK
62
154
6
ByLayer
370
0
48
1.0
60
0
100
AcDbLine
10
-1.01143181187664
20
-0.681433507166726
30
0.0
11
-1.01711583779438
21
-0.691827154559164
31
0.0
39
0.0
210
0.0
220
0.0
230
1.0
0
LINE
5
E29
330
D97
100
AcDbEntity
8
TITLEBLOCK
62
154
6
ByLayer
370
0
48
1.0
60
0
100
AcDbLine
10
-1.01711583779438
20
-0.691827154559164
30
0.0
11
-1.01906464668046
21
-0.704494412318698
31
0.0
39
0.0
210
0.0
220
0.0
230
1.0
0
LINE
5
E2A
330
D97
100
AcDbEntity
8
TITLEBLOCK
62
154
6
ByLayer
370
0
48
1.0
60
0
100
AcDbLine
10
-0.913341764610502
20
-0.706930423426301
30
0.0
11
-0.907982540173778
21
-0.707092824166808
31
0.0
39
0.0
210
0.0
220
0.0
230
1.0
0
LINE
5
E2B
330
D97
100
AcDbEntity
8
TITLEBLOCK
62
154
6
ByLayer
370
0
48
1.0
60
0
100
AcDbLine
10
-0.907982540173778
20
-0.707092824166808
30
0.0
11
-0.894503278711708
21
-0.711315243419986
31
0.0
39
0.0
210
0.0
220
0.0
230
1.0
0
LINE
5
E2C
330
D97
100
AcDbEntity
8
TITLEBLOCK
62
154
6
ByLayer
370
0
48
1.0
60
0
100
AcDbLine
10
-0.894503278711708
20
-0.711315243419986
30
0.0
11
-0.890118458718023
21
-0.721059287850396
31
0.0
39
0.0
210
0.0
220
0.0
230
1.0
0
LINE
5
E2D
330
D97
100
AcDbEntity
8
TITLEBLOCK
62
154
6
ByLayer
370
0
48
1.0
60
0
100
AcDbLine
10
-0.890118458718023
20
-0.721059287850396
30
0.0
11
-0.890118458718023
21
-0.770104311483463
31
0.0
39
0.0
210
0.0
220
0.0
230
1.0
0
LINE
5
E2E
330
D97
100
AcDbEntity
8
TITLEBLOCK
62
154
6
ByLayer
370
0
48
1.0
60
0
100
AcDbLine
10
-0.890118458718023
20
-0.770104311483463
30
0.0
11
-0.965634803053705
21
-0.770104311483463
31
0.0
39
0.0
210
0.0
220
0.0
230
1.0
0
LINE
5
E2F
330
D97
100
AcDbEntity
8
TITLEBLOCK
62
154
6
ByLayer
370
0
48
1.0
60
0
100
AcDbLine
10
-0.890118458718023
20
-0.811029298091189
30
0.0
11
-0.890118458718023
21
-0.841723038046983
31
0.0
39
0.0
210
0.0
220
0.0
230
1.0
0
LINE
5
E30
330
D97
100
AcDbEntity
8
TITLEBLOCK
62
154
6
ByLayer
370
0
48
1.0
60
0
100
AcDbLine
10
-0.890118458718023
20
-0.841723038046983
30
0.0
11
-0.884759234281299
21
-0.846107858040668
31
0.0
39
0.0
210
0.0
220
0.0
230
1.0
0
LINE
5
E31
330
D97
100
AcDbEntity
8
TITLEBLOCK
62
154
6
ByLayer
370
0
48
1.0
60
0
100
AcDbLine
10
-0.884759234281299
20
-0.846107858040668
30
0.0
11
-0.842047839527994
21
-0.846107858040668
31
0.0
39
0.0
210
0.0
220
0.0
230
1.0
0
LINE
5
E32
330
D97
100
AcDbEntity
8
TITLEBLOCK
62
154
6
ByLayer
370
0
48
1.0
60
0
100
AcDbLine
10
-0.842047839527994
20
-0.846107858040668
30
0.0
11
-0.836688615091271
21
-0.841723038046983
31
0.0
39
0.0
210
0.0
220
0.0
230
1.0
0
LINE
5
E33
330
D97
100
AcDbEntity
8
TITLEBLOCK
62
154
6
ByLayer
370
0
48
1.0
60
0
100
AcDbLine
10
-0.836688615091271
20
-0.841723038046983
30
0.0
11
-0.836688615091271
21
-0.70075919528704
31
0.0
39
0.0
210
0.0
220
0.0
230
1.0
0
LINE
5
E34
330
D97
100
AcDbEntity
8
TITLEBLOCK
62
154
6
ByLayer
370
0
48
1.0
60
0
100
AcDbLine
10
-0.836688615091271
20
-0.70075919528704
30
0.0
11
-0.838150221755834
21
-0.690690349375616
31
0.0
39
0.0
210
0.0
220
0.0
230
1.0
0
LINE
5
E35
330
D97
100
AcDbEntity
8
TITLEBLOCK
62
154
6
ByLayer
370
0
48
1.0
60
0
100
AcDbLine
10
-0.838150221755834
20
-0.690690349375616
30
0.0
11
-0.843509446192558
21
-0.680946304945205
31
0.0
39
0.0
210
0.0
220
0.0
230
1.0
0
LINE
5
E36
330
D97
100
AcDbEntity
8
TITLEBLOCK
62
154
6
ByLayer
370
0
48
1.0
60
0
100
AcDbLine
10
-0.843509446192558
20
-0.680946304945205
30
0.0
11
-0.852766288401453
21
-0.673313470141383
31
0.0
39
0.0
210
0.0
220
0.0
230
1.0
0
LINE
5
E37
330
D97
100
AcDbEntity
8
TITLEBLOCK
62
154
6
ByLayer
370
0
48
1.0
60
0
100
AcDbLine
10
-0.852766288401453
20
-0.673313470141383
30
0.0
11
-0.866083149123012
21
-0.668116646445165
31
0.0
39
0.0
210
0.0
220
0.0
230
1.0
0
LINE
5
E38
330
D97
100
AcDbEntity
8
TITLEBLOCK
62
154
6
ByLayer
370
0
48
1.0
60
0
100
AcDbLine
10
-0.866083149123012
20
-0.668116646445165
30
0.0
11
-0.883297627616739
21
-0.665193433116041
31
0.0
39
0.0
210
0.0
220
0.0
230
1.0
0
LINE
5
E39
330
D97
100
AcDbEntity
8
TITLEBLOCK
62
154
6
ByLayer
370
0
48
1.0
60
0
100
AcDbLine
10
-0.828568578065932
20
-0.739248170787163
30
0.0
11
-0.828568578065932
21
-0.809080489205107
31
0.0
39
0.0
210
0.0
220
0.0
230
1.0
0
LINE
5
E3A
330
D97
100
AcDbEntity
8
TITLEBLOCK
62
154
6
ByLayer
370
0
48
1.0
60
0
100
AcDbLine
10
-0.76019786631255
20
-0.804858069951929
30
0.0
11
-0.770591513704991
21
-0.802259658103819
31
0.0
39
0.0
210
0.0
220
0.0
230
1.0
0
LINE
5
E3B
330
D97
100
AcDbEntity
8
TITLEBLOCK
62
154
6
ByLayer
370
0
48
1.0
60
0
100
AcDbLine
10
-0.770591513704991
20
-0.802259658103819
30
0.0
11
-0.77692514258475
21
-0.79137880848986
31
0.0
39
0.0
210
0.0
220
0.0
230
1.0
0
LINE
5
E3C
330
D97
100
AcDbEntity
8
TITLEBLOCK
62
154
6
ByLayer
370
0
48
1.0
60
0
100
AcDbLine
10
-0.77692514258475
20
-0.79137880848986
30
0.0
11
-0.77692514258475
21
-0.755001042616327
31
0.0
39
0.0
210
0.0
220
0.0
230
1.0
0
LINE
5
E3D
330
D97
100
AcDbEntity
8
TITLEBLOCK
62
154
6
ByLayer
370
0
48
1.0
60
0
100
AcDbLine
10
-0.77692514258475
20
-0.755001042616327
30
0.0
11
-0.775788337401208
21
-0.753864237432779
31
0.0
39
0.0
210
0.0
220
0.0
230
1.0
0
LINE
5
E3E
330
D97
100
AcDbEntity
8
TITLEBLOCK
62
154
6
ByLayer
370
0
48
1.0
60
0
100
AcDbLine
10
-0.775788337401208
20
-0.753864237432779
30
0.0
11
-0.774326730736641
21
-0.74866741373656
31
0.0
39
0.0
210
0.0
220
0.0
230
1.0
0
LINE
5
E3F
330
D97
100
AcDbEntity
8
TITLEBLOCK
62
154
6
ByLayer
370
0
48
1.0
60
0
100
AcDbLine
10
-0.774326730736641
20
-0.74866741373656
30
0.0
11
-0.764745087046739
21
-0.742658586337806
31
0.0
39
0.0
210
0.0
220
0.0
230
1.0
0
LINE
5
E40
330
D97
100
AcDbEntity
8
TITLEBLOCK
62
154
6
ByLayer
370
0
48
1.0
60
0
100
AcDbLine
10
-0.764745087046739
20
-0.742658586337806
30
0.0
11
-0.746231402628959
21
-0.740709777451724
31
0.0
39
0.0
210
0.0
220
0.0
230
1.0
0
LINE
5
E41
330
D97
100
AcDbEntity
8
TITLEBLOCK
62
154
6
ByLayer
370
0
48
1.0
60
0
100
AcDbLine
10
-0.746231402628959
20
-0.740709777451724
30
0.0
11
-0.696861577514875
21
-0.740709777451724
31
0.0
39
0.0
210
0.0
220
0.0
230
1.0
0
LINE
5
E42
330
D97
100
AcDbEntity
8
TITLEBLOCK
62
154
6
ByLayer
370
0
48
1.0
60
0
100
AcDbLine
10
-0.650577366470424
20
-0.665843036078068
30
0.0
11
-0.691502353078148
21
-0.665843036078068
31
0.0
39
0.0
210
0.0
220
0.0
230
1.0
0
LINE
5
E43
330
D97
100
AcDbEntity
8
TITLEBLOCK
62
154
6
ByLayer
370
0
48
1.0
60
0
100
AcDbLine
10
-0.691502353078148
20
-0.665843036078068
30
0.0
11
-0.696861577514875
21
-0.670065455331247
31
0.0
39
0.0
210
0.0
220
0.0
230
1.0
0
LINE
5
E44
330
D97
100
AcDbEntity
8
TITLEBLOCK
62
154
6
ByLayer
370
0
48
1.0
60
0
100
AcDbLine
10
-0.696861577514875
20
-0.670065455331247
30
0.0
11
-0.696861577514875
21
-0.701246397508561
31
0.0
39
0.0
210
0.0
220
0.0
230
1.0
0
LINE
5
E45
330
D97
100
AcDbEntity
8
TITLEBLOCK
62
154
6
ByLayer
370
0
48
1.0
60
0
100
AcDbLine
10
-0.696861577514875
20
-0.701246397508561
30
0.0
11
-0.792190812192393
21
-0.701246397508561
31
0.0
39
0.0
210
0.0
220
0.0
230
1.0
0
LINE
5
E46
330
D97
100
AcDbEntity
8
TITLEBLOCK
62
154
6
ByLayer
370
0
48
1.0
60
0
100
AcDbLine
10
-0.792190812192393
20
-0.701246397508561
30
0.0
11
-0.797062834407603
21
-0.702545603432616
31
0.0
39
0.0
210
0.0
220
0.0
230
1.0
0
LINE
5
E47
330
D97
100
AcDbEntity
8
TITLEBLOCK
62
154
6
ByLayer
370
0
48
1.0
60
0
100
AcDbLine
10
-0.797062834407603
20
-0.702545603432616
30
0.0
11
-0.81086689735068
21
-0.708229629350355
31
0.0
39
0.0
210
0.0
220
0.0
230
1.0
0
LINE
5
E48
330
D97
100
AcDbEntity
8
TITLEBLOCK
62
154
6
ByLayer
370
0
48
1.0
60
0
100
AcDbLine
10
-0.81086689735068
20
-0.708229629350355
30
0.0
11
-0.820773342521603
21
-0.716349666375698
31
0.0
39
0.0
210
0.0
220
0.0
230
1.0
0
LINE
5
E49
330
D97
100
AcDbEntity
8
TITLEBLOCK
62
154
6
ByLayer
370
0
48
1.0
60
0
100
AcDbLine
10
-0.820773342521603
20
-0.716349666375698
30
0.0
11
-0.826619769179848
21
-0.726580913027629
31
0.0
39
0.0
210
0.0
220
0.0
230
1.0
0
LINE
5
E4A
330
D97
100
AcDbEntity
8
TITLEBLOCK
62
154
6
ByLayer
370
0
48
1.0
60
0
100
AcDbLine
10
-0.826619769179848
20
-0.726580913027629
30
0.0
11
-0.828568578065932
21
-0.739248170787163
31
0.0
39
0.0
210
0.0
220
0.0
230
1.0
0
LINE
5
E4B
330
D97
100
AcDbEntity
8
TITLEBLOCK
62
154
6
ByLayer
370
0
48
1.0
60
0
100
AcDbLine
10
-0.696861577514875
20
-0.740709777451724
30
0.0
11
-0.696861577514875
21
-0.804858069951929
31
0.0
39
0.0
210
0.0
220
0.0
230
1.0
0
LINE
5
E4C
330
D97
100
AcDbEntity
8
TITLEBLOCK
62
154
6
ByLayer
370
0
48
1.0
60
0
100
AcDbLine
10
-0.696861577514875
20
-0.804858069951929
30
0.0
11
-0.76019786631255
21
-0.804858069951929
31
0.0
39
0.0
210
0.0
220
0.0
230
1.0
0
LINE
5
E4D
330
D97
100
AcDbEntity
8
TITLEBLOCK
62
154
6
ByLayer
370
0
48
1.0
60
0
100
AcDbLine
10
-0.828568578065932
20
-0.809080489205107
30
0.0
11
-0.828406177325421
21
-0.813140507717778
31
0.0
39
0.0
210
0.0
220
0.0
230
1.0
0
LINE
5
E4E
330
D97
100
AcDbEntity
8
TITLEBLOCK
62
154
6
ByLayer
370
0
48
1.0
60
0
100
AcDbLine
10
-0.828406177325421
20
-0.813140507717778
30
0.0
11
-0.824670960293764
21
-0.825158162515285
31
0.0
39
0.0
210
0.0
220
0.0
230
1.0
0
LINE
5
E4F
330
D97
100
AcDbEntity
8
TITLEBLOCK
62
154
6
ByLayer
370
0
48
1.0
60
0
100
AcDbLine
10
-0.824670960293764
20
-0.825158162515285
30
0.0
11
-0.821260544743124
21
-0.829867783989983
31
0.0
39
0.0
210
0.0
220
0.0
230
1.0
0
LINE
5
E50
330
D97
100
AcDbEntity
8
TITLEBLOCK
62
154
6
ByLayer
370
0
48
1.0
60
0
100
AcDbLine
10
-0.821260544743124
20
-0.829867783989983
30
0.0
11
-0.81086689735068
21
-0.838962225458366
31
0.0
39
0.0
210
0.0
220
0.0
230
1.0
0
LINE
5
E51
330
D97
100
AcDbEntity
8
TITLEBLOCK
62
154
6
ByLayer
370
0
48
1.0
60
0
100
AcDbLine
10
-0.81086689735068
20
-0.838962225458366
30
0.0
11
-0.797874838110138
21
-0.844321449895092
31
0.0
39
0.0
210
0.0
220
0.0
230
1.0
0
LINE
5
E52
330
D97
100
AcDbEntity
8
TITLEBLOCK
62
154
6
ByLayer
370
0
48
1.0
60
0
100
AcDbLine
10
-0.797874838110138
20
-0.844321449895092
30
0.0
11
-0.782284367021477
21
-0.846107858040668
31
0.0
39
0.0
210
0.0
220
0.0
230
1.0
0
LINE
5
E53
330
D97
100
AcDbEntity
8
TITLEBLOCK
62
154
6
ByLayer
370
0
48
1.0
60
0
100
AcDbLine
10
-0.782284367021477
20
-0.846107858040668
30
0.0
11
-0.650739767210931
21
-0.846107858040668
31
0.0
39
0.0
210
0.0
220
0.0
230
1.0
0
LINE
5
E54
330
D97
100
AcDbEntity
8
TITLEBLOCK
62
154
6
ByLayer
370
0
48
1.0
60
0
100
AcDbLine
10
-0.650739767210931
20
-0.846107858040668
30
0.0
11
-0.645380542774207
21
-0.841723038046983
31
0.0
39
0.0
210
0.0
220
0.0
230
1.0
0
LINE
5
E55
330
D97
100
AcDbEntity
8
TITLEBLOCK
62
154
6
ByLayer
370
0
48
1.0
60
0
100
AcDbLine
10
-0.645380542774207
20
-0.841723038046983
30
0.0
11
-0.645380542774207
21
-0.670227856071754
31
0.0
39
0.0
210
0.0
220
0.0
230
1.0
0
LINE
5
E56
330
D97
100
AcDbEntity
8
TITLEBLOCK
62
154
6
ByLayer
370
0
48
1.0
60
0
100
AcDbLine
10
-0.645380542774207
20
-0.670227856071754
30
0.0
11
-0.650577366470424
21
-0.665843036078068
31
0.0
39
0.0
210
0.0
220
0.0
230
1.0
0
LINE
5
E57
330
D97
100
AcDbEntity
8
TITLEBLOCK
62
154
6
ByLayer
370
0
48
1.0
60
0
100
AcDbLine
10
-0.635636498343798
20
-0.736000155977026
30
0.0
11
-0.635636498343798
21
-0.809567691426627
31
0.0
39
0.0
210
0.0
220
0.0
230
1.0
0
LINE
5
E58
330
D97
100
AcDbEntity
8
TITLEBLOCK
62
154
6
ByLayer
370
0
48
1.0
60
0
100
AcDbLine
10
-0.572300209546126
20
-0.805020470692435
30
0.0
11
-0.572787411767647
21
-0.804858069951929
31
0.0
39
0.0
210
0.0
220
0.0
230
1.0
0
LINE
5
E59
330
D97
100
AcDbEntity
8
TITLEBLOCK
62
154
6
ByLayer
370
0
48
1.0
60
0
100
AcDbLine
10
-0.572787411767647
20
-0.804858069951929
30
0.0
11
-0.583830662122113
21
-0.800635650698751
31
0.0
39
0.0
210
0.0
220
0.0
230
1.0
0
LINE
5
E5A
330
D97
100
AcDbEntity
8
TITLEBLOCK
62
154
6
ByLayer
370
0
48
1.0
60
0
100
AcDbLine
10
-0.583830662122113
20
-0.800635650698751
30
0.0
11
-0.587403478413263
21
-0.787968392939217
31
0.0
39
0.0
210
0.0
220
0.0
230
1.0
0
LINE
5
E5B
330
D97
100
AcDbEntity
8
TITLEBLOCK
62
154
6
ByLayer
370
0
48
1.0
60
0
100
AcDbLine
10
-0.587403478413263
20
-0.787968392939217
30
0.0
11
-0.587403478413263
21
-0.759223461869505
31
0.0
39
0.0
210
0.0
220
0.0
230
1.0
0
LINE
5
E5C
330
D97
100
AcDbEntity
8
TITLEBLOCK
62
154
6
ByLayer
370
0
48
1.0
60
0
100
AcDbLine
10
-0.587403478413263
20
-0.759223461869505
30
0.0
11
-0.586429073970221
21
-0.755975447059368
31
0.0
39
0.0
210
0.0
220
0.0
230
1.0
0
LINE
5
E5D
330
D97
100
AcDbEntity
8
TITLEBLOCK
62
154
6
ByLayer
370
0
48
1.0
60
0
100
AcDbLine
10
-0.586429073970221
20
-0.755975447059368
30
0.0
11
-0.585617070267689
21
-0.751428226325177
31
0.0
39
0.0
210
0.0
220
0.0
230
1.0
0
LINE
5
E5E
330
D97
100
AcDbEntity
8
TITLEBLOCK
62
154
6
ByLayer
370
0
48
1.0
60
0
100
AcDbLine
10
-0.585617070267689
20
-0.751428226325177
30
0.0
11
-0.577821834723357
21
-0.743795391521355
31
0.0
39
0.0
210
0.0
220
0.0
230
1.0
0
LINE
5
E5F
330
D97
100
AcDbEntity
8
TITLEBLOCK
62
154
6
ByLayer
370
0
48
1.0
60
0
100
AcDbLine
10
-0.577821834723357
20
-0.743795391521355
30
0.0
11
-0.561581760672675
21
-0.741359380413752
31
0.0
39
0.0
210
0.0
220
0.0
230
1.0
0
LINE
5
E60
330
D97
100
AcDbEntity
8
TITLEBLOCK
62
154
6
ByLayer
370
0
48
1.0
60
0
100
AcDbLine
10
-0.561581760672675
20
-0.741359380413752
30
0.0
11
-0.537871252558675
21
-0.741359380413752
31
0.0
39
0.0
210
0.0
220
0.0
230
1.0
0
LINE
5
E61
330
D97
100
AcDbEntity
8
TITLEBLOCK
62
154
6
ByLayer
370
0
48
1.0
60
0
100
AcDbLine
10
-0.508801520007952
20
-0.700109592325013
30
0.0
11
-0.591788298406945
21
-0.700109592325013
31
0.0
39
0.0
210
0.0
220
0.0
230
1.0
0
LINE
5
E62
330
D97
100
AcDbEntity
8
TITLEBLOCK
62
154
6
ByLayer
370
0
48
1.0
60
0
100
AcDbLine
10
-0.591788298406945
20
-0.700109592325013
30
0.0
11
-0.604130754685469
21
-0.702058401211095
31
0.0
39
0.0
210
0.0
220
0.0
230
1.0
0
LINE
5
E63
330
D97
100
AcDbEntity
8
TITLEBLOCK
62
154
6
ByLayer
370
0
48
1.0
60
0
100
AcDbLine
10
-0.604130754685469
20
-0.702058401211095
30
0.0
11
-0.617934817628553
21
-0.706930423426301
31
0.0
39
0.0
210
0.0
220
0.0
230
1.0
0
LINE
5
E64
330
D97
100
AcDbEntity
8
TITLEBLOCK
62
154
6
ByLayer
370
0
48
1.0
60
0
100
AcDbLine
10
-0.617934817628553
20
-0.706930423426301
30
0.0
11
-0.627841262799466
21
-0.714238456749108
31
0.0
39
0.0
210
0.0
220
0.0
230
1.0
0
LINE
5
E65
330
D97
100
AcDbEntity
8
TITLEBLOCK
62
154
6
ByLayer
370
0
48
1.0
60
0
100
AcDbLine
10
-0.627841262799466
20
-0.714238456749108
30
0.0
11
-0.633687689457718
21
-0.723982501179519
31
0.0
39
0.0
210
0.0
220
0.0
230
1.0
0
LINE
5
E66
330
D97
100
AcDbEntity
8
TITLEBLOCK
62
154
6
ByLayer
370
0
48
1.0
60
0
100
AcDbLine
10
-0.633687689457718
20
-0.723982501179519
30
0.0
11
-0.635636498343798
21
-0.736000155977026
31
0.0
39
0.0
210
0.0
220
0.0
230
1.0
0
LINE
5
E67
330
D97
100
AcDbEntity
8
TITLEBLOCK
62
154
6
ByLayer
370
0
48
1.0
60
0
100
AcDbLine
10
-0.537871252558675
20
-0.741359380413752
30
0.0
11
-0.529101612571301
21
-0.742008983375779
31
0.0
39
0.0
210
0.0
220
0.0
230
1.0
0
LINE
5
E68
330
D97
100
AcDbEntity
8
TITLEBLOCK
62
154
6
ByLayer
370
0
48
1.0
60
0
100
AcDbLine
10
-0.529101612571301
20
-0.742008983375779
30
0.0
11
-0.517733560735826
21
-0.747368207812505
31
0.0
39
0.0
210
0.0
220
0.0
230
1.0
0
LINE
5
E69
330
D97
100
AcDbEntity
8
TITLEBLOCK
62
154
6
ByLayer
370
0
48
1.0
60
0
100
AcDbLine
10
-0.517733560735826
20
-0.747368207812505
30
0.0
11
-0.513998343704168
21
-0.758249057426464
31
0.0
39
0.0
210
0.0
220
0.0
230
1.0
0
LINE
5
E6A
330
D97
100
AcDbEntity
8
TITLEBLOCK
62
154
6
ByLayer
370
0
48
1.0
60
0
100
AcDbLine
10
-0.513998343704168
20
-0.758249057426464
30
0.0
11
-0.513998343704168
21
-0.805020470692435
31
0.0
39
0.0
210
0.0
220
0.0
230
1.0
0
LINE
5
E6B
330
D97
100
AcDbEntity
8
TITLEBLOCK
62
154
6
ByLayer
370
0
48
1.0
60
0
100
AcDbLine
10
-0.513998343704168
20
-0.805020470692435
30
0.0
11
-0.572300209546126
21
-0.805020470692435
31
0.0
39
0.0
210
0.0
220
0.0
230
1.0
0
LINE
5
E6C
330
D97
100
AcDbEntity
8
TITLEBLOCK
62
154
6
ByLayer
370
0
48
1.0
60
0
100
AcDbLine
10
-0.635636498343798
20
-0.809567691426627
30
0.0
11
-0.633850090198221
21
-0.817687728451969
31
0.0
39
0.0
210
0.0
220
0.0
230
1.0
0
LINE
5
E6D
330
D97
100
AcDbEntity
8
TITLEBLOCK
62
154
6
ByLayer
370
0
48
1.0
60
0
100
AcDbLine
10
-0.633850090198221
20
-0.817687728451969
30
0.0
11
-0.628653266502001
21
-0.830192585470997
31
0.0
39
0.0
210
0.0
220
0.0
230
1.0
0
LINE
5
E6E
330
D97
100
AcDbEntity
8
TITLEBLOCK
62
154
6
ByLayer
370
0
48
1.0
60
0
100
AcDbLine
10
-0.628653266502001
20
-0.830192585470997
30
0.0
11
-0.620533229476658
21
-0.838962225458366
31
0.0
39
0.0
210
0.0
220
0.0
230
1.0
0
LINE
5
E6F
330
D97
100
AcDbEntity
8
TITLEBLOCK
62
154
6
ByLayer
370
0
48
1.0
60
0
100
AcDbLine
10
-0.620533229476658
20
-0.838962225458366
30
0.0
11
-0.6096523798627
21
-0.844321449895092
31
0.0
39
0.0
210
0.0
220
0.0
230
1.0
0
LINE
5
E70
330
D97
100
AcDbEntity
8
TITLEBLOCK
62
154
6
ByLayer
370
0
48
1.0
60
0
100
AcDbLine
10
-0.6096523798627
20
-0.844321449895092
30
0.0
11
-0.595848316919616
21
-0.846107858040668
31
0.0
39
0.0
210
0.0
220
0.0
230
1.0
0
LINE
5
E71
330
D97
100
AcDbEntity
8
TITLEBLOCK
62
154
6
ByLayer
370
0
48
1.0
60
0
100
AcDbLine
10
-0.595848316919616
20
-0.846107858040667
30
0.0
11
-0.47112454821036
21
-0.846107858040667
31
0.0
39
0.0
210
0.0
220
0.0
230
1.0
0
LINE
5
E72
330
D97
100
AcDbEntity
8
TITLEBLOCK
62
154
6
ByLayer
370
0
48
1.0
60
0
100
AcDbLine
10
-0.47112454821036
20
-0.846107858040667
30
0.0
11
-0.46592772451414
21
-0.841723038046982
31
0.0
39
0.0
210
0.0
220
0.0
230
1.0
0
LINE
5
E73
330
D97
100
AcDbEntity
8
TITLEBLOCK
62
154
6
ByLayer
370
0
48
1.0
60
0
100
AcDbLine
10
-0.46592772451414
20
-0.841723038046983
30
0.0
11
-0.46592772451414
21
-0.731128133761821
31
0.0
39
0.0
210
0.0
220
0.0
230
1.0
0
LINE
5
E74
330
D97
100
AcDbEntity
8
TITLEBLOCK
62
154
6
ByLayer
370
0
48
1.0
60
0
100
AcDbLine
10
-0.46592772451414
20
-0.731128133761821
30
0.0
11
-0.466902128957186
21
-0.728042519692191
31
0.0
39
0.0
210
0.0
220
0.0
230
1.0
0
LINE
5
E75
330
D97
100
AcDbEntity
8
TITLEBLOCK
62
154
6
ByLayer
370
0
48
1.0
60
0
100
AcDbLine
10
-0.466902128957186
20
-0.728042519692191
30
0.0
11
-0.473073357096441
21
-0.715862464154177
31
0.0
39
0.0
210
0.0
220
0.0
230
1.0
0
LINE
5
E76
330
D97
100
AcDbEntity
8
TITLEBLOCK
62
154
6
ByLayer
370
0
48
1.0
60
0
100
AcDbLine
10
-0.473073357096441
20
-0.715862464154177
30
0.0
11
-0.482167798564829
21
-0.707092824166808
31
0.0
39
0.0
210
0.0
220
0.0
230
1.0
0
LINE
5
E77
330
D97
100
AcDbEntity
8
TITLEBLOCK
62
154
6
ByLayer
370
0
48
1.0
60
0
100
AcDbLine
10
-0.482167798564829
20
-0.707092824166808
30
0.0
11
-0.494023052621826
21
-0.701896000470589
31
0.0
39
0.0
210
0.0
220
0.0
230
1.0
0
LINE
5
E78
330
D97
100
AcDbEntity
8
TITLEBLOCK
62
154
6
ByLayer
370
0
48
1.0
60
0
100
AcDbLine
10
-0.494023052621826
20
-0.701896000470589
30
0.0
11
-0.508801520007952
21
-0.700109592325013
31
0.0
39
0.0
210
0.0
220
0.0
230
1.0
0
LINE
5
E79
330
D97
100
AcDbEntity
8
TITLEBLOCK
62
154
6
ByLayer
370
0
48
1.0
60
0
100
AcDbLine
10
-0.341041555064374
20
-0.742171384116286
30
0.0
11
-0.329673503228902
21
-0.744932196704903
31
0.0
39
0.0
210
0.0
220
0.0
230
1.0
0
LINE
5
E7A
330
D97
100
AcDbEntity
8
TITLEBLOCK
62
154
6
ByLayer
370
0
48
1.0
60
0
100
AcDbLine
10
-0.329673503228902
20
-0.744932196704903
30
0.0
11
-0.323177473608625
21
-0.755650645578354
31
0.0
39
0.0
210
0.0
220
0.0
230
1.0
0
LINE
5
E7B
330
D97
100
AcDbEntity
8
TITLEBLOCK
62
154
6
ByLayer
370
0
48
1.0
60
0
100
AcDbLine
10
-0.323177473608625
20
-0.755650645578354
30
0.0
11
-0.323177473608625
21
-0.792840415154422
31
0.0
39
0.0
210
0.0
220
0.0
230
1.0
0
LINE
5
E7C
330
D97
100
AcDbEntity
8
TITLEBLOCK
62
154
6
ByLayer
370
0
48
1.0
60
0
100
AcDbLine
10
-0.323177473608625
20
-0.792840415154421
30
0.0
11
-0.323339874349133
21
-0.794464422559489
31
0.0
39
0.0
210
0.0
220
0.0
230
1.0
0
LINE
5
E7D
330
D97
100
AcDbEntity
8
TITLEBLOCK
62
154
6
ByLayer
370
0
48
1.0
60
0
100
AcDbLine
10
-0.323339874349133
20
-0.794464422559489
30
0.0
11
-0.329186301007377
21
-0.803396463287366
31
0.0
39
0.0
210
0.0
220
0.0
230
1.0
0
LINE
5
E7E
330
D97
100
AcDbEntity
8
TITLEBLOCK
62
154
6
ByLayer
370
0
48
1.0
60
0
100
AcDbLine
10
-0.329186301007377
20
-0.803396463287366
30
0.0
11
-0.344614371355528
21
-0.806319676616489
31
0.0
39
0.0
210
0.0
220
0.0
230
1.0
0
LINE
5
E7F
330
D97
100
AcDbEntity
8
TITLEBLOCK
62
154
6
ByLayer
370
0
48
1.0
60
0
100
AcDbLine
10
-0.344614371355528
20
-0.806319676616489
30
0.0
11
-0.402104233494951
21
-0.806319676616489
31
0.0
39
0.0
210
0.0
220
0.0
230
1.0
0
LINE
5
E80
330
D97
100
AcDbEntity
8
TITLEBLOCK
62
154
6
ByLayer
370
0
48
1.0
60
0
100
AcDbLine
10
-0.271534038127447
20
-0.810704496610175
30
0.0
11
-0.271534038127447
21
-0.736000155977026
31
0.0
39
0.0
210
0.0
220
0.0
230
1.0
0
LINE
5
E81
330
D97
100
AcDbEntity
8
TITLEBLOCK
62
154
6
ByLayer
370
0
48
1.0
60
0
100
AcDbLine
10
-0.320091859538996
20
-0.700921596027547
30
0.0
11
-0.449525249722951
21
-0.700921596027547
31
0.0
39
0.0
210
0.0
220
0.0
230
1.0
0
LINE
5
E82
330
D97
100
AcDbEntity
8
TITLEBLOCK
62
154
6
ByLayer
370
0
48
1.0
60
0
100
AcDbLine
10
-0.449525249722951
20
-0.700921596027547
30
0.0
11
-0.454884474159675
21
-0.704981614540219
31
0.0
39
0.0
210
0.0
220
0.0
230
1.0
0
LINE
5
E83
330
D97
100
AcDbEntity
8
TITLEBLOCK
62
154
6
ByLayer
370
0
48
1.0
60
0
100
AcDbLine
10
-0.454884474159675
20
-0.704981614540219
30
0.0
11
-0.454884474159675
21
-0.894665679452214
31
0.0
39
0.0
210
0.0
220
0.0
230
1.0
0
LINE
5
E84
330
D97
100
AcDbEntity
8
TITLEBLOCK
62
154
6
ByLayer
370
0
48
1.0
60
0
100
AcDbLine
10
-0.454884474159675
20
-0.894665679452214
30
0.0
11
-0.449525249722951
21
-0.898888098705392
31
0.0
39
0.0
210
0.0
220
0.0
230
1.0
0
LINE
5
E85
330
D97
100
AcDbEntity
8
TITLEBLOCK
62
154
6
ByLayer
370
0
48
1.0
60
0
100
AcDbLine
10
-0.449525249722951
20
-0.898888098705392
30
0.0
11
-0.408762663855731
21
-0.898888098705392
31
0.0
39
0.0
210
0.0
220
0.0
230
1.0
0
LINE
5
E86
330
D97
100
AcDbEntity
8
TITLEBLOCK
62
154
6
ByLayer
370
0
48
1.0
60
0
100
AcDbLine
10
-0.408762663855731
20
-0.898888098705392
30
0.0
11
-0.403403439419003
21
-0.894665679452214
31
0.0
39
0.0
210
0.0
220
0.0
230
1.0
0
LINE
5
E87
330
D97
100
AcDbEntity
8
TITLEBLOCK
62
154
6
ByLayer
370
0
48
1.0
60
0
100
AcDbLine
10
-0.403403439419003
20
-0.894665679452214
30
0.0
11
-0.403403439419003
21
-0.846757461002694
31
0.0
39
0.0
210
0.0
220
0.0
230
1.0
0
LINE
5
E88
330
D97
100
AcDbEntity
8
TITLEBLOCK
62
154
6
ByLayer
370
0
48
1.0
60
0
100
AcDbLine
10
-0.403403439419003
20
-0.846757461002694
30
0.0
11
-0.316681443988353
21
-0.846757461002694
31
0.0
39
0.0
210
0.0
220
0.0
230
1.0
0
LINE
5
E89
330
D97
100
AcDbEntity
8
TITLEBLOCK
62
154
6
ByLayer
370
0
48
1.0
60
0
100
AcDbLine
10
-0.316681443988353
20
-0.846757461002694
30
0.0
11
-0.30498859067186
21
-0.845783056559653
31
0.0
39
0.0
210
0.0
220
0.0
230
1.0
0
LINE
5
E8A
330
D97
100
AcDbEntity
8
TITLEBLOCK
62
154
6
ByLayer
370
0
48
1.0
60
0
100
AcDbLine
10
-0.30498859067186
20
-0.845783056559653
30
0.0
11
-0.292321332912325
21
-0.841723038046982
31
0.0
39
0.0
210
0.0
220
0.0
230
1.0
0
LINE
5
E8B
330
D97
100
AcDbEntity
8
TITLEBLOCK
62
154
6
ByLayer
370
0
48
1.0
60
0
100
AcDbLine
10
-0.292321332912325
20
-0.841723038046982
30
0.0
11
-0.282577288481915
21
-0.834577405464681
31
0.0
39
0.0
210
0.0
220
0.0
230
1.0
0
LINE
5
E8C
330
D97
100
AcDbEntity
8
TITLEBLOCK
62
154
6
ByLayer
370
0
48
1.0
60
0
100
AcDbLine
10
-0.282577288481915
20
-0.834577405464681
30
0.0
11
-0.275594056640118
21
-0.824183758072243
31
0.0
39
0.0
210
0.0
220
0.0
230
1.0
0
LINE
5
E8D
330
D97
100
AcDbEntity
8
TITLEBLOCK
62
154
6
ByLayer
370
0
48
1.0
60
0
100
AcDbLine
10
-0.275594056640118
20
-0.824183758072243
30
0.0
11
-0.271534038127447
21
-0.810704496610174
31
0.0
39
0.0
210
0.0
220
0.0
230
1.0
0
LINE
5
E8E
330
D97
100
AcDbEntity
8
TITLEBLOCK
62
154
6
ByLayer
370
0
48
1.0
60
0
100
AcDbLine
10
-0.402104233494951
20
-0.80631967661649
30
0.0
11
-0.402104233494951
21
-0.742171384116286
31
0.0
39
0.0
210
0.0
220
0.0
230
1.0
0
LINE
5
E8F
330
D97
100
AcDbEntity
8
TITLEBLOCK
62
154
6
ByLayer
370
0
48
1.0
60
0
100
AcDbLine
10
-0.402104233494951
20
-0.742171384116286
30
0.0
11
-0.341041555064374
21
-0.742171384116286
31
0.0
39
0.0
210
0.0
220
0.0
230
1.0
0
LINE
5
E90
330
D97
100
AcDbEntity
8
TITLEBLOCK
62
154
6
ByLayer
370
0
48
1.0
60
0
100
AcDbLine
10
-0.271534038127447
20
-0.736000155977026
30
0.0
11
-0.274132449975559
21
-0.723982501179519
31
0.0
39
0.0
210
0.0
220
0.0
230
1.0
0
LINE
5
E91
330
D97
100
AcDbEntity
8
TITLEBLOCK
62
154
6
ByLayer
370
0
48
1.0
60
0
100
AcDbLine
10
-0.274132449975559
20
-0.723982501179519
30
0.0
11
-0.280303678114818
21
-0.715537662673163
31
0.0
39
0.0
210
0.0
220
0.0
230
1.0
0
LINE
5
E92
330
D97
100
AcDbEntity
8
TITLEBLOCK
62
154
6
ByLayer
370
0
48
1.0
60
0
100
AcDbLine
10
-0.280303678114818
20
-0.715537662673163
30
0.0
11
-0.290859726247758
21
-0.707417625647821
31
0.0
39
0.0
210
0.0
220
0.0
230
1.0
0
LINE
5
E93
330
D97
100
AcDbEntity
8
TITLEBLOCK
62
154
6
ByLayer
370
0
48
1.0
60
0
100
AcDbLine
10
-0.290859726247758
20
-0.707417625647821
30
0.0
11
-0.304176586969321
21
-0.702545603432616
31
0.0
39
0.0
210
0.0
220
0.0
230
1.0
0
LINE
5
E94
330
D97
100
AcDbEntity
8
TITLEBLOCK
62
154
6
ByLayer
370
0
48
1.0
60
0
100
AcDbLine
10
-0.304176586969321
20
-0.702545603432616
30
0.0
11
-0.320091859538996
21
-0.700921596027547
31
0.0
39
0.0
210
0.0
220
0.0
230
1.0
0
LINE
5
E95
330
D97
100
AcDbEntity
8
TITLEBLOCK
62
154
6
ByLayer
370
0
48
1.0
60
0
100
AcDbLine
10
-0.1684095679056
20
-0.665193433116041
30
0.0
11
-0.216642587836135
21
-0.665193433116041
31
0.0
39
0.0
210
0.0
220
0.0
230
1.0
0
LINE
5
E96
330
D97
100
AcDbEntity
8
TITLEBLOCK
62
154
6
ByLayer
370
0
48
1.0
60
0
100
AcDbLine
10
-0.216642587836135
20
-0.665193433116041
30
0.0
11
-0.216642587836135
21
-0.699947191584506
31
0.0
39
0.0
210
0.0
220
0.0
230
1.0
0
LINE
5
E97
330
D97
100
AcDbEntity
8
TITLEBLOCK
62
154
6
ByLayer
370
0
48
1.0
60
0
100
AcDbLine
10
-0.216642587836135
20
-0.699947191584506
30
0.0
11
-0.259841184810954
21
-0.699947191584506
31
0.0
39
0.0
210
0.0
220
0.0
230
1.0
0
LINE
5
E98
330
D97
100
AcDbEntity
8
TITLEBLOCK
62
154
6
ByLayer
370
0
48
1.0
60
0
100
AcDbLine
10
-0.259841184810954
20
-0.699947191584506
30
0.0
11
-0.259841184810954
21
-0.740060174489697
31
0.0
39
0.0
210
0.0
220
0.0
230
1.0
0
LINE
5
E99
330
D97
100
AcDbEntity
8
TITLEBLOCK
62
154
6
ByLayer
370
0
48
1.0
60
0
100
AcDbLine
10
-0.259841184810954
20
-0.740060174489697
30
0.0
11
-0.216642587836135
21
-0.740060174489697
31
0.0
39
0.0
210
0.0
220
0.0
230
1.0
0
LINE
5
E9A
330
D97
100
AcDbEntity
8
TITLEBLOCK
62
154
6
ByLayer
370
0
48
1.0
60
0
100
AcDbLine
10
-0.216642587836135
20
-0.740060174489697
30
0.0
11
-0.216642587836135
21
-0.845295854338133
31
0.0
39
0.0
210
0.0
220
0.0
230
1.0
0
LINE
5
E9B
330
D97
100
AcDbEntity
8
TITLEBLOCK
62
154
6
ByLayer
370
0
48
1.0
60
0
100
AcDbLine
10
-0.216642587836135
20
-0.845295854338132
30
0.0
11
-0.1684095679056
21
-0.845295854338132
31
0.0
39
0.0
210
0.0
220
0.0
230
1.0
0
LINE
5
E9C
330
D97
100
AcDbEntity
8
TITLEBLOCK
62
154
6
ByLayer
370
0
48
1.0
60
0
100
AcDbLine
10
-0.1684095679056
20
-0.845295854338133
30
0.0
11
-0.1684095679056
21
-0.740060174489697
31
0.0
39
0.0
210
0.0
220
0.0
230
1.0
0
LINE
5
E9D
330
D97
100
AcDbEntity
8
TITLEBLOCK
62
154
6
ByLayer
370
0
48
1.0
60
0
100
AcDbLine
10
-0.1684095679056
20
-0.740060174489697
30
0.0
11
-0.125210970930778
21
-0.740060174489697
31
0.0
39
0.0
210
0.0
220
0.0
230
1.0
0
LINE
5
E9E
330
D97
100
AcDbEntity
8
TITLEBLOCK
62
154
6
ByLayer
370
0
48
1.0
60
0
100
AcDbLine
10
-0.125210970930778
20
-0.740060174489697
30
0.0
11
-0.125210970930778
21
-0.699947191584506
31
0.0
39
0.0
210
0.0
220
0.0
230
1.0
0
LINE
5
E9F
330
D97
100
AcDbEntity
8
TITLEBLOCK
62
154
6
ByLayer
370
0
48
1.0
60
0
100
AcDbLine
10
-0.125210970930778
20
-0.699947191584506
30
0.0
11
-0.1684095679056
21
-0.699947191584506
31
0.0
39
0.0
210
0.0
220
0.0
230
1.0
0
LINE
5
EA0
330
D97
100
AcDbEntity
8
TITLEBLOCK
62
154
6
ByLayer
370
0
48
1.0
60
0
100
AcDbLine
10
-0.1684095679056
20
-0.699947191584506
30
0.0
11
-0.1684095679056
21
-0.665193433116041
31
0.0
39
0.0
210
0.0
220
0.0
230
1.0
0
LINE
5
EA1
330
D97
100
AcDbEntity
8
TITLEBLOCK
62
154
6
ByLayer
370
0
48
1.0
60
0
100
AcDbLine
10
-0.0012992059240577
20
-0.741846582635273
30
0.0
11
0.0108808496139599
21
-0.745256998185916
31
0.0
39
0.0
210
0.0
220
0.0
230
1.0
0
LINE
5
EA2
330
D97
100
AcDbEntity
8
TITLEBLOCK
62
154
6
ByLayer
370
0
48
1.0
60
0
100
AcDbLine
10
0.0108808496139599
20
-0.745256998185916
30
0.0
11
0.0159152725696696
21
-0.752565031508724
31
0.0
39
0.0
210
0.0
220
0.0
230
1.0
0
LINE
5
EA3
330
D97
100
AcDbEntity
8
TITLEBLOCK
62
154
6
ByLayer
370
0
48
1.0
60
0
100
AcDbLine
10
0.0159152725696696
20
-0.752565031508724
30
0.0
11
-0.0630114873166594
21
-0.752565031508724
31
0.0
39
0.0
210
0.0
220
0.0
230
1.0
0
LINE
5
EA4
330
D97
100
AcDbEntity
8
TITLEBLOCK
62
154
6
ByLayer
370
0
48
1.0
60
0
100
AcDbLine
10
0.0678835095318622
20
-0.791054007008847
30
0.0
11
0.0678835095318622
21
-0.740222575230204
31
0.0
39
0.0
210
0.0
220
0.0
230
1.0
0
LINE
5
EA5
330
D97
100
AcDbEntity
8
TITLEBLOCK
62
154
6
ByLayer
370
0
48
1.0
60
0
100
AcDbLine
10
0.0232233058924738
20
-0.700921596027547
30
0.0
11
-0.0665843036078062
21
-0.700921596027547
31
0.0
39
0.0
210
0.0
220
0.0
230
1.0
0
LINE
5
EA6
330
D97
100
AcDbEntity
8
TITLEBLOCK
62
154
6
ByLayer
370
0
48
1.0
60
0
100
AcDbLine
10
-0.0665843036078062
20
-0.700921596027547
30
0.0
11
-0.0745419398926419
21
-0.701246397508561
31
0.0
39
0.0
210
0.0
220
0.0
230
1.0
0
LINE
5
EA7
330
D97
100
AcDbEntity
8
TITLEBLOCK
62
154
6
ByLayer
370
0
48
1.0
60
0
100
AcDbLine
10
-0.0745419398926419
20
-0.701246397508561
30
0.0
11
-0.0898076095002889
21
-0.704819213799711
31
0.0
39
0.0
210
0.0
220
0.0
230
1.0
0
LINE
5
EA8
330
D97
100
AcDbEntity
8
TITLEBLOCK
62
154
6
ByLayer
370
0
48
1.0
60
0
100
AcDbLine
10
-0.0898076095002889
20
-0.704819213799711
30
0.0
11
-0.0941924294939742
21
-0.706605621945287
31
0.0
39
0.0
210
0.0
220
0.0
230
1.0
0
LINE
5
EA9
330
D97
100
AcDbEntity
8
TITLEBLOCK
62
154
6
ByLayer
370
0
48
1.0
60
0
100
AcDbLine
10
-0.0941924294939742
20
-0.706605621945287
30
0.0
11
-0.10556048132945
21
-0.714400857489615
31
0.0
39
0.0
210
0.0
220
0.0
230
1.0
0
LINE
5
EAA
330
D97
100
AcDbEntity
8
TITLEBLOCK
62
154
6
ByLayer
370
0
48
1.0
60
0
100
AcDbLine
10
-0.10556048132945
20
-0.714400857489615
30
0.0
11
-0.11238131243074
21
-0.724632104141547
31
0.0
39
0.0
210
0.0
220
0.0
230
1.0
0
LINE
5
EAB
330
D97
100
AcDbEntity
8
TITLEBLOCK
62
154
6
ByLayer
370
0
48
1.0
60
0
100
AcDbLine
10
-0.11238131243074
20
-0.724632104141547
30
0.0
11
-0.114654922797831
21
-0.737461762641587
31
0.0
39
0.0
210
0.0
220
0.0
230
1.0
0
LINE
5
EAC
330
D97
100
AcDbEntity
8
TITLEBLOCK
62
154
6
ByLayer
370
0
48
1.0
60
0
100
AcDbLine
10
-0.114654922797831
20
-0.737461762641587
30
0.0
11
-0.114654922797831
21
-0.807618882540545
31
0.0
39
0.0
210
0.0
220
0.0
230
1.0
0
LINE
5
EAD
330
D97
100
AcDbEntity
8
TITLEBLOCK
62
154
6
ByLayer
370
0
48
1.0
60
0
100
AcDbLine
10
-0.114654922797831
20
-0.807618882540544
30
0.0
11
-0.114654922797831
21
-0.807943684021558
31
0.0
39
0.0
210
0.0
220
0.0
230
1.0
0
LINE
5
EAE
330
D97
100
AcDbEntity
8
TITLEBLOCK
62
154
6
ByLayer
370
0
48
1.0
60
0
100
AcDbLine
10
-0.114654922797831
20
-0.807943684021558
30
0.0
11
-0.112218911690233
21
-0.820610941781092
31
0.0
39
0.0
210
0.0
220
0.0
230
1.0
0
LINE
5
EAF
330
D97
100
AcDbEntity
8
TITLEBLOCK
62
154
6
ByLayer
370
0
48
1.0
60
0
100
AcDbLine
10
-0.112218911690233
20
-0.820610941781092
30
0.0
11
-0.107509290215534
21
-0.829380581768462
31
0.0
39
0.0
210
0.0
220
0.0
230
1.0
0
LINE
5
EB0
330
D97
100
AcDbEntity
8
TITLEBLOCK
62
154
6
ByLayer
370
0
48
1.0
60
0
100
AcDbLine
10
-0.107509290215534
20
-0.829380581768462
30
0.0
11
-0.098414848747149
21
-0.838637423977352
31
0.0
39
0.0
210
0.0
220
0.0
230
1.0
0
LINE
5
EB1
330
D97
100
AcDbEntity
8
TITLEBLOCK
62
154
6
ByLayer
370
0
48
1.0
60
0
100
AcDbLine
10
-0.098414848747149
20
-0.838637423977352
30
0.0
11
-0.086397193949642
21
-0.844321449895091
31
0.0
39
0.0
210
0.0
220
0.0
230
1.0
0
LINE
5
EB2
330
D97
100
AcDbEntity
8
TITLEBLOCK
62
154
6
ByLayer
370
0
48
1.0
60
0
100
AcDbLine
10
-0.086397193949642
20
-0.844321449895091
30
0.0
11
-0.0712939250825091
21
-0.846107858040667
31
0.0
39
0.0
210
0.0
220
0.0
230
1.0
0
LINE
5
EB3
330
D97
100
AcDbEntity
8
TITLEBLOCK
62
154
6
ByLayer
370
0
48
1.0
60
0
100
AcDbLine
10
-0.0712939250825091
20
-0.846107858040668
30
0.0
11
0.0211120962658864
21
-0.846107858040668
31
0.0
39
0.0
210
0.0
220
0.0
230
1.0
0
LINE
5
EB4
330
D97
100
AcDbEntity
8
TITLEBLOCK
62
154
6
ByLayer
370
0
48
1.0
60
0
100
AcDbLine
10
0.0211120962658864
20
-0.846107858040668
30
0.0
11
0.0360529643925194
21
-0.843671846933065
31
0.0
39
0.0
210
0.0
220
0.0
230
1.0
0
LINE
5
EB5
330
D97
100
AcDbEntity
8
TITLEBLOCK
62
154
6
ByLayer
370
0
48
1.0
60
0
100
AcDbLine
10
0.0360529643925194
20
-0.843671846933065
30
0.0
11
0.0500194280761139
21
-0.838637423977353
31
0.0
39
0.0
210
0.0
220
0.0
230
1.0
0
LINE
5
EB6
330
D97
100
AcDbEntity
8
TITLEBLOCK
62
154
6
ByLayer
370
0
48
1.0
60
0
100
AcDbLine
10
0.0500194280761139
20
-0.838637423977353
30
0.0
11
0.0599258732470265
21
-0.831491791395051
31
0.0
39
0.0
210
0.0
220
0.0
230
1.0
0
LINE
5
EB7
330
D97
100
AcDbEntity
8
TITLEBLOCK
62
154
6
ByLayer
370
0
48
1.0
60
0
100
AcDbLine
10
0.0599258732470265
20
-0.831491791395051
30
0.0
11
0.0659347006457782
21
-0.822072548445654
31
0.0
39
0.0
210
0.0
220
0.0
230
1.0
0
LINE
5
EB8
330
D97
100
AcDbEntity
8
TITLEBLOCK
62
154
6
ByLayer
370
0
48
1.0
60
0
100
AcDbLine
10
0.0659347006457782
20
-0.822072548445654
30
0.0
11
0.0678835095318622
21
-0.810542095869669
31
0.0
39
0.0
210
0.0
220
0.0
230
1.0
0
LINE
5
EB9
330
D97
100
AcDbEntity
8
TITLEBLOCK
62
154
6
ByLayer
370
0
48
1.0
60
0
100
AcDbLine
10
0.0678835095318622
20
-0.810542095869669
30
0.0
11
0.0623618843546279
21
-0.805182871432942
31
0.0
39
0.0
210
0.0
220
0.0
230
1.0
0
LINE
5
EBA
330
D97
100
AcDbEntity
8
TITLEBLOCK
62
154
6
ByLayer
370
0
48
1.0
60
0
100
AcDbLine
10
0.0623618843546279
20
-0.805182871432942
30
0.0
11
-0.0422241925317781
21
-0.805182871432942
31
0.0
39
0.0
210
0.0
220
0.0
230
1.0
0
LINE
5
EBB
330
D97
100
AcDbEntity
8
TITLEBLOCK
62
154
6
ByLayer
370
0
48
1.0
60
0
100
AcDbLine
10
-0.0422241925317781
20
-0.805182871432942
30
0.0
11
-0.0571650606584076
21
-0.802584459584832
31
0.0
39
0.0
210
0.0
220
0.0
230
1.0
0
LINE
5
EBC
330
D97
100
AcDbEntity
8
TITLEBLOCK
62
154
6
ByLayer
370
0
48
1.0
60
0
100
AcDbLine
10
-0.0571650606584076
20
-0.802584459584832
30
0.0
11
-0.0634986895381768
21
-0.795438827002531
31
0.0
39
0.0
210
0.0
220
0.0
230
1.0
0
LINE
5
EBD
330
D97
100
AcDbEntity
8
TITLEBLOCK
62
154
6
ByLayer
370
0
48
1.0
60
0
100
AcDbLine
10
-0.0634986895381768
20
-0.795438827002532
30
0.0
11
0.0623618843546279
21
-0.795438827002532
31
0.0
39
0.0
210
0.0
220
0.0
230
1.0
0
LINE
5
EBE
330
D97
100
AcDbEntity
8
TITLEBLOCK
62
154
6
ByLayer
370
0
48
1.0
60
0
100
AcDbLine
10
0.0623618843546279
20
-0.795438827002532
30
0.0
11
0.0678835095318622
21
-0.791054007008847
31
0.0
39
0.0
210
0.0
220
0.0
230
1.0
0
LINE
5
EBF
330
D97
100
AcDbEntity
8
TITLEBLOCK
62
154
6
ByLayer
370
0
48
1.0
60
0
100
AcDbLine
10
-0.0630114873166594
20
-0.752565031508724
30
0.0
11
-0.0602506747280405
21
-0.746718604850478
31
0.0
39
0.0
210
0.0
220
0.0
230
1.0
0
LINE
5
EC0
330
D97
100
AcDbEntity
8
TITLEBLOCK
62
154
6
ByLayer
370
0
48
1.0
60
0
100
AcDbLine
10
-0.0602506747280405
20
-0.746718604850478
30
0.0
11
-0.0482330199305334
21
-0.741846582635273
31
0.0
39
0.0
210
0.0
220
0.0
230
1.0
0
LINE
5
EC1
330
D97
100
AcDbEntity
8
TITLEBLOCK
62
154
6
ByLayer
370
0
48
1.0
60
0
100
AcDbLine
10
-0.0482330199305334
20
-0.741846582635273
30
0.0
11
-0.0012992059240577
21
-0.741846582635273
31
0.0
39
0.0
210
0.0
220
0.0
230
1.0
0
LINE
5
EC2
330
D97
100
AcDbEntity
8
TITLEBLOCK
62
154
6
ByLayer
370
0
48
1.0
60
0
100
AcDbLine
10
0.0678835095318622
20
-0.740222575230204
30
0.0
11
0.0678835095318622
21
-0.739897773749191
31
0.0
39
0.0
210
0.0
220
0.0
230
1.0
0
LINE
5
EC3
330
D97
100
AcDbEntity
8
TITLEBLOCK
62
154
6
ByLayer
370
0
48
1.0
60
0
100
AcDbLine
10
0.0678835095318622
20
-0.739897773749191
30
0.0
11
0.0644730939812117
21
-0.725768909325095
31
0.0
39
0.0
210
0.0
220
0.0
230
1.0
0
LINE
5
EC4
330
D97
100
AcDbEntity
8
TITLEBLOCK
62
154
6
ByLayer
370
0
48
1.0
60
0
100
AcDbLine
10
0.0644730939812117
20
-0.725768909325095
30
0.0
11
0.0583018658419601
21
-0.714888059711136
31
0.0
39
0.0
210
0.0
220
0.0
230
1.0
0
LINE
5
EC5
330
D97
100
AcDbEntity
8
TITLEBLOCK
62
154
6
ByLayer
370
0
48
1.0
60
0
100
AcDbLine
10
0.0583018658419601
20
-0.714888059711136
30
0.0
11
0.0493698251140824
21
-0.707092824166808
31
0.0
39
0.0
210
0.0
220
0.0
230
1.0
0
LINE
5
EC6
330
D97
100
AcDbEntity
8
TITLEBLOCK
62
154
6
ByLayer
370
0
48
1.0
60
0
100
AcDbLine
10
0.0493698251140824
20
-0.707092824166808
30
0.0
11
0.0376769717975893
21
-0.702383202692109
31
0.0
39
0.0
210
0.0
220
0.0
230
1.0
0
LINE
5
EC7
330
D97
100
AcDbEntity
8
TITLEBLOCK
62
154
6
ByLayer
370
0
48
1.0
60
0
100
AcDbLine
10
0.0376769717975893
20
-0.702383202692109
30
0.0
11
0.0232233058924738
21
-0.700921596027547
31
0.0
39
0.0
210
0.0
220
0.0
230
1.0
0
LINE
5
EC8
330
D97
100
AcDbEntity
8
TITLEBLOCK
62
154
6
ByLayer
370
0
48
1.0
60
0
100
AcDbLine
10
0.169059170867625
20
-0.702545603432616
30
0.0
11
0.085747590987614
21
-0.702545603432616
31
0.0
39
0.0
210
0.0
220
0.0
230
1.0
0
LINE
5
EC9
330
D97
100
AcDbEntity
8
TITLEBLOCK
62
154
6
ByLayer
370
0
48
1.0
60
0
100
AcDbLine
10
0.085747590987614
20
-0.702545603432616
30
0.0
11
0.0803883665508867
21
-0.706605621945287
31
0.0
39
0.0
210
0.0
220
0.0
230
1.0
0
LINE
5
ECA
330
D97
100
AcDbEntity
8
TITLEBLOCK
62
154
6
ByLayer
370
0
48
1.0
60
0
100
AcDbLine
10
0.0803883665508867
20
-0.706605621945287
30
0.0
11
0.0803883665508867
21
-0.841723038046983
31
0.0
39
0.0
210
0.0
220
0.0
230
1.0
0
LINE
5
ECB
330
D97
100
AcDbEntity
8
TITLEBLOCK
62
154
6
ByLayer
370
0
48
1.0
60
0
100
AcDbLine
10
0.0803883665508867
20
-0.841723038046983
30
0.0
11
0.085747590987614
21
-0.846107858040668
31
0.0
39
0.0
210
0.0
220
0.0
230
1.0
0
LINE
5
ECC
330
D97
100
AcDbEntity
8
TITLEBLOCK
62
154
6
ByLayer
370
0
48
1.0
60
0
100
AcDbLine
10
0.085747590987614
20
-0.846107858040668
30
0.0
11
0.1256981731523
21
-0.846107858040668
31
0.0
39
0.0
210
0.0
220
0.0
230
1.0
0
LINE
5
ECD
330
D97
100
AcDbEntity
8
TITLEBLOCK
62
154
6
ByLayer
370
0
48
1.0
60
0
100
AcDbLine
10
0.1256981731523
20
-0.846107858040668
30
0.0
11
0.131057397589023
21
-0.841723038046983
31
0.0
39
0.0
210
0.0
220
0.0
230
1.0
0
LINE
5
ECE
330
D97
100
AcDbEntity
8
TITLEBLOCK
62
154
6
ByLayer
370
0
48
1.0
60
0
100
AcDbLine
10
0.131057397589023
20
-0.841723038046983
30
0.0
11
0.131057397589023
21
-0.758086656685957
31
0.0
39
0.0
210
0.0
220
0.0
230
1.0
0
LINE
5
ECF
330
D97
100
AcDbEntity
8
TITLEBLOCK
62
154
6
ByLayer
370
0
48
1.0
60
0
100
AcDbLine
10
0.131057397589023
20
-0.758086656685957
30
0.0
11
0.136091820544733
21
-0.747043406331491
31
0.0
39
0.0
210
0.0
220
0.0
230
1.0
0
LINE
5
ED0
330
D97
100
AcDbEntity
8
TITLEBLOCK
62
154
6
ByLayer
370
0
48
1.0
60
0
100
AcDbLine
10
0.136091820544733
20
-0.747043406331491
30
0.0
11
0.148271876082747
21
-0.74298338781882
31
0.0
39
0.0
210
0.0
220
0.0
230
1.0
0
LINE
5
ED1
330
D97
100
AcDbEntity
8
TITLEBLOCK
62
154
6
ByLayer
370
0
48
1.0
60
0
100
AcDbLine
10
0.148271876082747
20
-0.74298338781882
30
0.0
11
0.168896770127118
21
-0.74298338781882
31
0.0
39
0.0
210
0.0
220
0.0
230
1.0
0
LINE
5
ED2
330
D97
100
AcDbEntity
8
TITLEBLOCK
62
154
6
ByLayer
370
0
48
1.0
60
0
100
AcDbLine
10
0.168896770127118
20
-0.74298338781882
30
0.0
11
0.174255994563849
21
-0.738760968565643
31
0.0
39
0.0
210
0.0
220
0.0
230
1.0
0
LINE
5
ED3
330
D97
100
AcDbEntity
8
TITLEBLOCK
62
154
6
ByLayer
370
0
48
1.0
60
0
100
AcDbLine
10
0.174255994563849
20
-0.738760968565643
30
0.0
11
0.174255994563849
21
-0.706768022685794
31
0.0
39
0.0
210
0.0
220
0.0
230
1.0
0
LINE
5
ED4
330
D97
100
AcDbEntity
8
TITLEBLOCK
62
154
6
ByLayer
370
0
48
1.0
60
0
100
AcDbLine
10
0.174255994563849
20
-0.706768022685794
30
0.0
11
0.169059170867625
21
-0.702545603432616
31
0.0
39
0.0
210
0.0
220
0.0
230
1.0
0
LINE
5
ED5
330
D97
100
AcDbEntity
8
TITLEBLOCK
62
154
6
ByLayer
370
0
48
1.0
60
0
100
AcDbLine
10
0.378718526861961
20
-0.70595601898326
30
0.0
11
0.387975369070857
21
-0.708716831571876
31
0.0
39
0.0
210
0.0
220
0.0
230
1.0
0
LINE
5
ED6
330
D97
100
AcDbEntity
8
TITLEBLOCK
62
154
6
ByLayer
370
0
48
1.0
60
0
100
AcDbLine
10
0.387975369070857
20
-0.708716831571876
30
0.0
11
0.393984196469605
21
-0.720247284147862
31
0.0
39
0.0
210
0.0
220
0.0
230
1.0
0
LINE
5
ED7
330
D97
100
AcDbEntity
8
TITLEBLOCK
62
154
6
ByLayer
370
0
48
1.0
60
0
100
AcDbLine
10
0.393984196469605
20
-0.720247284147862
30
0.0
11
0.390248979437951
21
-0.729341725616245
31
0.0
39
0.0
210
0.0
220
0.0
230
1.0
0
LINE
5
ED8
330
D97
100
AcDbEntity
8
TITLEBLOCK
62
154
6
ByLayer
370
0
48
1.0
60
0
100
AcDbLine
10
0.390248979437951
20
-0.729341725616245
30
0.0
11
0.376282515754367
21
-0.734213747831451
31
0.0
39
0.0
210
0.0
220
0.0
230
1.0
0
LINE
5
ED9
330
D97
100
AcDbEntity
8
TITLEBLOCK
62
154
6
ByLayer
370
0
48
1.0
60
0
100
AcDbLine
10
0.376282515754367
20
-0.734213747831451
30
0.0
11
0.313920631399734
21
-0.734213747831451
31
0.0
39
0.0
210
0.0
220
0.0
230
1.0
0
LINE
5
EDA
330
D97
100
AcDbEntity
8
TITLEBLOCK
62
154
6
ByLayer
370
0
48
1.0
60
0
100
AcDbLine
10
0.443516422324196
20
-0.745419398926423
30
0.0
11
0.445140429729269
21
-0.731290534502327
31
0.0
39
0.0
210
0.0
220
0.0
230
1.0
0
LINE
5
EDB
330
D97
100
AcDbEntity
8
TITLEBLOCK
62
154
6
ByLayer
370
0
48
1.0
60
0
100
AcDbLine
10
0.445140429729269
20
-0.731290534502327
30
0.0
11
0.445140429729269
21
-0.711802445641506
31
0.0
39
0.0
210
0.0
220
0.0
230
1.0
0
LINE
5
EDC
330
D97
100
AcDbEntity
8
TITLEBLOCK
62
154
6
ByLayer
370
0
48
1.0
60
0
100
AcDbLine
10
0.445140429729269
20
-0.711802445641506
30
0.0
11
0.445140429729269
21
-0.710340838976945
31
0.0
39
0.0
210
0.0
220
0.0
230
1.0
0
LINE
5
EDD
330
D97
100
AcDbEntity
8
TITLEBLOCK
62
154
6
ByLayer
370
0
48
1.0
60
0
100
AcDbLine
10
0.445140429729269
20
-0.710340838976945
30
0.0
11
0.443841223805206
21
-0.694912768628794
31
0.0
39
0.0
210
0.0
220
0.0
230
1.0
0
LINE
5
EDE
330
D97
100
AcDbEntity
8
TITLEBLOCK
62
154
6
ByLayer
370
0
48
1.0
60
0
100
AcDbLine
10
0.396095406096199
20
-0.665193433116041
30
0.0
11
0.2681236225768
21
-0.665193433116041
31
0.0
39
0.0
210
0.0
220
0.0
230
1.0
0
LINE
5
EDF
330
D97
100
AcDbEntity
8
TITLEBLOCK
62
154
6
ByLayer
370
0
48
1.0
60
0
100
AcDbLine
10
0.2681236225768
20
-0.665193433116041
30
0.0
11
0.262764398140076
21
-0.669253451628713
31
0.0
39
0.0
210
0.0
220
0.0
230
1.0
0
LINE
5
EE0
330
D97
100
AcDbEntity
8
TITLEBLOCK
62
154
6
ByLayer
370
0
48
1.0
60
0
100
AcDbLine
10
0.262764398140076
20
-0.669253451628713
30
0.0
11
0.262764398140076
21
-0.841723038046983
31
0.0
39
0.0
210
0.0
220
0.0
230
1.0
0
LINE
5
EE1
330
D97
100
AcDbEntity
8
TITLEBLOCK
62
154
6
ByLayer
370
0
48
1.0
60
0
100
AcDbLine
10
0.262764398140076
20
-0.841723038046983
30
0.0
11
0.2681236225768
21
-0.846107858040668
31
0.0
39
0.0
210
0.0
220
0.0
230
1.0
0
LINE
5
EE2
330
D97
100
AcDbEntity
8
TITLEBLOCK
62
154
6
ByLayer
370
0
48
1.0
60
0
100
AcDbLine
10
0.2681236225768
20
-0.846107858040668
30
0.0
11
0.30856140696301
21
-0.846107858040668
31
0.0
39
0.0
210
0.0
220
0.0
230
1.0
0
LINE
5
EE3
330
D97
100
AcDbEntity
8
TITLEBLOCK
62
154
6
ByLayer
370
0
48
1.0
60
0
100
AcDbLine
10
0.30856140696301
20
-0.846107858040668
30
0.0
11
0.313920631399734
21
-0.841723038046983
31
0.0
39
0.0
210
0.0
220
0.0
230
1.0
0
LINE
5
EE4
330
D97
100
AcDbEntity
8
TITLEBLOCK
62
154
6
ByLayer
370
0
48
1.0
60
0
100
AcDbLine
10
0.313920631399734
20
-0.841723038046983
30
0.0
11
0.313920631399734
21
-0.828893379546942
31
0.0
39
0.0
210
0.0
220
0.0
230
1.0
0
LINE
5
EE5
330
D97
100
AcDbEntity
8
TITLEBLOCK
62
154
6
ByLayer
370
0
48
1.0
60
0
100
AcDbLine
10
0.313920631399734
20
-0.828893379546942
30
0.0
11
0.313920631399734
21
-0.828243776584914
31
0.0
39
0.0
210
0.0
220
0.0
230
1.0
0
LINE
5
EE6
330
D97
100
AcDbEntity
8
TITLEBLOCK
62
154
6
ByLayer
370
0
48
1.0
60
0
100
AcDbLine
10
0.313920631399734
20
-0.828243776584914
30
0.0
11
0.314083032140237
21
-0.818174930673489
31
0.0
39
0.0
210
0.0
220
0.0
230
1.0
0
LINE
5
EE7
330
D97
100
AcDbEntity
8
TITLEBLOCK
62
154
6
ByLayer
370
0
48
1.0
60
0
100
AcDbLine
10
0.314083032140237
20
-0.818174930673489
30
0.0
11
0.314245432880744
21
-0.805994875135477
31
0.0
39
0.0
210
0.0
220
0.0
230
1.0
0
LINE
5
EE8
330
D97
100
AcDbEntity
8
TITLEBLOCK
62
154
6
ByLayer
370
0
48
1.0
60
0
100
AcDbLine
10
0.314245432880744
20
-0.805994875135477
30
0.0
11
0.314570234361762
21
-0.792028411451888
31
0.0
39
0.0
210
0.0
220
0.0
230
1.0
0
LINE
5
EE9
330
D97
100
AcDbEntity
8
TITLEBLOCK
62
154
6
ByLayer
370
0
48
1.0
60
0
100
AcDbLine
10
0.314570234361762
20
-0.792028411451888
30
0.0
11
0.315057436583279
21
-0.776113138882217
31
0.0
39
0.0
210
0.0
220
0.0
230
1.0
0
LINE
5
EEA
330
D97
100
AcDbEntity
8
TITLEBLOCK
62
154
6
ByLayer
370
0
48
1.0
60
0
100
AcDbLine
10
0.315057436583279
20
-0.776113138882217
30
0.0
11
0.410224270520294
21
-0.776113138882217
31
0.0
39
0.0
210
0.0
220
0.0
230
1.0
0
LINE
5
EEB
330
D97
100
AcDbEntity
8
TITLEBLOCK
62
154
6
ByLayer
370
0
48
1.0
60
0
100
AcDbLine
10
0.410224270520294
20
-0.776113138882217
30
0.0
11
0.420293116431713
21
-0.77286512407208
31
0.0
39
0.0
210
0.0
220
0.0
230
1.0
0
LINE
5
EEC
330
D97
100
AcDbEntity
8
TITLEBLOCK
62
154
6
ByLayer
370
0
48
1.0
60
0
100
AcDbLine
10
0.420293116431713
20
-0.77286512407208
30
0.0
11
0.431173966045675
21
-0.766369094451806
31
0.0
39
0.0
210
0.0
220
0.0
230
1.0
0
LINE
5
EED
330
D97
100
AcDbEntity
8
TITLEBLOCK
62
154
6
ByLayer
370
0
48
1.0
60
0
100
AcDbLine
10
0.431173966045675
20
-0.766369094451806
30
0.0
11
0.438969201590007
21
-0.757112252242916
31
0.0
39
0.0
210
0.0
220
0.0
230
1.0
0
LINE
5
EEE
330
D97
100
AcDbEntity
8
TITLEBLOCK
62
154
6
ByLayer
370
0
48
1.0
60
0
100
AcDbLine
10
0.438969201590007
20
-0.757112252242916
30
0.0
11
0.443516422324196
21
-0.745419398926423
31
0.0
39
0.0
210
0.0
220
0.0
230
1.0
0
LINE
5
EEF
330
D97
100
AcDbEntity
8
TITLEBLOCK
62
154
6
ByLayer
370
0
48
1.0
60
0
100
AcDbLine
10
0.313920631399734
20
-0.734213747831451
30
0.0
11
0.313920631399734
21
-0.70595601898326
31
0.0
39
0.0
210
0.0
220
0.0
230
1.0
0
LINE
5
EF0
330
D97
100
AcDbEntity
8
TITLEBLOCK
62
154
6
ByLayer
370
0
48
1.0
60
0
100
AcDbLine
10
0.313920631399734
20
-0.70595601898326
30
0.0
11
0.378718526861961
21
-0.70595601898326
31
0.0
39
0.0
210
0.0
220
0.0
230
1.0
0
LINE
5
EF1
330
D97
100
AcDbEntity
8
TITLEBLOCK
62
154
6
ByLayer
370
0
48
1.0
60
0
100
AcDbLine
10
0.443841223805206
20
-0.694912768628794
30
0.0
11
0.440106006773549
21
-0.685818327160411
31
0.0
39
0.0
210
0.0
220
0.0
230
1.0
0
LINE
5
EF2
330
D97
100
AcDbEntity
8
TITLEBLOCK
62
154
6
ByLayer
370
0
48
1.0
60
0
100
AcDbLine
10
0.440106006773549
20
-0.685818327160411
30
0.0
11
0.435883587520374
21
-0.680296701983178
31
0.0
39
0.0
210
0.0
220
0.0
230
1.0
0
LINE
5
EF3
330
D97
100
AcDbEntity
8
TITLEBLOCK
62
154
6
ByLayer
370
0
48
1.0
60
0
100
AcDbLine
10
0.435883587520374
20
-0.680296701983178
30
0.0
11
0.425489940127937
21
-0.671851863476822
31
0.0
39
0.0
210
0.0
220
0.0
230
1.0
0
LINE
5
EF4
330
D97
100
AcDbEntity
8
TITLEBLOCK
62
154
6
ByLayer
370
0
48
1.0
60
0
100
AcDbLine
10
0.425489940127937
20
-0.671851863476822
30
0.0
11
0.412173079406374
21
-0.666817440521109
31
0.0
39
0.0
210
0.0
220
0.0
230
1.0
0
LINE
5
EF5
330
D97
100
AcDbEntity
8
TITLEBLOCK
62
154
6
ByLayer
370
0
48
1.0
60
0
100
AcDbLine
10
0.412173079406374
20
-0.666817440521109
30
0.0
11
0.396095406096199
21
-0.665193433116041
31
0.0
39
0.0
210
0.0
220
0.0
230
1.0
0
LINE
5
EF6
330
D97
100
AcDbEntity
8
TITLEBLOCK
62
154
6
ByLayer
370
0
48
1.0
60
0
100
AcDbLine
10
0.45926929415336
20
-0.665193433116041
30
0.0
11
0.499707078539567
21
-0.665193433116041
31
0.0
39
0.0
210
0.0
220
0.0
230
1.0
0
LINE
5
EF7
330
D97
100
AcDbEntity
8
TITLEBLOCK
62
154
6
ByLayer
370
0
48
1.0
60
0
100
AcDbLine
10
0.499707078539567
20
-0.665193433116041
30
0.0
11
0.505066302976291
21
-0.669415852369219
31
0.0
39
0.0
210
0.0
220
0.0
230
1.0
0
LINE
5
EF8
330
D97
100
AcDbEntity
8
TITLEBLOCK
62
154
6
ByLayer
370
0
48
1.0
60
0
100
AcDbLine
10
0.505066302976291
20
-0.669415852369219
30
0.0
11
0.505066302976291
21
-0.669415852369219
31
0.0
39
0.0
210
0.0
220
0.0
230
1.0
0
LINE
5
EF9
330
D97
100
AcDbEntity
8
TITLEBLOCK
62
154
6
ByLayer
370
0
48
1.0
60
0
100
AcDbLine
10
0.505066302976291
20
-0.669415852369219
30
0.0
11
0.505066302976291
21
-0.841723038046983
31
0.0
39
0.0
210
0.0
220
0.0
230
1.0
0
LINE
5
EFA
330
D97
100
AcDbEntity
8
TITLEBLOCK
62
154
6
ByLayer
370
0
48
1.0
60
0
100
AcDbLine
10
0.505066302976291
20
-0.841723038046983
30
0.0
11
0.499544677799056
21
-0.846107858040668
31
0.0
39
0.0
210
0.0
220
0.0
230
1.0
0
LINE
5
EFB
330
D97
100
AcDbEntity
8
TITLEBLOCK
62
154
6
ByLayer
370
0
48
1.0
60
0
100
AcDbLine
10
0.499544677799056
20
-0.846107858040668
30
0.0
11
0.499544677799056
21
-0.846107858040668
31
0.0
39
0.0
210
0.0
220
0.0
230
1.0
0
LINE
5
EFC
330
D97
100
AcDbEntity
8
TITLEBLOCK
62
154
6
ByLayer
370
0
48
1.0
60
0
100
AcDbLine
10
0.499544677799056
20
-0.846107858040668
30
0.0
11
0.45926929415336
21
-0.846107858040668
31
0.0
39
0.0
210
0.0
220
0.0
230
1.0
0
LINE
5
EFD
330
D97
100
AcDbEntity
8
TITLEBLOCK
62
154
6
ByLayer
370
0
48
1.0
60
0
100
AcDbLine
10
0.45926929415336
20
-0.846107858040668
30
0.0
11
0.453910069716636
21
-0.841723038046983
31
0.0
39
0.0
210
0.0
220
0.0
230
1.0
0
LINE
5
EFE
330
D97
100
AcDbEntity
8
TITLEBLOCK
62
154
6
ByLayer
370
0
48
1.0
60
0
100
AcDbLine
10
0.453910069716636
20
-0.841723038046983
30
0.0
11
0.453910069716636
21
-0.841723038046983
31
0.0
39
0.0
210
0.0
220
0.0
230
1.0
0
LINE
5
EFF
330
D97
100
AcDbEntity
8
TITLEBLOCK
62
154
6
ByLayer
370
0
48
1.0
60
0
100
AcDbLine
10
0.453910069716636
20
-0.841723038046983
30
0.0
11
0.453910069716636
21
-0.669253451628713
31
0.0
39
0.0
210
0.0
220
0.0
230
1.0
0
LINE
5
F00
330
D97
100
AcDbEntity
8
TITLEBLOCK
62
154
6
ByLayer
370
0
48
1.0
60
0
100
AcDbLine
10
0.453910069716636
20
-0.669253451628713
30
0.0
11
0.45926929415336
21
-0.665193433116041
31
0.0
39
0.0
210
0.0
220
0.0
230
1.0
0
LINE
5
F01
330
D97
100
AcDbEntity
8
TITLEBLOCK
62
154
6
ByLayer
370
0
48
1.0
60
0
100
AcDbLine
10
0.45926929415336
20
-0.665193433116041
30
0.0
11
0.45926929415336
21
-0.665193433116041
31
0.0
39
0.0
210
0.0
220
0.0
230
1.0
0
LINE
5
F02
330
D97
100
AcDbEntity
8
TITLEBLOCK
62
154
6
ByLayer
370
0
48
1.0
60
0
100
AcDbLine
10
0.45926929415336
20
-0.665193433116041
30
0.0
11
0.45926929415336
21
-0.665193433116041
31
0.0
39
0.0
210
0.0
220
0.0
230
1.0
0
LINE
5
F03
330
D97
100
AcDbEntity
8
TITLEBLOCK
62
154
6
ByLayer
370
0
48
1.0
60
0
100
AcDbLine
10
0.45926929415336
20
-0.665193433116041
30
0.0
11
0.45926929415336
21
-0.665193433116041
31
0.0
39
0.0
210
0.0
220
0.0
230
1.0
0
LINE
5
F04
330
D97
100
AcDbEntity
8
TITLEBLOCK
62
154
6
ByLayer
370
0
48
1.0
60
0
100
AcDbLine
10
0.517246358514305
20
-0.736000155977026
30
0.0
11
0.517246358514305
21
-0.809567691426627
31
0.0
39
0.0
210
0.0
220
0.0
230
1.0
0
LINE
5
F05
330
D97
100
AcDbEntity
8
TITLEBLOCK
62
154
6
ByLayer
370
0
48
1.0
60
0
100
AcDbLine
10
0.580582647311976
20
-0.805020470692435
30
0.0
11
0.580257845830959
21
-0.804858069951929
31
0.0
39
0.0
210
0.0
220
0.0
230
1.0
0
LINE
5
F06
330
D97
100
AcDbEntity
8
TITLEBLOCK
62
154
6
ByLayer
370
0
48
1.0
60
0
100
AcDbLine
10
0.580257845830959
20
-0.804858069951929
30
0.0
11
0.56905219473599
21
-0.800635650698751
31
0.0
39
0.0
210
0.0
220
0.0
230
1.0
0
LINE
5
F07
330
D97
100
AcDbEntity
8
TITLEBLOCK
62
154
6
ByLayer
370
0
48
1.0
60
0
100
AcDbLine
10
0.56905219473599
20
-0.800635650698751
30
0.0
11
0.565479378444833
21
-0.787968392939217
31
0.0
39
0.0
210
0.0
220
0.0
230
1.0
0
LINE
5
F08
330
D97
100
AcDbEntity
8
TITLEBLOCK
62
154
6
ByLayer
370
0
48
1.0
60
0
100
AcDbLine
10
0.565479378444833
20
-0.787968392939217
30
0.0
11
0.565479378444833
21
-0.759223461869505
31
0.0
39
0.0
210
0.0
220
0.0
230
1.0
0
LINE
5
F09
330
D97
100
AcDbEntity
8
TITLEBLOCK
62
154
6
ByLayer
370
0
48
1.0
60
0
100
AcDbLine
10
0.565479378444833
20
-0.759223461869505
30
0.0
11
0.566453782887878
21
-0.755975447059368
31
0.0
39
0.0
210
0.0
220
0.0
230
1.0
0
LINE
5
F0A
330
D97
100
AcDbEntity
8
TITLEBLOCK
62
154
6
ByLayer
370
0
48
1.0
60
0
100
AcDbLine
10
0.566453782887878
20
-0.755975447059368
30
0.0
11
0.56726578659041
21
-0.751428226325177
31
0.0
39
0.0
210
0.0
220
0.0
230
1.0
0
LINE
5
F0B
330
D97
100
AcDbEntity
8
TITLEBLOCK
62
154
6
ByLayer
370
0
48
1.0
60
0
100
AcDbLine
10
0.56726578659041
20
-0.751428226325177
30
0.0
11
0.575061022134738
21
-0.743795391521355
31
0.0
39
0.0
210
0.0
220
0.0
230
1.0
0
LINE
5
F0C
330
D97
100
AcDbEntity
8
TITLEBLOCK
62
154
6
ByLayer
370
0
48
1.0
60
0
100
AcDbLine
10
0.575061022134738
20
-0.743795391521355
30
0.0
11
0.591301096185427
21
-0.741359380413752
31
0.0
39
0.0
210
0.0
220
0.0
230
1.0
0
LINE
5
F0D
330
D97
100
AcDbEntity
8
TITLEBLOCK
62
154
6
ByLayer
370
0
48
1.0
60
0
100
AcDbLine
10
0.591301096185427
20
-0.741359380413752
30
0.0
11
0.615011604299427
21
-0.741359380413752
31
0.0
39
0.0
210
0.0
220
0.0
230
1.0
0
LINE
5
F0E
330
D97
100
AcDbEntity
8
TITLEBLOCK
62
154
6
ByLayer
370
0
48
1.0
60
0
100
AcDbLine
10
0.644243737590655
20
-0.700109592325013
30
0.0
11
0.561094558451155
21
-0.700109592325013
31
0.0
39
0.0
210
0.0
220
0.0
230
1.0
0
LINE
5
F0F
330
D97
100
AcDbEntity
8
TITLEBLOCK
62
154
6
ByLayer
370
0
48
1.0
60
0
100
AcDbLine
10
0.561094558451155
20
-0.700109592325013
30
0.0
11
0.548752102172633
21
-0.702058401211095
31
0.0
39
0.0
210
0.0
220
0.0
230
1.0
0
LINE
5
F10
330
D97
100
AcDbEntity
8
TITLEBLOCK
62
154
6
ByLayer
370
0
48
1.0
60
0
100
AcDbLine
10
0.548752102172633
20
-0.702058401211095
30
0.0
11
0.534948039229553
21
-0.706930423426301
31
0.0
39
0.0
210
0.0
220
0.0
230
1.0
0
LINE
5
F11
330
D97
100
AcDbEntity
8
TITLEBLOCK
62
154
6
ByLayer
370
0
48
1.0
60
0
100
AcDbLine
10
0.534948039229553
20
-0.706930423426301
30
0.0
11
0.525203994799137
21
-0.714238456749108
31
0.0
39
0.0
210
0.0
220
0.0
230
1.0
0
LINE
5
F12
330
D97
100
AcDbEntity
8
TITLEBLOCK
62
154
6
ByLayer
370
0
48
1.0
60
0
100
AcDbLine
10
0.525203994799137
20
-0.714238456749108
30
0.0
11
0.519195167400385
21
-0.723982501179519
31
0.0
39
0.0
210
0.0
220
0.0
230
1.0
0
LINE
5
F13
330
D97
100
AcDbEntity
8
TITLEBLOCK
62
154
6
ByLayer
370
0
48
1.0
60
0
100
AcDbLine
10
0.519195167400385
20
-0.723982501179519
30
0.0
11
0.517246358514305
21
-0.736000155977026
31
0.0
39
0.0
210
0.0
220
0.0
230
1.0
0
LINE
5
F14
330
D97
100
AcDbEntity
8
TITLEBLOCK
62
154
6
ByLayer
370
0
48
1.0
60
0
100
AcDbLine
10
0.615011604299427
20
-0.741359380413752
30
0.0
11
0.623781244286794
21
-0.742008983375779
31
0.0
39
0.0
210
0.0
220
0.0
230
1.0
0
LINE
5
F15
330
D97
100
AcDbEntity
8
TITLEBLOCK
62
154
6
ByLayer
370
0
48
1.0
60
0
100
AcDbLine
10
0.623781244286794
20
-0.742008983375779
30
0.0
11
0.635149296122274
21
-0.747368207812505
31
0.0
39
0.0
210
0.0
220
0.0
230
1.0
0
LINE
5
F16
330
D97
100
AcDbEntity
8
TITLEBLOCK
62
154
6
ByLayer
370
0
48
1.0
60
0
100
AcDbLine
10
0.635149296122274
20
-0.747368207812505
30
0.0
11
0.638884513153931
21
-0.758249057426464
31
0.0
39
0.0
210
0.0
220
0.0
230
1.0
0
LINE
5
F17
330
D97
100
AcDbEntity
8
TITLEBLOCK
62
154
6
ByLayer
370
0
48
1.0
60
0
100
AcDbLine
10
0.638884513153931
20
-0.758249057426464
30
0.0
11
0.638884513153931
21
-0.805020470692435
31
0.0
39
0.0
210
0.0
220
0.0
230
1.0
0
LINE
5
F18
330
D97
100
AcDbEntity
8
TITLEBLOCK
62
154
6
ByLayer
370
0
48
1.0
60
0
100
AcDbLine
10
0.638884513153931
20
-0.805020470692435
30
0.0
11
0.580582647311976
21
-0.805020470692435
31
0.0
39
0.0
210
0.0
220
0.0
230
1.0
0
LINE
5
F19
330
D97
100
AcDbEntity
8
TITLEBLOCK
62
154
6
ByLayer
370
0
48
1.0
60
0
100
AcDbLine
10
0.517246358514305
20
-0.809567691426627
30
0.0
11
0.519032766659882
21
-0.817687728451969
31
0.0
39
0.0
210
0.0
220
0.0
230
1.0
0
LINE
5
F1A
330
D97
100
AcDbEntity
8
TITLEBLOCK
62
154
6
ByLayer
370
0
48
1.0
60
0
100
AcDbLine
10
0.519032766659882
20
-0.817687728451969
30
0.0
11
0.524391991096602
21
-0.830192585470997
31
0.0
39
0.0
210
0.0
220
0.0
230
1.0
0
LINE
5
F1B
330
D97
100
AcDbEntity
8
TITLEBLOCK
62
154
6
ByLayer
370
0
48
1.0
60
0
100
AcDbLine
10
0.524391991096602
20
-0.830192585470997
30
0.0
11
0.532512028121948
21
-0.838962225458366
31
0.0
39
0.0
210
0.0
220
0.0
230
1.0
0
LINE
5
F1C
330
D97
100
AcDbEntity
8
TITLEBLOCK
62
154
6
ByLayer
370
0
48
1.0
60
0
100
AcDbLine
10
0.532512028121948
20
-0.838962225458366
30
0.0
11
0.543392877735906
21
-0.844321449895092
31
0.0
39
0.0
210
0.0
220
0.0
230
1.0
0
LINE
5
F1D
330
D97
100
AcDbEntity
8
TITLEBLOCK
62
154
6
ByLayer
370
0
48
1.0
60
0
100
AcDbLine
10
0.543392877735906
20
-0.844321449895092
30
0.0
11
0.55703453993848
21
-0.846107858040668
31
0.0
39
0.0
210
0.0
220
0.0
230
1.0
0
LINE
5
F1E
330
D97
100
AcDbEntity
8
TITLEBLOCK
62
154
6
ByLayer
370
0
48
1.0
60
0
100
AcDbLine
10
0.55703453993848
20
-0.846107858040668
30
0.0
11
0.681758308647742
21
-0.846107858040668
31
0.0
39
0.0
210
0.0
220
0.0
230
1.0
0
LINE
5
F1F
330
D97
100
AcDbEntity
8
TITLEBLOCK
62
154
6
ByLayer
370
0
48
1.0
60
0
100
AcDbLine
10
0.681758308647742
20
-0.846107858040668
30
0.0
11
0.686955132343956
21
-0.841723038046983
31
0.0
39
0.0
210
0.0
220
0.0
230
1.0
0
LINE
5
F20
330
D97
100
AcDbEntity
8
TITLEBLOCK
62
154
6
ByLayer
370
0
48
1.0
60
0
100
AcDbLine
10
0.686955132343956
20
-0.841723038046983
30
0.0
11
0.686955132343956
21
-0.731128133761821
31
0.0
39
0.0
210
0.0
220
0.0
230
1.0
0
LINE
5
F21
330
D97
100
AcDbEntity
8
TITLEBLOCK
62
154
6
ByLayer
370
0
48
1.0
60
0
100
AcDbLine
10
0.686955132343956
20
-0.731128133761821
30
0.0
11
0.685980727900921
21
-0.728042519692191
31
0.0
39
0.0
210
0.0
220
0.0
230
1.0
0
LINE
5
F22
330
D97
100
AcDbEntity
8
TITLEBLOCK
62
154
6
ByLayer
370
0
48
1.0
60
0
100
AcDbLine
10
0.685980727900921
20
-0.728042519692191
30
0.0
11
0.679809499761658
21
-0.715862464154177
31
0.0
39
0.0
210
0.0
220
0.0
230
1.0
0
LINE
5
F23
330
D97
100
AcDbEntity
8
TITLEBLOCK
62
154
6
ByLayer
370
0
48
1.0
60
0
100
AcDbLine
10
0.679809499761658
20
-0.715862464154177
30
0.0
11
0.67071505829327
21
-0.707092824166808
31
0.0
39
0.0
210
0.0
220
0.0
230
1.0
0
LINE
5
F24
330
D97
100
AcDbEntity
8
TITLEBLOCK
62
154
6
ByLayer
370
0
48
1.0
60
0
100
AcDbLine
10
0.67071505829327
20
-0.707092824166808
30
0.0
11
0.658859804236274
21
-0.701896000470589
31
0.0
39
0.0
210
0.0
220
0.0
230
1.0
0
LINE
5
F25
330
D97
100
AcDbEntity
8
TITLEBLOCK
62
154
6
ByLayer
370
0
48
1.0
60
0
100
AcDbLine
10
0.658859804236274
20
-0.701896000470589
30
0.0
11
0.644243737590655
21
-0.700109592325013
31
0.0
39
0.0
210
0.0
220
0.0
230
1.0
0
LINE
5
F26
330
D97
100
AcDbEntity
8
TITLEBLOCK
62
154
6
ByLayer
370
0
48
1.0
60
0
100
AcDbLine
10
0.789592400344281
20
-0.665193433116041
30
0.0
11
0.741359380413749
21
-0.665193433116041
31
0.0
39
0.0
210
0.0
220
0.0
230
1.0
0
LINE
5
F27
330
D97
100
AcDbEntity
8
TITLEBLOCK
62
154
6
ByLayer
370
0
48
1.0
60
0
100
AcDbLine
10
0.741359380413749
20
-0.665193433116041
30
0.0
11
0.741359380413749
21
-0.699947191584506
31
0.0
39
0.0
210
0.0
220
0.0
230
1.0
0
LINE
5
F28
330
D97
100
AcDbEntity
8
TITLEBLOCK
62
154
6
ByLayer
370
0
48
1.0
60
0
100
AcDbLine
10
0.741359380413749
20
-0.699947191584506
30
0.0
11
0.698160783438931
21
-0.699947191584506
31
0.0
39
0.0
210
0.0
220
0.0
230
1.0
0
LINE
5
F29
330
D97
100
AcDbEntity
8
TITLEBLOCK
62
154
6
ByLayer
370
0
48
1.0
60
0
100
AcDbLine
10
0.698160783438931
20
-0.699947191584506
30
0.0
11
0.698160783438931
21
-0.740060174489697
31
0.0
39
0.0
210
0.0
220
0.0
230
1.0
0
LINE
5
F2A
330
D97
100
AcDbEntity
8
TITLEBLOCK
62
154
6
ByLayer
370
0
48
1.0
60
0
100
AcDbLine
10
0.698160783438931
20
-0.740060174489697
30
0.0
11
0.741359380413749
21
-0.740060174489697
31
0.0
39
0.0
210
0.0
220
0.0
230
1.0
0
LINE
5
F2B
330
D97
100
AcDbEntity
8
TITLEBLOCK
62
154
6
ByLayer
370
0
48
1.0
60
0
100
AcDbLine
10
0.741359380413749
20
-0.740060174489697
30
0.0
11
0.741359380413749
21
-0.845295854338133
31
0.0
39
0.0
210
0.0
220
0.0
230
1.0
0
LINE
5
F2C
330
D97
100
AcDbEntity
8
TITLEBLOCK
62
154
6
ByLayer
370
0
48
1.0
60
0
100
AcDbLine
10
0.741359380413749
20
-0.845295854338133
30
0.0
11
0.789592400344281
21
-0.845295854338133
31
0.0
39
0.0
210
0.0
220
0.0
230
1.0
0
LINE
5
F2D
330
D97
100
AcDbEntity
8
TITLEBLOCK
62
154
6
ByLayer
370
0
48
1.0
60
0
100
AcDbLine
10
0.789592400344281
20
-0.845295854338133
30
0.0
11
0.789592400344281
21
-0.740060174489697
31
0.0
39
0.0
210
0.0
220
0.0
230
1.0
0
LINE
5
F2E
330
D97
100
AcDbEntity
8
TITLEBLOCK
62
154
6
ByLayer
370
0
48
1.0
60
0
100
AcDbLine
10
0.789592400344281
20
-0.740060174489697
30
0.0
11
0.83279099731911
21
-0.740060174489697
31
0.0
39
0.0
210
0.0
220
0.0
230
1.0
0
LINE
5
F2F
330
D97
100
AcDbEntity
8
TITLEBLOCK
62
154
6
ByLayer
370
0
48
1.0
60
0
100
AcDbLine
10
0.83279099731911
20
-0.740060174489697
30
0.0
11
0.83279099731911
21
-0.699947191584506
31
0.0
39
0.0
210
0.0
220
0.0
230
1.0
0
LINE
5
F30
330
D97
100
AcDbEntity
8
TITLEBLOCK
62
154
6
ByLayer
370
0
48
1.0
60
0
100
AcDbLine
10
0.83279099731911
20
-0.699947191584506
30
0.0
11
0.789592400344281
21
-0.699947191584506
31
0.0
39
0.0
210
0.0
220
0.0
230
1.0
0
LINE
5
F31
330
D97
100
AcDbEntity
8
TITLEBLOCK
62
154
6
ByLayer
370
0
48
1.0
60
0
100
AcDbLine
10
0.789592400344281
20
-0.699947191584506
30
0.0
11
0.789592400344281
21
-0.665193433116041
31
0.0
39
0.0
210
0.0
220
0.0
230
1.0
0
LINE
5
F32
330
D97
100
AcDbEntity
8
TITLEBLOCK
62
154
6
ByLayer
370
0
48
1.0
60
0
100
AcDbLine
10
0.956702762325831
20
-0.741846582635273
30
0.0
11
0.968882817863845
21
-0.745256998185916
31
0.0
39
0.0
210
0.0
220
0.0
230
1.0
0
LINE
5
F33
330
D97
100
AcDbEntity
8
TITLEBLOCK
62
154
6
ByLayer
370
0
48
1.0
60
0
100
AcDbLine
10
0.968882817863845
20
-0.745256998185916
30
0.0
11
0.973917240819551
21
-0.752565031508724
31
0.0
39
0.0
210
0.0
220
0.0
230
1.0
0
LINE
5
F34
330
D97
100
AcDbEntity
8
TITLEBLOCK
62
154
6
ByLayer
370
0
48
1.0
60
0
100
AcDbLine
10
0.973917240819551
20
-0.752565031508724
30
0.0
11
0.895152881673733
21
-0.752565031508724
31
0.0
39
0.0
210
0.0
220
0.0
230
1.0
0
LINE
5
F35
330
D97
100
AcDbEntity
8
TITLEBLOCK
62
154
6
ByLayer
370
0
48
1.0
60
0
100
AcDbLine
10
1.02604787852225
20
-0.791054007008847
30
0.0
11
1.02604787852225
21
-0.740222575230204
31
0.0
39
0.0
210
0.0
220
0.0
230
1.0
0
LINE
5
F36
330
D97
100
AcDbEntity
8
TITLEBLOCK
62
154
6
ByLayer
370
0
48
1.0
60
0
100
AcDbLine
10
0.981387674882869
20
-0.700921596027547
30
0.0
11
0.891417664642075
21
-0.700921596027547
31
0.0
39
0.0
210
0.0
220
0.0
230
1.0
0
LINE
5
F37
330
D97
100
AcDbEntity
8
TITLEBLOCK
62
154
6
ByLayer
370
0
48
1.0
60
0
100
AcDbLine
10
0.891417664642075
20
-0.700921596027547
30
0.0
11
0.883622429097746
21
-0.701246397508561
31
0.0
39
0.0
210
0.0
220
0.0
230
1.0
0
LINE
5
F38
330
D97
100
AcDbEntity
8
TITLEBLOCK
62
154
6
ByLayer
370
0
48
1.0
60
0
100
AcDbLine
10
0.883622429097746
20
-0.701246397508561
30
0.0
11
0.868194358749596
21
-0.704819213799711
31
0.0
39
0.0
210
0.0
220
0.0
230
1.0
0
LINE
5
F39
330
D97
100
AcDbEntity
8
TITLEBLOCK
62
154
6
ByLayer
370
0
48
1.0
60
0
100
AcDbLine
10
0.868194358749596
20
-0.704819213799711
30
0.0
11
0.863809538755911
21
-0.706605621945287
31
0.0
39
0.0
210
0.0
220
0.0
230
1.0
0
LINE
5
F3A
330
D97
100
AcDbEntity
8
TITLEBLOCK
62
154
6
ByLayer
370
0
48
1.0
60
0
100
AcDbLine
10
0.863809538755911
20
-0.706605621945287
30
0.0
11
0.852441486920435
21
-0.714400857489615
31
0.0
39
0.0
210
0.0
220
0.0
230
1.0
0
LINE
5
F3B
330
D97
100
AcDbEntity
8
TITLEBLOCK
62
154
6
ByLayer
370
0
48
1.0
60
0
100
AcDbLine
10
0.852441486920435
20
-0.714400857489615
30
0.0
11
0.845620655819145
21
-0.724632104141547
31
0.0
39
0.0
210
0.0
220
0.0
230
1.0
0
LINE
5
F3C
330
D97
100
AcDbEntity
8
TITLEBLOCK
62
154
6
ByLayer
370
0
48
1.0
60
0
100
AcDbLine
10
0.845620655819145
20
-0.724632104141547
30
0.0
11
0.843347045452051
21
-0.737461762641587
31
0.0
39
0.0
210
0.0
220
0.0
230
1.0
0
LINE
5
F3D
330
D97
100
AcDbEntity
8
TITLEBLOCK
62
154
6
ByLayer
370
0
48
1.0
60
0
100
AcDbLine
10
0.843347045452051
20
-0.737461762641587
30
0.0
11
0.843347045452051
21
-0.807618882540545
31
0.0
39
0.0
210
0.0
220
0.0
230
1.0
0
LINE
5
F3E
330
D97
100
AcDbEntity
8
TITLEBLOCK
62
154
6
ByLayer
370
0
48
1.0
60
0
100
AcDbLine
10
0.843347045452051
20
-0.807618882540545
30
0.0
11
0.843347045452051
21
-0.807943684021558
31
0.0
39
0.0
210
0.0
220
0.0
230
1.0
0
LINE
5
F3F
330
D97
100
AcDbEntity
8
TITLEBLOCK
62
154
6
ByLayer
370
0
48
1.0
60
0
100
AcDbLine
10
0.843347045452051
20
-0.807943684021558
30
0.0
11
0.845783056559652
21
-0.820610941781093
31
0.0
39
0.0
210
0.0
220
0.0
230
1.0
0
LINE
5
F40
330
D97
100
AcDbEntity
8
TITLEBLOCK
62
154
6
ByLayer
370
0
48
1.0
60
0
100
AcDbLine
10
0.845783056559652
20
-0.820610941781093
30
0.0
11
0.850492678034351
21
-0.829380581768462
31
0.0
39
0.0
210
0.0
220
0.0
230
1.0
0
LINE
5
F41
330
D97
100
AcDbEntity
8
TITLEBLOCK
62
154
6
ByLayer
370
0
48
1.0
60
0
100
AcDbLine
10
0.850492678034351
20
-0.829380581768462
30
0.0
11
0.859587119502739
21
-0.838637423977353
31
0.0
39
0.0
210
0.0
220
0.0
230
1.0
0
LINE
5
F42
330
D97
100
AcDbEntity
8
TITLEBLOCK
62
154
6
ByLayer
370
0
48
1.0
60
0
100
AcDbLine
10
0.859587119502739
20
-0.838637423977353
30
0.0
11
0.87160477430024
21
-0.844321449895092
31
0.0
39
0.0
210
0.0
220
0.0
230
1.0
0
LINE
5
F43
330
D97
100
AcDbEntity
8
TITLEBLOCK
62
154
6
ByLayer
370
0
48
1.0
60
0
100
AcDbLine
10
0.87160477430024
20
-0.844321449895092
30
0.0
11
0.886708043167376
21
-0.846107858040668
31
0.0
39
0.0
210
0.0
220
0.0
230
1.0
0
LINE
5
F44
330
D97
100
AcDbEntity
8
TITLEBLOCK
62
154
6
ByLayer
370
0
48
1.0
60
0
100
AcDbLine
10
0.886708043167376
20
-0.846107858040668
30
0.0
11
0.979114064515775
21
-0.846107858040668
31
0.0
39
0.0
210
0.0
220
0.0
230
1.0
0
LINE
5
F45
330
D97
100
AcDbEntity
8
TITLEBLOCK
62
154
6
ByLayer
370
0
48
1.0
60
0
100
AcDbLine
10
0.979114064515775
20
-0.846107858040668
30
0.0
11
0.994054932642404
21
-0.843671846933065
31
0.0
39
0.0
210
0.0
220
0.0
230
1.0
0
LINE
5
F46
330
D97
100
AcDbEntity
8
TITLEBLOCK
62
154
6
ByLayer
370
0
48
1.0
60
0
100
AcDbLine
10
0.994054932642404
20
-0.843671846933065
30
0.0
11
1.00802139632599
21
-0.838637423977353
31
0.0
39
0.0
210
0.0
220
0.0
230
1.0
0
LINE
5
F47
330
D97
100
AcDbEntity
8
TITLEBLOCK
62
154
6
ByLayer
370
0
48
1.0
60
0
100
AcDbLine
10
1.00802139632599
20
-0.838637423977353
30
0.0
11
1.01792784149691
21
-0.831491791395051
31
0.0
39
0.0
210
0.0
220
0.0
230
1.0
0
LINE
5
F48
330
D97
100
AcDbEntity
8
TITLEBLOCK
62
154
6
ByLayer
370
0
48
1.0
60
0
100
AcDbLine
10
1.01792784149691
20
-0.831491791395051
30
0.0
11
1.02393666889567
21
-0.822072548445654
31
0.0
39
0.0
210
0.0
220
0.0
230
1.0
0
LINE
5
F49
330
D97
100
AcDbEntity
8
TITLEBLOCK
62
154
6
ByLayer
370
0
48
1.0
60
0
100
AcDbLine
10
1.02393666889567
20
-0.822072548445654
30
0.0
11
1.02604787852225
21
-0.810542095869669
31
0.0
39
0.0
210
0.0
220
0.0
230
1.0
0
LINE
5
F4A
330
D97
100
AcDbEntity
8
TITLEBLOCK
62
154
6
ByLayer
370
0
48
1.0
60
0
100
AcDbLine
10
1.02604787852225
20
-0.810542095869669
30
0.0
11
1.02052625334502
21
-0.805182871432942
31
0.0
39
0.0
210
0.0
220
0.0
230
1.0
0
LINE
5
F4B
330
D97
100
AcDbEntity
8
TITLEBLOCK
62
154
6
ByLayer
370
0
48
1.0
60
0
100
AcDbLine
10
1.02052625334502
20
-0.805182871432942
30
0.0
11
0.91577777571811
21
-0.805182871432942
31
0.0
39
0.0
210
0.0
220
0.0
230
1.0
0
LINE
5
F4C
330
D97
100
AcDbEntity
8
TITLEBLOCK
62
154
6
ByLayer
370
0
48
1.0
60
0
100
AcDbLine
10
0.91577777571811
20
-0.805182871432942
30
0.0
11
0.900836907591474
21
-0.802584459584833
31
0.0
39
0.0
210
0.0
220
0.0
230
1.0
0
LINE
5
F4D
330
D97
100
AcDbEntity
8
TITLEBLOCK
62
154
6
ByLayer
370
0
48
1.0
60
0
100
AcDbLine
10
0.900836907591474
20
-0.802584459584833
30
0.0
11
0.894503278711705
21
-0.795438827002532
31
0.0
39
0.0
210
0.0
220
0.0
230
1.0
0
LINE
5
F4E
330
D97
100
AcDbEntity
8
TITLEBLOCK
62
154
6
ByLayer
370
0
48
1.0
60
0
100
AcDbLine
10
0.894503278711705
20
-0.795438827002532
30
0.0
11
1.02052625334502
21
-0.795438827002532
31
0.0
39
0.0
210
0.0
220
0.0
230
1.0
0
LINE
5
F4F
330
D97
100
AcDbEntity
8
TITLEBLOCK
62
154
6
ByLayer
370
0
48
1.0
60
0
100
AcDbLine
10
1.02052625334502
20
-0.795438827002532
30
0.0
11
1.02604787852225
21
-0.791054007008847
31
0.0
39
0.0
210
0.0
220
0.0
230
1.0
0
LINE
5
F50
330
D97
100
AcDbEntity
8
TITLEBLOCK
62
154
6
ByLayer
370
0
48
1.0
60
0
100
AcDbLine
10
0.895152881673733
20
-0.752565031508724
30
0.0
11
0.897751293521844
21
-0.746718604850478
31
0.0
39
0.0
210
0.0
220
0.0
230
1.0
0
LINE
5
F51
330
D97
100
AcDbEntity
8
TITLEBLOCK
62
154
6
ByLayer
370
0
48
1.0
60
0
100
AcDbLine
10
0.897751293521844
20
-0.746718604850478
30
0.0
11
0.909768948319348
21
-0.741846582635273
31
0.0
39
0.0
210
0.0
220
0.0
230
1.0
0
LINE
5
F52
330
D97
100
AcDbEntity
8
TITLEBLOCK
62
154
6
ByLayer
370
0
48
1.0
60
0
100
AcDbLine
10
0.909768948319348
20
-0.741846582635273
30
0.0
11
0.956702762325831
21
-0.741846582635273
31
0.0
39
0.0
210
0.0
220
0.0
230
1.0
0
LINE
5
F53
330
D97
100
AcDbEntity
8
TITLEBLOCK
62
154
6
ByLayer
370
0
48
1.0
60
0
100
AcDbLine
10
1.02604787852225
20
-0.740222575230204
30
0.0
11
1.02588547778175
21
-0.739897773749191
31
0.0
39
0.0
210
0.0
220
0.0
230
1.0
0
LINE
5
F54
330
D97
100
AcDbEntity
8
TITLEBLOCK
62
154
6
ByLayer
370
0
48
1.0
60
0
100
AcDbLine
10
1.02588547778175
20
-0.739897773749191
30
0.0
11
1.0224750622311
21
-0.725768909325095
31
0.0
39
0.0
210
0.0
220
0.0
230
1.0
0
LINE
5
F55
330
D97
100
AcDbEntity
8
TITLEBLOCK
62
154
6
ByLayer
370
0
48
1.0
60
0
100
AcDbLine
10
1.0224750622311
20
-0.725768909325095
30
0.0
11
1.01630383409185
21
-0.714888059711136
31
0.0
39
0.0
210
0.0
220
0.0
230
1.0
0
LINE
5
F56
330
D97
100
AcDbEntity
8
TITLEBLOCK
62
154
6
ByLayer
370
0
48
1.0
60
0
100
AcDbLine
10
1.01630383409185
20
-0.714888059711136
30
0.0
11
1.00737179336396
21
-0.707092824166808
31
0.0
39
0.0
210
0.0
220
0.0
230
1.0
0
LINE
5
F57
330
D97
100
AcDbEntity
8
TITLEBLOCK
62
154
6
ByLayer
370
0
48
1.0
60
0
100
AcDbLine
10
1.00737179336396
20
-0.707092824166808
30
0.0
11
0.995678940047471
21
-0.702383202692109
31
0.0
39
0.0
210
0.0
220
0.0
230
1.0
0
LINE
5
F58
330
D97
100
AcDbEntity
8
TITLEBLOCK
62
154
6
ByLayer
370
0
48
1.0
60
0
100
AcDbLine
10
0.995678940047471
20
-0.702383202692109
30
0.0
11
0.981387674882869
21
-0.700921596027547
31
0.0
39
0.0
210
0.0
220
0.0
230
1.0
0
HATCH
5
F59
330
D97
100
AcDbEntity
8
TITLEBLOCK
62
154
6
ByLayer
370
-1
48
1.0
60
0
100
AcDbHatch
10
0.0
20
0.0
30
0.0
210
0.0
220
0.0
230
1.0
2
SOLID
70
1
71
0
91
7
92
7
72
1
73
1
93
30
10
1.91222339719631
20
-0.164955638809798
42
0.0
10
1.91222339719631
20
-0.0549101119097615
42
0.0
10
1.92731657486079
20
-0.0454845311090084
42
0.0
10
1.92731657486079
20
-0.0206116978882962
42
0.0
10
1.83585334209874
20
-0.0206116978882962
42
0.0
10
1.83585334209874
20
-0.0454845311090084
42
0.0
10
1.85094651976323
20
-0.0549101119097615
42
0.0
10
1.85094651976323
20
-0.199420219273007
42
0.0
10
1.59819386604289
20
-0.199420219273007
42
0.0
10
1.59819386604289
20
-0.0549101119097615
42
0.0
10
1.61328704370738
20
-0.0454845311090084
42
0.0
10
1.61328704370738
20
-0.0206116978882962
42
0.0
10
1.52182381094533
20
-0.0206116978882962
42
0.0
10
1.52182381094533
20
-0.0454845311090084
42
0.0
10
1.53691698860981
20
-0.0549101119097615
42
0.0
10
1.53691698860981
20
-0.284042280584726
42
0.0
10
1.53691698860981
20
-0.394087807484763
42
0.0
10
1.52182381094533
20
-0.403513388285516
42
0.0
10
1.52182381094533
20
-0.428386221506228
42
0.0
10
1.61328704370738
20
-0.428386221506228
42
0.0
10
1.61328704370738
20
-0.403513388285516
42
0.0
10
1.59819386604289
20
-0.394087807484763
42
0.0
10
1.59819386604289
20
-0.24829250464089
42
0.0
10
1.85094651976323
20
-0.24829250464089
42
0.0
10
1.85094651976323
20
-0.394087807484763
42
0.0
10
1.83585334209874
20
-0.403513388285516
42
0.0
10
1.83585334209874
20
-0.428386221506228
42
0.0
10
1.92731657486079
20
-0.428386221506228
42
0.0
10
1.92731657486079
20
-0.403513388285516
42
0.0
10
1.91222339719631
20
-0.394087807484763
42
0.0
97
0
92
7
72
1
73
1
93
28
10
2.23489576879314
20
-0.222878564752087
42
0.0
10
2.21538931164114
20
-0.222878564752087
42
0.0
10
2.20799732350729
20
-0.23471535153015
42
0.0
10
2.07552649821203
20
-0.234696524635574
42
0.0
10
2.07552649821203
20
-0.139151076228322
42
0.0
10
2.28192221286034
20
-0.139151076228322
42
0.0
10
2.28931420099419
20
-0.150987863006384
42
0.0
10
2.30882065814619
20
-0.150987863006384
42
0.0
10
2.30882065814619
20
-0.0792580518093722
42
0.0
10
2.28931420099419
20
-0.0792580518093722
42
0.0
10
2.28192221286034
20
-0.0910948385874349
42
0.0
10
2.00759952091226
20
-0.0910948385874349
42
0.0
10
2.00759952091226
20
-0.11145576657913
42
0.0
10
2.01995481236079
20
-0.119171557147139
42
0.0
10
2.01995481236079
20
-0.400309502946524
42
0.0
10
2.00759952091226
20
-0.408025293514533
42
0.0
10
2.00759952091226
20
-0.428386221506228
42
0.0
10
2.28192221286034
20
-0.428386221506228
42
0.0
10
2.28931420099419
20
-0.44022300828429
42
0.0
10
2.30882065814619
20
-0.44022300828429
42
0.0
10
2.30882065814619
20
-0.368493197087279
42
0.0
10
2.28931420099419
20
-0.368493197087279
42
0.0
10
2.28192221286034
20
-0.380329983865341
42
0.0
10
2.07552649821203
20
-0.380329983865341
42
0.0
10
2.07552649821203
20
-0.28275276227646
42
0.0
10
2.20799732350729
20
-0.282771589171036
42
0.0
10
2.21538931164114
20
-0.294608375949099
42
0.0
10
2.23489576879314
20
-0.294608375949099
42
0.0
97
0
92
7
72
1
73
1
93
33
10
2.55407445783904
20
-0.128527950178354
42
0.0
10
2.55407445783904
20
-0.118222395366621
42
0.0
10
2.56438840843618
20
-0.118222395366621
42
0.0
10
2.57126437550094
20
-0.111352005143564
42
0.0
10
2.57126437550094
20
-0.102191545891863
42
0.0
10
2.56266941667
20
-0.0910948385874349
42
0.0
10
2.46853695850906
20
-0.0910948385874349
42
0.0
10
2.45994199967812
20
-0.102191545891863
42
0.0
10
2.45994199967812
20
-0.111352005143564
42
0.0
10
2.46681796674287
20
-0.118222395366621
42
0.0
10
2.47713191734001
20
-0.118222395366621
42
0.0
10
2.47713191734001
20
-0.128527950178354
42
0.0
10
2.35359065656557
20
-0.395099823381676
42
0.0
10
2.33581848174461
20
-0.412781898456348
42
0.0
10
2.32756232371086
20
-0.412781898456348
42
0.0
10
2.32756232371086
20
-0.428386221506228
42
0.0
10
2.42134746568575
20
-0.428386221506228
42
0.0
10
2.42134746568575
20
-0.414280570809421
42
0.0
10
2.41201501834573
20
-0.40769843846218
42
0.0
10
2.40240826380897
20
-0.40769843846218
42
0.0
10
2.43125717394199
20
-0.342811602825988
42
0.0
10
2.59073111269397
20
-0.342811602825988
42
0.0
10
2.62258955535242
20
-0.40079190917463
42
0.0
10
2.61874841701894
20
-0.404629926393177
42
0.0
10
2.61874841701894
20
-0.40769843846218
42
0.0
10
2.61625703760925
20
-0.40769843846218
42
0.0
10
2.61428639205184
20
-0.409088325744232
42
0.0
10
2.6077981854026
20
-0.415571260404572
42
0.0
10
2.6077981854026
20
-0.428386221506228
42
0.0
10
2.7036440514682
20
-0.428386221506228
42
0.0
10
2.7036440514682
20
-0.412781898456348
42
0.0
10
2.69538789343445
20
-0.412781898456348
42
0.0
10
2.67761571861349
20
-0.395099823381675
42
0.0
97
0
92
23
72
1
73
1
93
3
10
2.5133608484032
20
-0.156365041326573
42
0.0
10
2.57707759412357
20
-0.298473732273324
42
0.0
10
2.45078181446571
20
-0.298473732273324
42
0.0
97
0
92
5
93
23
72
4
94
3
73
0
74
0
95
15
96
11
40
0.0
40
0.0
40
0.0
40
0.0
40
0.0851553307409796
40
0.171033711273708
40
0.263077495763238
40
0.35819695012344
40
0.436073267657124
40
0.508749636145206
40
0.592209536776095
40
0.696068063815372
40
0.696068063815372
40
0.696068063815372
40
0.696068063815372
10
2.96741603709104
20
-0.283610198999596
10
2.97953252471093
20
-0.280291613869344
10
3.00386838046065
20
-0.273626265663122
10
3.03712888635171
20
-0.25233707195604
10
3.05909087526338
20
-0.215645409395326
10
3.05554112015692
20
-0.176057944558128
10
3.0488974673248
20
-0.139110121530125
10
3.02120638539086
20
-0.116105266187001
10
2.98770909430659
20
-0.0973603445896689
10
2.96015147156989
20
-0.0933296522085787
10
2.94487217341575
20
-0.0910948385874349
72
1
10
2.94487217341575
20
-0.0910948385874349
11
2.73256957086793
21
-0.0910948385874349
72
1
10
2.73256957086793
20
-0.0910948385874349
11
2.73256957086793
21
-0.113922335059077
72
1
10
2.73256957086793
20
-0.113922335059077
11
2.75036282476611
21
-0.12608673195435
72
1
10
2.75036282476612
20
-0.12608673195435
11
2.75036282476612
21
-0.406104046424803
72
1
10
2.75036282476612
20
-0.406104046424803
11
2.73994347878295
21
-0.406104046424803
72
1
10
2.73994347878295
20
-0.406104046424803
11
2.73231355081766
21
-0.413727740796011
72
1
10
2.73231355081766
20
-0.41372774079601
11
2.73231355081766
21
-0.428386221506228
72
1
10
2.73231355081766
20
-0.428386221506228
11
2.82786975406734
21
-0.428386221506228
72
1
10
2.82786975406734
20
-0.428386221506228
11
2.82786975406734
21
-0.410097413049993
72
1
10
2.82786975406734
20
-0.410097413049993
11
2.81660654701332
21
-0.410097413049993
72
1
10
2.81660654701332
20
-0.410097413049993
11
2.80534320036277
21
-0.400295485403758
72
1
10
2.80534320036276
20
-0.400295485403757
11
2.80534320036276
21
-0.286773527010337
72
1
10
2.80534320036276
20
-0.286773527010337
11
2.91316966009
21
-0.286773527010337
72
1
10
2.91316966009
20
-0.286773527010337
11
2.99178931339388
21
-0.402460715941069
72
1
10
2.99178931339388
20
-0.402460715941069
11
2.99178931339388
21
-0.411474970700477
72
1
10
2.99178931339388
20
-0.411474970700477
11
2.97938462545043
21
-0.411474970700477
72
1
10
2.97938462545044
20
-0.411474970700477
11
2.97938462545044
21
-0.428386221506228
72
1
10
2.97938462545044
20
-0.428386221506228
11
3.07354765525311
21
-0.428386221506228
72
1
10
3.07354765525311
20
-0.428386221506228
11
3.07354765525311
21
-0.413446808406239
72
1
10
3.07354765525311
20
-0.413446808406239
11
3.06283445855792
21
-0.413446808406239
72
1
10
3.06283445855792
20
-0.413446808406239
11
3.05240324686906
21
-0.407812899181601
72
1
10
3.05240324686906
20
-0.407812899181601
11
2.96741603709104
21
-0.283610198999597
97
0
92
21
93
4
72
1
10
2.80534320036276
20
-0.139197398509298
11
2.94163828002161
21
-0.139197398509298
72
4
94
3
73
0
74
0
95
14
96
10
40
0.0
40
0.0
40
0.0
40
0.0
40
0.0718864475841751
40
0.134441872909996
40
0.182153615110412
40
0.238854870766989
40
0.297641220596256
40
0.333419735005583
40
0.381476131873447
40
0.381476131873447
40
0.381476131873447
40
0.381476131873447
10
2.94163828002161
20
-0.139197398509298
10
2.9522049408792
20
-0.140326011035256
10
2.97196668629629
20
-0.142436739647931
10
2.99645280205535
20
-0.155515431185657
10
3.0106334355816
20
-0.177156473374681
10
3.00911359100968
20
-0.202082818858014
10
3.00054477262714
20
-0.223767980843913
10
2.98251474458416
20
-0.235850262171754
10
2.97044798462438
20
-0.238628409842333
10
2.96353099745636
20
-0.240220917843844
72
1
10
2.96353099745636
20
-0.240220917843844
11
2.80534320036277
21
-0.240220917843844
72
1
10
2.80534320036276
20
-0.240220917843844
11
2.80534320036276
21
-0.139197398509298
97
0
92
7
72
1
73
1
93
29
10
3.18174446459511
20
-0.155063312031826
42
0.0
10
3.39289581449584
20
-0.404666908154507
42
0.0
10
3.382207884774
20
-0.413873090648253
42
0.0
10
3.37373130380709
20
-0.413873090648253
42
0.0
10
3.37373130380709
20
-0.428386221506228
42
0.0
10
3.46759001315746
20
-0.428386221506228
42
0.0
10
3.46759001315746
20
-0.408025293514533
42
0.0
10
3.45523472170893
20
-0.400309502946524
42
0.0
10
3.45523472170893
20
-0.119171557147139
42
0.0
10
3.46759001315746
20
-0.11145576657913
42
0.0
10
3.46759001315746
20
-0.0910948385874349
42
0.0
10
3.39543966152428
20
-0.0910948385874349
42
0.0
10
3.39543966152428
20
-0.11145576657913
42
0.0
10
3.40779495297281
20
-0.119171557147139
42
0.0
10
3.40779495297281
20
-0.350395678526836
42
0.0
10
3.22026808354625
20
-0.136872594467669
42
0.0
10
3.22026808354625
20
-0.122939397921476
42
0.0
10
3.23850330008302
20
-0.108202290327712
42
0.0
10
3.23850330008302
20
-0.101235692054623
42
0.0
10
3.22804486706927
20
-0.0910948385874349
42
0.0
10
3.12194940441046
20
-0.0910948385874349
42
0.0
10
3.12194940441046
20
-0.11145576657913
42
0.0
10
3.13430469585899
20
-0.119171557147139
42
0.0
10
3.13430469585899
20
-0.400309502946524
42
0.0
10
3.12194940441046
20
-0.408025293514533
42
0.0
10
3.12194940441046
20
-0.428386221506228
42
0.0
10
3.19409975604364
20
-0.428386221506228
42
0.0
10
3.19409975604364
20
-0.408025293514533
42
0.0
10
3.18174446459511
20
-0.400309502946524
42
0.0
97
0
75
1
76
1
47
0.0
98
1
10
0.0
20
0.0
1001
GradientColor1ACI
1070
5
1001
GradientColor2ACI
1070
2
1001
ACAD
1010
0.0
1020
0.0
1030
0.0
0
HATCH
5
F5A
330
D97
100
AcDbEntity
8
TITLEBLOCK
62
154
6
ByLayer
370
-1
48
1.0
60
0
100
AcDbHatch
10
0.0
20
0.0
30
0.0
210
0.0
220
0.0
230
1.0
2
SOLID
70
1
71
0
91
14
92
5
93
4
72
1
10
2.87569686319116
20
-0.581648271646374
11
2.87569686319116
21
-0.621257745486067
72
1
10
2.87569686319116
20
-0.621257745486067
11
2.95803002911009
21
-0.621257745486067
72
4
94
3
73
0
74
0
95
12
96
8
40
0.0
40
0.0
40
0.0
40
0.0
40
0.0095359067847786
40
0.0304032332031397
40
0.0610092011482905
40
0.089785101535176
40
0.109350424257626
40
0.109350424257626
40
0.109350424257626
40
0.109350424257626
10
2.95803002911009
20
-0.621257745486067
10
2.95935398169095
20
-0.62073957644824
10
2.96357512604295
20
-0.619087503451803
10
2.96877980421618
20
-0.61122684035047
10
2.97313498144511
20
-0.599838165258027
10
2.96873045619453
20
-0.58785005763366
10
2.96310295653549
20
-0.583435138329262
10
2.96082531770331
20
-0.581648271646374
72
1
10
2.96082531770331
20
-0.581648271646374
11
2.87569686319116
21
-0.581648271646374
97
0
92
7
72
1
73
1
93
4
10
3.73916665251535
20
-0.484136894086101
42
0.0
10
1.23937121462386
20
-0.484136894086101
42
0.0
10
1.23937121462386
20
-0.793408641862863
42
0.0
10
3.73916665251535
20
-0.793408641862863
42
0.0
97
0
92
21
93
16
72
4
94
3
73
0
74
0
95
20
96
16
40
0.0
40
0.0
40
0.0
40
0.0
40
0.0381734241584024
40
0.0816475976489086
40
0.179409039507798
40
0.288751144724337
40
0.366062521971206
40
0.452161085264896
40
0.542669537683521
40
0.643121548958673
40
0.729335954477966
40
0.833157645872356
40
0.962590765656206
40
1.0449798923101
40
1.1130423978567
40
1.1130423978567
40
1.1130423978567
40
1.1130423978567
10
3.59318061226318
20
-0.70267355394281
10
3.58869579259176
20
-0.706099927436966
10
3.57910339263988
20
-0.713428459540475
10
3.55396869470018
20
-0.722313112505431
10
3.51782218188574
20
-0.729620926095224
10
3.47607262554089
20
-0.732879410242757
10
3.43534407430646
20
-0.725693553842627
10
3.4065401171295
20
-0.700249675128844
10
3.38319637523353
20
-0.66505816615397
10
3.38567695956889
20
-0.622318819107649
10
3.40024984810547
20
-0.581438719379938
10
3.43973411282509
20
-0.550069893386318
10
3.48756993539452
20
-0.547930942175504
10
3.52879467748054
20
-0.54976371658547
10
3.54984376971556
20
-0.556951002505457
10
3.55936612541249
20
-0.560202444052746
72
1
10
3.55936612541249
20
-0.560202444052746
11
3.57988346840932
21
-0.560202444052746
72
1
10
3.57988346840932
20
-0.560202444052746
11
3.55489312104436
21
-0.605456600328895
72
1
10
3.55489312104437
20
-0.605456600328895
11
3.55053433132921
21
-0.594133041190608
72
4
94
3
73
0
74
0
95
19
96
15
40
0.0
40
0.0
40
0.0
40
0.0
40
0.0460326516190259
40
0.103996703403937
40
0.153883985561322
40
0.211812021331028
40
0.269536930726395
40
0.335426703822029
40
0.407336652221211
40
0.468339698552081
40
0.533552821857715
40
0.598010359727911
40
0.666122862249115
40
0.723916872879223
40
0.723916872879223
40
0.723916872879223
40
0.723916872879223
10
3.55053433132921
20
-0.594133041190608
10
3.54448115603807
20
-0.591108309116888
10
3.53080585702175
20
-0.58427485170604
10
3.50905832211977
20
-0.577241764281024
10
3.4841936723665
20
-0.577039429315395
10
3.46112058673402
20
-0.585508659879491
10
3.43822876127221
20
-0.601232415399574
10
3.42822751922592
20
-0.62919081986421
10
3.42563551783051
20
-0.660046392480914
10
3.44465935574507
20
-0.684131553418095
10
3.46937731866021
20
-0.699519350612638
10
3.4989922821144
20
-0.698901305799987
10
3.52768531767329
20
-0.69916322180477
10
3.54373017126931
20
-0.689212553146741
10
3.55109513131844
20
-0.68464496537225
72
1
10
3.55109513131844
20
-0.684644965372249
11
3.55109513131844
21
-0.659503312317039
72
1
10
3.55109513131844
20
-0.659503312317039
11
3.50411080865744
21
-0.659503312317039
72
1
10
3.50411080865744
20
-0.659503312317039
11
3.49097300129477
21
-0.673742821717871
72
1
10
3.49097300129477
20
-0.673742821717871
11
3.49097300129477
21
-0.61967717069774
72
1
10
3.49097300129477
20
-0.61967717069774
11
3.50411080865744
21
-0.633916680098572
72
1
10
3.50411080865744
20
-0.633916680098572
11
3.59496201840714
21
-0.633916680098572
72
1
10
3.59496201840714
20
-0.633916680098572
11
3.59496201840714
21
-0.638589027379023
72
1
10
3.59496201840714
20
-0.638589027379023
11
3.5842736822618
21
-0.646153761242684
72
1
10
3.5842736822618
20
-0.646153761242684
11
3.5842736822618
21
-0.697327025679606
72
1
10
3.5842736822618
20
-0.697327025679606
11
3.59318061226318
21
-0.697327025679606
72
1
10
3.59318061226318
20
-0.697327025679606
11
3.59318061226318
21
-0.702673553942811
97
0
92
23
72
1
73
1
93
30
10
3.35557187099849
20
-0.724167686081368
42
0.0
10
3.35542764226564
20
-0.730825017384366
42
0.0
10
3.29073029647908
20
-0.730825017384366
42
0.0
10
3.29073029647908
20
-0.72481977764815
42
0.0
10
3.2975100224249
20
-0.72481977764815
42
0.0
10
3.2975100224249
20
-0.710618607876445
42
0.0
10
3.20169782713941
20
-0.614147746091827
42
0.0
10
3.19385175599565
20
-0.614147746091827
42
0.0
10
3.19385175599565
20
-0.715518670614145
42
0.0
10
3.20275193786498
20
-0.724167686081368
42
0.0
10
3.20260770913212
20
-0.730825017384366
42
0.0
10
3.14498140320323
20
-0.730825017384366
42
0.0
10
3.14483717447038
20
-0.724167686081368
42
0.0
10
3.1537373563397
20
-0.715518670614145
42
0.0
10
3.1537373563397
20
-0.555807707745862
42
0.0
10
3.14326989562116
20
-0.555807707745862
42
0.0
10
3.14326989562116
20
-0.548666001820495
42
0.0
10
3.21444959540377
20
-0.548666001820495
42
0.0
10
3.21425128089609
20
-0.553424560901879
42
0.0
10
3.20850136879385
20
-0.556198072026158
42
0.0
10
3.20850136879385
20
-0.571452537364616
42
0.0
10
3.30790266329316
20
-0.66055610227438
42
0.0
10
3.30790266329316
20
-0.555449760041251
42
0.0
10
3.29720062944695
20
-0.555449760041251
42
0.0
10
3.29720062944695
20
-0.548666001820495
42
0.0
10
3.35713914984771
20
-0.548666001820495
42
0.0
10
3.35713914984771
20
-0.555807707745862
42
0.0
10
3.35454414055845
20
-0.555807707745862
42
0.0
10
3.34667168912917
20
-0.560716616749143
42
0.0
10
3.34667168912917
20
-0.715518670614145
42
0.0
97
0
92
23
72
1
73
1
93
12
10
3.11099449783014
20
-0.725434707321497
42
0.0
10
3.11099449783014
20
-0.730825017384366
42
0.0
10
3.04532036733837
20
-0.730825017384366
42
0.0
10
3.04532036733837
20
-0.725434707321497
42
0.0
10
3.05626462890982
20
-0.716468088692228
42
0.0
10
3.05626462890982
20
-0.555164309189328
42
0.0
10
3.04546610684707
20
-0.555164309189328
42
0.0
10
3.04546610684707
20
-0.548666001820495
42
0.0
10
3.11084875832145
20
-0.548666001820495
42
0.0
10
3.11084875832145
20
-0.555164309189328
42
0.0
10
3.10005023625869
20
-0.555164309189328
42
0.0
10
3.10005023625869
20
-0.716468088692228
42
0.0
97
0
92
21
93
21
72
1
10
3.02314178489381
20
-0.719646899613484
11
3.02314178489381
21
-0.730825017384366
72
1
10
3.02314178489381
20
-0.730825017384366
11
2.95174878756127
21
-0.730825017384366
72
1
10
2.95174878756127
20
-0.730825017384366
11
2.95174878756127
21
-0.724228019111703
72
1
10
2.95174878756127
20
-0.724228019111703
11
2.95862606879157
21
-0.724228019111703
72
1
10
2.95862606879157
20
-0.724228019111703
11
2.95862606879157
21
-0.71277522036615
72
1
10
2.95862606879157
20
-0.71277522036615
11
2.91736221233644
21
-0.653547858023761
72
1
10
2.91736221233644
20
-0.653547858023761
11
2.87511406758353
21
-0.653547858023761
72
1
10
2.87511406758353
20
-0.653547858023761
11
2.87511406758353
21
-0.717441538700759
72
1
10
2.87511406758353
20
-0.717441538700759
11
2.88526810176023
21
-0.724555234891486
72
1
10
2.88526810176023
20
-0.724555234891486
11
2.88531356486155
21
-0.730825017384366
72
1
10
2.88531356486155
20
-0.730825017384366
11
2.82136191245625
21
-0.730825017384366
72
1
10
2.82136191245625
20
-0.730825017384366
11
2.82140737555758
21
-0.724555234891486
72
1
10
2.82140737555758
20
-0.724555234891486
11
2.83156140973427
21
-0.717441538700759
72
1
10
2.83156140973427
20
-0.717441538700759
11
2.83156140973427
21
-0.554899878851583
72
1
10
2.83156140973427
20
-0.554899878851583
11
2.82145826661587
21
-0.554899878851583
72
1
10
2.82145826661587
20
-0.554899878851583
11
2.82145826661587
21
-0.548666001820495
72
1
10
2.82145826661587
20
-0.548666001820495
11
2.97522320400698
21
-0.548666001820495
72
4
94
3
73
0
74
0
95
15
96
11
40
0.0
40
0.0
40
0.0
40
0.0
40
0.0407248746380169
40
0.0823943087110891
40
0.115414026687751
40
0.161461129390573
40
0.211192022661371
40
0.259417396822929
40
0.3059893801444
40
0.331703142333405
40
0.331703142333405
40
0.331703142333405
40
0.331703142333405
10
2.97522320400698
20
-0.548666001820495
10
2.98034857705754
20
-0.551741568457864
10
2.99071819938642
20
-0.557964035420216
10
3.00565174236066
20
-0.566325937268979
10
3.01577122437618
20
-0.582546439309835
10
3.01114774588585
20
-0.601594400475817
10
3.01735252090651
20
-0.624467002208235
10
2.99845631241953
20
-0.638946790951673
10
2.98345718970388
20
-0.64879876513201
10
2.97262984429037
20
-0.648681287642764
10
2.96877829951989
20
-0.648639498100446
72
1
10
2.96877829951989
20
-0.648639498100446
11
2.96877829951989
21
-0.663691769004866
72
1
10
2.96877829951989
20
-0.663691769004866
11
3.0146270289145
21
-0.719646899613483
72
1
10
3.0146270289145
20
-0.719646899613484
11
3.02314178489381
21
-0.719646899613484
97
0
92
5
93
4
72
4
94
3
73
0
74
0
95
12
96
8
40
0.0
40
0.0
40
0.0
40
0.0
40
0.0095359067847786
40
0.0304032332031397
40
0.0610092011482905
40
0.089785101535176
40
0.109350424257626
40
0.109350424257626
40
0.109350424257626
40
0.109350424257626
10
2.95803002911009
20
-0.621257745486067
10
2.95935398169095
20
-0.62073957644824
10
2.96357512604295
20
-0.619087503451803
10
2.96877980421618
20
-0.61122684035047
10
2.97313498144511
20
-0.599838165258027
10
2.96873045619453
20
-0.58785005763366
10
2.96310295653549
20
-0.583435138329262
10
2.96082531770331
20
-0.581648271646374
72
1
10
2.96065167620973
20
-0.621257745486067
11
2.87569686319115
21
-0.621257745486067
72
1
10
2.87569686319116
20
-0.621257745486067
11
2.87569686319116
21
-0.581648271646374
72
1
10
2.87569686319116
20
-0.581648271646374
11
2.96082531770331
21
-0.581648271646374
97
0
92
23
72
1
73
1
93
22
10
2.79317435612951
20
-0.74120761189099
42
0.0
10
2.78187960025794
20
-0.730825017384366
42
0.0
10
2.61381514053174
20
-0.730825017384366
42
0.0
10
2.61381514053174
20
-0.72495663156062
42
0.0
10
2.62385492352869
20
-0.721825963008491
42
0.0
10
2.62385492352869
20
-0.55766505619637
42
0.0
10
2.61381514053174
20
-0.554534387644241
42
0.0
10
2.61381514053174
20
-0.548666001820495
42
0.0
10
2.78187960025794
20
-0.548666001820495
42
0.0
10
2.79317435612951
20
-0.538283407313871
42
0.0
10
2.79317435612951
20
-0.593356228251852
42
0.0
10
2.78187960025794
20
-0.582973633745228
42
0.0
10
2.66767807261229
20
-0.582973633745228
42
0.0
10
2.66767807261229
20
-0.621119532138685
42
0.0
10
2.74170014604722
20
-0.621119532138685
42
0.0
10
2.75299490191879
20
-0.610736937632061
42
0.0
10
2.75299490191879
20
-0.665809758570043
42
0.0
10
2.74170014604722
20
-0.655427164063418
42
0.0
10
2.66767807261229
20
-0.655427164063418
42
0.0
10
2.66767807261229
20
-0.696517385459633
42
0.0
10
2.78187960025794
20
-0.696517385459633
42
0.0
10
2.79317435612951
20
-0.686134790953009
42
0.0
97
0
92
23
72
1
73
1
93
22
10
2.58505872657625
20
-0.74120761189099
42
0.0
10
2.57376397070468
20
-0.730825017384366
42
0.0
10
2.40569951097848
20
-0.730825017384366
42
0.0
10
2.40569951097848
20
-0.72495663156062
42
0.0
10
2.41573929397542
20
-0.721825963008491
42
0.0
10
2.41573929397542
20
-0.55766505619637
42
0.0
10
2.40569951097848
20
-0.554534387644241
42
0.0
10
2.40569951097848
20
-0.548666001820495
42
0.0
10
2.57376397070468
20
-0.548666001820495
42
0.0
10
2.58505872657625
20
-0.538283407313871
42
0.0
10
2.58505872657625
20
-0.593356228251852
42
0.0
10
2.57376397070468
20
-0.582973633745228
42
0.0
10
2.45956244305903
20
-0.582973633745228
42
0.0
10
2.45956244305903
20
-0.621119532138685
42
0.0
10
2.53358451649395
20
-0.621119532138685
42
0.0
10
2.54487927236552
20
-0.610736937632061
42
0.0
10
2.54487927236552
20
-0.665809758570043
42
0.0
10
2.53358451649395
20
-0.655427164063418
42
0.0
10
2.45956244305903
20
-0.655427164063418
42
0.0
10
2.45956244305903
20
-0.696517385459633
42
0.0
10
2.57376397070468
20
-0.696517385459633
42
0.0
10
2.58505872657625
20
-0.686134790953009
42
0.0
97
0
92
23
72
1
73
1
93
30
10
2.36926962864535
20
-0.724167686081368
42
0.0
10
2.36912539991249
20
-0.730825017384366
42
0.0
10
2.30442805412593
20
-0.730825017384366
42
0.0
10
2.30442805412593
20
-0.72481977764815
42
0.0
10
2.31120778007176
20
-0.72481977764815
42
0.0
10
2.31120778007176
20
-0.710618607876445
42
0.0
10
2.21539558478627
20
-0.614147746091827
42
0.0
10
2.2075495136425
20
-0.614147746091827
42
0.0
10
2.2075495136425
20
-0.715518670614145
42
0.0
10
2.21644969551183
20
-0.724167686081368
42
0.0
10
2.21630546677897
20
-0.730825017384366
42
0.0
10
2.15867916085009
20
-0.730825017384366
42
0.0
10
2.15853493211723
20
-0.724167686081368
42
0.0
10
2.16743511398656
20
-0.715518670614145
42
0.0
10
2.16743511398656
20
-0.555807707745862
42
0.0
10
2.15696765326802
20
-0.555807707745862
42
0.0
10
2.15696765326802
20
-0.548666001820495
42
0.0
10
2.22814735305063
20
-0.548666001820495
42
0.0
10
2.22794903854294
20
-0.553424560901879
42
0.0
10
2.22219912644071
20
-0.556198072026158
42
0.0
10
2.22219912644071
20
-0.571452537364616
42
0.0
10
2.32160042094002
20
-0.66055610227438
42
0.0
10
2.32160042094002
20
-0.555449760041251
42
0.0
10
2.3108983870938
20
-0.555449760041251
42
0.0
10
2.3108983870938
20
-0.548666001820495
42
0.0
10
2.37083690749457
20
-0.548666001820495
42
0.0
10
2.37083690749457
20
-0.555807707745862
42
0.0
10
2.36824189820531
20
-0.555807707745862
42
0.0
10
2.36036944677602
20
-0.560716616749143
42
0.0
10
2.36036944677602
20
-0.715518670614145
42
0.0
97
0
92
23
72
1
73
1
93
12
10
2.12902127830947
20
-0.725434707321497
42
0.0
10
2.12902127830947
20
-0.730825017384366
42
0.0
10
2.0633471478177
20
-0.730825017384366
42
0.0
10
2.0633471478177
20
-0.725434707321497
42
0.0
10
2.07429140938915
20
-0.716468088692228
42
0.0
10
2.07429140938915
20
-0.555164309189328
42
0.0
10
2.0634928873264
20
-0.555164309189328
42
0.0
10
2.0634928873264
20
-0.548666001820495
42
0.0
10
2.12887553880077
20
-0.548666001820495
42
0.0
10
2.12887553880077
20
-0.555164309189328
42
0.0
10
2.11807701673803
20
-0.555164309189328
42
0.0
10
2.11807701673803
20
-0.716468088692228
42
0.0
97
0
92
21
93
16
72
4
94
3
73
0
74
0
95
20
96
16
40
0.0
40
0.0
40
0.0
40
0.0
40
0.0381734241584024
40
0.0816475976489086
40
0.179409039507798
40
0.288751144724337
40
0.366062521971206
40
0.452161085264896
40
0.542669537683521
40
0.643121548958673
40
0.729335954477966
40
0.833157645872356
40
0.962590765656206
40
1.0449798923101
40
1.1130423978567
40
1.1130423978567
40
1.1130423978567
40
1.1130423978567
10
2.03462558701865
20
-0.70267355394281
10
2.03014076734723
20
-0.706099927436966
10
2.02054836739535
20
-0.713428459540475
10
1.99541366945564
20
-0.722313112505431
10
1.9592671566412
20
-0.729620926095224
10
1.91751760029635
20
-0.732879410242757
10
1.87678904906193
20
-0.725693553842627
10
1.84798509188497
20
-0.700249675128844
10
1.824641349989
20
-0.66505816615397
10
1.82712193432435
20
-0.622318819107649
10
1.84169482286093
20
-0.581438719379938
10
1.88117908758055
20
-0.550069893386318
10
1.92901491014999
20
-0.547930942175504
10
1.970239652236
20
-0.54976371658547
10
1.99128874447102
20
-0.556951002505457
10
2.00081110016796
20
-0.560202444052746
72
1
10
2.00081110016796
20
-0.560202444052746
11
2.02132844316478
21
-0.560202444052746
72
1
10
2.02132844316478
20
-0.560202444052746
11
1.99633809579983
21
-0.605456600328895
72
1
10
1.99633809579983
20
-0.605456600328895
11
1.99197930608467
21
-0.594133041190608
72
4
94
3
73
0
74
0
95
19
96
15
40
0.0
40
0.0
40
0.0
40
0.0
40
0.0460326516190259
40
0.103996703403937
40
0.153883985561322
40
0.211812021331028
40
0.269536930726395
40
0.335426703822029
40
0.407336652221211
40
0.468339698552081
40
0.533552821857715
40
0.598010359727911
40
0.666122862249115
40
0.723916872879223
40
0.723916872879223
40
0.723916872879223
40
0.723916872879223
10
1.99197930608467
20
-0.594133041190608
10
1.98592613079354
20
-0.591108309116888
10
1.97225083177721
20
-0.58427485170604
10
1.95050329687524
20
-0.577241764281024
10
1.92563864712196
20
-0.577039429315395
10
1.90256556148949
20
-0.585508659879491
10
1.87967373602768
20
-0.601232415399574
10
1.86967249398139
20
-0.62919081986421
10
1.86708049258597
20
-0.660046392480914
10
1.88610433050053
20
-0.684131553418095
10
1.91082229341568
20
-0.699519350612638
10
1.94043725686985
20
-0.698901305799987
10
1.96913029242876
20
-0.69916322180477
10
1.98517514602477
20
-0.689212553146741
10
1.99254010607391
20
-0.68464496537225
72
1
10
1.9925401060739
20
-0.684644965372249
11
1.9925401060739
21
-0.659503312317039
72
1
10
1.9925401060739
20
-0.659503312317039
11
1.9455557834129
21
-0.659503312317039
72
1
10
1.9455557834129
20
-0.659503312317039
11
1.93241797605023
21
-0.673742821717871
72
1
10
1.93241797605023
20
-0.673742821717871
11
1.93241797605023
21
-0.61967717069774
72
1
10
1.93241797605023
20
-0.61967717069774
11
1.9455557834129
21
-0.633916680098572
72
1
10
1.9455557834129
20
-0.633916680098572
11
2.0364069931626
21
-0.633916680098572
72
1
10
2.0364069931626
20
-0.633916680098572
11
2.0364069931626
21
-0.638589027379023
72
1
10
2.0364069931626
20
-0.638589027379023
11
2.02571865701726
21
-0.646153761242684
72
1
10
2.02571865701726
20
-0.646153761242684
11
2.02571865701726
21
-0.697327025679606
72
1
10
2.02571865701726
20
-0.697327025679606
11
2.03462558701865
21
-0.697327025679606
72
1
10
2.03462558701865
20
-0.697327025679606
11
2.03462558701865
21
-0.70267355394281
97
0
92
23
72
1
73
1
93
30
10
1.79933373291611
20
-0.724167686081368
42
0.0
10
1.79918950418325
20
-0.730825017384366
42
0.0
10
1.73449215839669
20
-0.730825017384366
42
0.0
10
1.73449215839669
20
-0.72481977764815
42
0.0
10
1.74127188434251
20
-0.72481977764815
42
0.0
10
1.74127188434251
20
-0.710618607876445
42
0.0
10
1.64545968905702
20
-0.614147746091827
42
0.0
10
1.63761361791326
20
-0.614147746091827
42
0.0
10
1.63761361791326
20
-0.715518670614145
42
0.0
10
1.64651379978259
20
-0.724167686081368
42
0.0
10
1.64636957104973
20
-0.730825017384366
42
0.0
10
1.58874326512085
20
-0.730825017384366
42
0.0
10
1.58859903638799
20
-0.724167686081368
42
0.0
10
1.59749921825732
20
-0.715518670614145
42
0.0
10
1.59749921825732
20
-0.555807707745862
42
0.0
10
1.58703175753877
20
-0.555807707745862
42
0.0
10
1.58703175753877
20
-0.548666001820495
42
0.0
10
1.65821145732138
20
-0.548666001820495
42
0.0
10
1.6580131428137
20
-0.553424560901879
42
0.0
10
1.65226323071146
20
-0.556198072026158
42
0.0
10
1.65226323071146
20
-0.571452537364616
42
0.0
10
1.75166452521078
20
-0.66055610227438
42
0.0
10
1.75166452521078
20
-0.555449760041251
42
0.0
10
1.74096249136456
20
-0.555449760041251
42
0.0
10
1.74096249136456
20
-0.548666001820495
42
0.0
10
1.80090101176533
20
-0.548666001820495
42
0.0
10
1.80090101176533
20
-0.555807707745862
42
0.0
10
1.79830600247606
20
-0.555807707745862
42
0.0
10
1.79043355104678
20
-0.560716616749143
42
0.0
10
1.79043355104678
20
-0.715518670614145
42
0.0
97
0
92
23
72
1
73
1
93
22
10
1.558850815415
20
-0.74120761189099
42
0.0
10
1.54755605954343
20
-0.730825017384366
42
0.0
10
1.37949159981723
20
-0.730825017384366
42
0.0
10
1.37949159981723
20
-0.72495663156062
42
0.0
10
1.38953138281417
20
-0.721825963008491
42
0.0
10
1.38953138281417
20
-0.55766505619637
42
0.0
10
1.37949159981723
20
-0.554534387644241
42
0.0
10
1.37949159981723
20
-0.548666001820495
42
0.0
10
1.54755605954343
20
-0.548666001820495
42
0.0
10
1.558850815415
20
-0.538283407313871
42
0.0
10
1.558850815415
20
-0.593356228251852
42
0.0
10
1.54755605954343
20
-0.582973633745228
42
0.0
10
1.43335453189777
20
-0.582973633745228
42
0.0
10
1.43335453189777
20
-0.621119532138685
42
0.0
10
1.5073766053327
20
-0.621119532138685
42
0.0
10
1.51867136120427
20
-0.610736937632061
42
0.0
10
1.51867136120427
20
-0.665809758570043
42
0.0
10
1.5073766053327
20
-0.655427164063418
42
0.0
10
1.43335453189777
20
-0.655427164063418
42
0.0
10
1.43335453189777
20
-0.696517385459633
42
0.0
10
1.54755605954343
20
-0.696517385459633
42
0.0
10
1.558850815415
20
-0.686134790953009
42
0.0
97
0
75
1
76
1
47
0.0
98
1
10
0.0
20
0.0
1001
GradientColor1ACI
1070
5
1001
GradientColor2ACI
1070
2
1001
ACAD
1010
0.0
1020
0.0
1030
0.0
0
HATCH
5
F5B
330
D97
100
AcDbEntity
8
TITLEBLOCK
62
154
6
ByLayer
370
-1
48
1.0
60
0
100
AcDbHatch
10
0.0
20
0.0
30
0.0
210
0.0
220
0.0
230
1.0
2
SOLID
70
1
71
0
91
1
92
5
93
4
72
1
10
2.87569686319116
20
-0.581648271646374
11
2.87569686319116
21
-0.621257745486067
72
1
10
2.87569686319116
20
-0.621257745486067
11
2.95803002911009
21
-0.621257745486067
72
4
94
3
73
0
74
0
95
12
96
8
40
0.0
40
0.0
40
0.0
40
0.0
40
0.0095359067847786
40
0.0304032332031397
40
0.0610092011482905
40
0.089785101535176
40
0.109350424257626
40
0.109350424257626
40
0.109350424257626
40
0.109350424257626
10
2.95803002911009
20
-0.621257745486067
10
2.95935398169095
20
-0.62073957644824
10
2.96357512604295
20
-0.619087503451803
10
2.96877980421618
20
-0.61122684035047
10
2.97313498144511
20
-0.599838165258027
10
2.96873045619453
20
-0.58785005763366
10
2.96310295653549
20
-0.583435138329262
10
2.96082531770331
20
-0.581648271646374
72
1
10
2.96082531770331
20
-0.581648271646374
11
2.87569686319116
21
-0.581648271646374
97
0
75
1
76
1
47
0.0
98
1
10
0.0
20
0.0
1001
GradientColor1ACI
1070
5
1001
GradientColor2ACI
1070
2
1001
ACAD
1010
0.0
1020
0.0
1030
0.0
0
ENDBLK
5
F5F
330
D97
100
AcDbEntity
8
0
100
AcDbBlockEnd
0
BLOCK
5
12AF
330
12AD
100
AcDbEntity
8
0
100
AcDbBlockBegin
2
*D1
70
1
10
0.0
20
0.0
30
0.0
3
*D1
0
POINT
5
12B0
330
12AD
100
AcDbEntity
8
Defpoints
62
256
6
ByLayer
370
-1
48
1.0
60
0
100
AcDbPoint
10
9.82145309448242
20
16.9094505310059
30
0.0
39
0.0
210
0.0
220
0.0
230
1.0
50
360.0
0
POINT
5
12B2
330
12AD
100
AcDbEntity
8
Defpoints
62
256
6
ByLayer
370
-1
48
1.0
60
0
100
AcDbPoint
10
24.1785469055176
20
16.9094505310059
30
0.0
39
0.0
210
0.0
220
0.0
230
1.0
50
360.0
0
POINT
5
12B3
330
12AD
100
AcDbEntity
8
Defpoints
62
256
6
ByLayer
370
-1
48
1.0
60
0
100
AcDbPoint
10
24.1785469055176
20
17.2094505429268
30
0.0
39
0.0
210
0.0
220
0.0
230
1.0
50
360.0
0
LINE
5
12B4
330
12AD
100
AcDbEntity
8
0
62
0
6
ByBlock
370
-2
48
1.0
60
0
100
AcDbLine
10
10.0014530944824
20
17.2094505429268
30
0.0
11
23.9985469055176
21
17.2094505429268
31
0.0
39
0.0
210
0.0
220
0.0
230
1.0
0
LINE
5
12B5
330
12AD
100
AcDbEntity
8
0
62
0
6
ByBlock
370
-2
48
1.0
60
0
100
AcDbLine
10
9.82145309448242
20
16.9719505310059
30
0.0
11
9.82145309448242
21
17.3894505429268
31
0.0
39
0.0
210
0.0
220
0.0
230
1.0
0
LINE
5
12B6
330
12AD
100
AcDbEntity
8
0
62
0
6
ByBlock
370
-2
48
1.0
60
0
100
AcDbLine
10
24.1785469055176
20
16.9719505310059
30
0.0
11
24.1785469055176
21
17.3894505429268
31
0.0
39
0.0
210
0.0
220
0.0
230
1.0
0
SOLID
5
12B7
330
12AD
100
AcDbEntity
8
0
62
0
6
ByLayer
370
-1
48
1.0
60
0
100
AcDbTrace
10
9.82145309448242
20
17.2094505429268
30
0.0
11
10.0014530944824
21
17.2394505429268
31
0.0
12
10.0014530944824
22
17.1794505429268
32
0.0
13
10.0014530944824
23
17.1794505429268
33
0.0
39
0.0
210
0.0
220
0.0
230
1.0
0
SOLID
5
12B8
330
12AD
100
AcDbEntity
8
0
62
0
6
ByLayer
370
-1
48
1.0
60
0
100
AcDbTrace
10
24.1785469055176
20
17.2094505429268
30
0.0
11
23.9985469055176
21
17.1794505429268
31
0.0
12
23.9985469055176
22
17.2394505429268
32
0.0
13
23.9985469055176
23
17.2394505429268
33
0.0
39
0.0
210
0.0
220
0.0
230
1.0
0
MTEXT
5
12B9
330
12AD
100
AcDbEntity
8
0
62
0
6
ByLayer
370
-1
48
1.0
60
0
100
AcDbMText
10
17.0
20
17.2994505429268
30
0.0
210
0.0
220
0.0
230
1.0
1
14.36
40
0.18
41
0.0
44
1.0
50
0.0
71
8
72
5
7
Standard
0
ENDBLK
5
12AE
330
12AD
100
AcDbEntity
8
0
100
AcDbBlockEnd
0
BLOCK
5
12BD
330
12BB
100
AcDbEntity
8
0
100
AcDbBlockBegin
2
*D2
70
1
10
0.0
20
0.0
30
0.0
3
*D2
0
POINT
5
12BE
330
12BB
100
AcDbEntity
8
Defpoints
62
256
6
ByLayer
370
-1
48
1.0
60
0
100
AcDbPoint
10
9.82145309448242
20
5.59054851531982
30
0.0
39
0.0
210
0.0
220
0.0
230
1.0
50
360.0
0
POINT
5
12BF
330
12BB
100
AcDbEntity
8
Defpoints
62
256
6
ByLayer
370
-1
48
1.0
60
0
100
AcDbPoint
10
9.82145309448242
20
16.9094505310059
30
0.0
39
0.0
210
0.0
220
0.0
230
1.0
50
360.0
0
POINT
5
12C0
330
12BB
100
AcDbEntity
8
Defpoints
62
256
6
ByLayer
370
-1
48
1.0
60
0
100
AcDbPoint
10
9.52145308256149
20
5.59054851531982
30
0.0
39
0.0
210
0.0
220
0.0
230
1.0
50
360.0
0
LINE
5
12C1
330
12BB
100
AcDbEntity
8
0
62
0
6
ByBlock
370
-2
48
1.0
60
0
100
AcDbLine
10
9.52145308256149
20
5.77054851531982
30
0.0
11
9.52145308256149
21
16.7294505310059
31
0.0
39
0.0
210
0.0
220
0.0
230
1.0
0
LINE
5
12C2
330
12BB
100
AcDbEntity
8
0
62
0
6
ByBlock
370
-2
48
1.0
60
0
100
AcDbLine
10
9.75895309448242
20
5.59054851531982
30
0.0
11
9.34145308256149
21
5.59054851531982
31
0.0
39
0.0
210
0.0
220
0.0
230
1.0
0
LINE
5
12C3
330
12BB
100
AcDbEntity
8
0
62
0
6
ByBlock
370
-2
48
1.0
60
0
100
AcDbLine
10
9.75895309448242
20
16.9094505310059
30
0.0
11
9.34145308256149
21
16.9094505310059
31
0.0
39
0.0
210
0.0
220
0.0
230
1.0
0
SOLID
5
12C4
330
12BB
100
AcDbEntity
8
0
62
0
6
ByLayer
370
-1
48
1.0
60
0
100
AcDbTrace
10
9.52145308256149
20
16.9094505310059
30
0.0
11
9.55145308256149
21
16.7294505310059
31
0.0
12
9.49145308256149
22
16.7294505310059
32
0.0
13
9.49145308256149
23
16.7294505310059
33
0.0
39
0.0
210
0.0
220
0.0
230
1.0
0
SOLID
5
12C5
330
12BB
100
AcDbEntity
8
0
62
0
6
ByLayer
370
-1
48
1.0
60
0
100
AcDbTrace
10
9.52145308256149
20
5.59054851531982
30
0.0
11
9.49145308256149
21
5.77054851531982
31
0.0
12
9.55145308256149
22
5.77054851531982
32
0.0
13
9.55145308256149
23
5.77054851531982
33
0.0
39
0.0
210
0.0
220
0.0
230
1.0
0
MTEXT
5
12C6
330
12BB
100
AcDbEntity
8
0
62
0
6
ByLayer
370
-1
48
1.0
60
0
100
AcDbMText
10
9.43145308256149
20
11.2499995231628
30
0.0
210
0.0
220
0.0
230
1.0
1
11.32
40
0.18
41
0.0
44
1.0
50
90.0
71
8
72
5
7
Standard
0
ENDBLK
5
12BC
330
12BB
100
AcDbEntity
8
0
100
AcDbBlockEnd
0
BLOCK
5
12CA
330
12C8
100
AcDbEntity
8
0
100
AcDbBlockBegin
2
*D3
70
1
10
0.0
20
0.0
30
0.0
3
*D3
0
POINT
5
12CB
330
12C8
100
AcDbEntity
8
Defpoints
62
256
6
ByLayer
370
-1
48
1.0
60
0
100
AcDbPoint
10
11.7047214508057
20
15.6594514846802
30
0.0
39
0.0
210
0.0
220
0.0
230
1.0
50
360.0
0
POINT
5
12CC
330
12C8
100
AcDbEntity
8
Defpoints
62
256
6
ByLayer
370
-1
48
1.0
60
0
100
AcDbPoint
10
22.2952785491943
20
15.6594514846802
30
0.0
39
0.0
210
0.0
220
0.0
230
1.0
50
360.0
0
POINT
5
12CD
330
12C8
100
AcDbEntity
8
Defpoints
62
256
6
ByLayer
370
-1
48
1.0
60
0
100
AcDbPoint
10
22.2952785491943
20
15.9594514966011
30
0.0
39
0.0
210
0.0
220
0.0
230
1.0
50
360.0
0
LINE
5
12CE
330
12C8
100
AcDbEntity
8
0
62
0
6
ByBlock
370
-2
48
1.0
60
0
100
AcDbLine
10
11.8847214508057
20
15.9594514966011
30
0.0
11
22.1152785491943
21
15.9594514966011
31
0.0
39
0.0
210
0.0
220
0.0
230
1.0
0
LINE
5
12CF
330
12C8
100
AcDbEntity
8
0
62
0
6
ByBlock
370
-2
48
1.0
60
0
100
AcDbLine
10
11.7047214508057
20
15.7219514846802
30
0.0
11
11.7047214508057
21
16.1394514966011
31
0.0
39
0.0
210
0.0
220
0.0
230
1.0
0
LINE
5
12D0
330
12C8
100
AcDbEntity
8
0
62
0
6
ByBlock
370
-2
48
1.0
60
0
100
AcDbLine
10
22.2952785491943
20
15.7219514846802
30
0.0
11
22.2952785491943
21
16.1394514966011
31
0.0
39
0.0
210
0.0
220
0.0
230
1.0
0
SOLID
5
12D1
330
12C8
100
AcDbEntity
8
0
62
0
6
ByLayer
370
-1
48
1.0
60
0
100
AcDbTrace
10
11.7047214508057
20
15.9594514966011
30
0.0
11
11.8847214508057
21
15.9894514966011
31
0.0
12
11.8847214508057
22
15.9294514966011
32
0.0
13
11.8847214508057
23
15.9294514966011
33
0.0
39
0.0
210
0.0
220
0.0
230
1.0
0
SOLID
5
12D2
330
12C8
100
AcDbEntity
8
0
62
0
6
ByLayer
370
-1
48
1.0
60
0
100
AcDbTrace
10
22.2952785491943
20
15.9594514966011
30
0.0
11
22.1152785491943
21
15.9294514966011
31
0.0
12
22.1152785491943
22
15.9894514966011
32
0.0
13
22.1152785491943
23
15.9894514966011
33
0.0
39
0.0
210
0.0
220
0.0
230
1.0
0
MTEXT
5
12D3
330
12C8
100
AcDbEntity
8
0
62
0
6
ByLayer
370
-1
48
1.0
60
0
100
AcDbMText
10
17.0
20
16.0494514966011
30
0.0
210
0.0
220
0.0
230
1.0
1
10.59
40
0.18
41
0.0
44
1.0
50
0.0
71
8
72
5
7
Standard
0
ENDBLK
5
12C9
330
12C8
100
AcDbEntity
8
0
100
AcDbBlockEnd
0
BLOCK
5
12D7
330
12D5
100
AcDbEntity
8
0
100
AcDbBlockBegin
2
*D4
70
1
10
0.0
20
0.0
30
0.0
3
*D4
0
POINT
5
12D8
330
12D5
100
AcDbEntity
8
Defpoints
62
256
6
ByLayer
370
-1
48
1.0
60
0
100
AcDbPoint
10
11.7047214508057
20
6.84054851531982
30
0.0
39
0.0
210
0.0
220
0.0
230
1.0
50
360.0
0
POINT
5
12D9
330
12D5
100
AcDbEntity
8
Defpoints
62
256
6
ByLayer
370
-1
48
1.0
60
0
100
AcDbPoint
10
11.7047214508057
20
15.6594514846802
30
0.0
39
0.0
210
0.0
220
0.0
230
1.0
50
360.0
0
POINT
5
12DA
330
12D5
100
AcDbEntity
8
Defpoints
62
256
6
ByLayer
370
-1
48
1.0
60
0
100
AcDbPoint
10
11.4047214388847
20
15.6594514846802
30
0.0
39
0.0
210
0.0
220
0.0
230
1.0
50
360.0
0
LINE
5
12DB
330
12D5
100
AcDbEntity
8
0
62
0
6
ByBlock
370
-2
48
1.0
60
0
100
AcDbLine
10
11.4047214388847
20
7.02054851531982
30
0.0
11
11.4047214388847
21
15.4794514846802
31
0.0
39
0.0
210
0.0
220
0.0
230
1.0
0
LINE
5
12DC
330
12D5
100
AcDbEntity
8
0
62
0
6
ByBlock
370
-2
48
1.0
60
0
100
AcDbLine
10
11.6422214508057
20
6.84054851531982
30
0.0
11
11.2247214388847
21
6.84054851531982
31
0.0
39
0.0
210
0.0
220
0.0
230
1.0
0
LINE
5
12DD
330
12D5
100
AcDbEntity
8
0
62
0
6
ByBlock
370
-2
48
1.0
60
0
100
AcDbLine
10
11.6422214508057
20
15.6594514846802
30
0.0
11
11.2247214388847
21
15.6594514846802
31
0.0
39
0.0
210
0.0
220
0.0
230
1.0
0
SOLID
5
12DE
330
12D5
100
AcDbEntity
8
0
62
0
6
ByLayer
370
-1
48
1.0
60
0
100
AcDbTrace
10
11.4047214388847
20
6.84054851531982
30
0.0
11
11.3747214388847
21
7.02054851531982
31
0.0
12
11.4347214388847
22
7.02054851531982
32
0.0
13
11.4347214388847
23
7.02054851531982
33
0.0
39
0.0
210
0.0
220
0.0
230
1.0
0
SOLID
5
12DF
330
12D5
100
AcDbEntity
8
0
62
0
6
ByLayer
370
-1
48
1.0
60
0
100
AcDbTrace
10
11.4047214388847
20
15.6594514846802
30
0.0
11
11.4347214388847
21
15.4794514846802
31
0.0
12
11.3747214388847
22
15.4794514846802
32
0.0
13
11.3747214388847
23
15.4794514846802
33
0.0
39
0.0
210
0.0
220
0.0
230
1.0
0
MTEXT
5
12E0
330
12D5
100
AcDbEntity
8
0
62
0
6
ByLayer
370
-1
48
1.0
60
0
100
AcDbMText
10
11.3147214388847
20
11.25
30
0.0
210
0.0
220
0.0
230
1.0
1
8.82
40
0.18
41
0.0
44
1.0
50
90.0
71
8
72
5
7
Standard
0
ENDBLK
5
12D6
330
12D5
100
AcDbEntity
8
0
100
AcDbBlockEnd
0
ENDSEC
0
SECTION
2
ENTITIES
0
LINE
5
13E
330
1A
100
AcDbEntity
67
0
8
TITLEBLOCK
62
256
6
ByLayer
370
-1
48
1.0
60
0
100
AcDbLine
10
33.9506492010671
20
-0.0000000000000031
30
0.0
11
-0.0493507989328918
21
0.0
31
0.0
39
0.0
210
0.0
220
0.0
230
1.0
0
LINE
5
144
330
1A
100
AcDbEntity
67
0
8
TITLEBLOCK
62
256
6
ByLayer
370
-1
48
1.0
60
0
100
AcDbLine
10
-0.0493507989328918
20
22.0
30
0.0
11
33.9506492010671
21
22.0
31
0.0
39
0.0
210
0.0
220
0.0
230
1.0
0
LINE
5
145
330
1A
100
AcDbEntity
67
0
8
TITLEBLOCK
62
256
6
ByLayer
370
-1
48
1.0
60
0
100
AcDbLine
10
33.9506492010671
20
22.0
30
0.0
11
33.9506492010671
21
-0.0000000000000031
31
0.0
39
0.0
210
0.0
220
0.0
230
1.0
0
LINE
5
146
330
1A
100
AcDbEntity
67
0
8
TITLEBLOCK
62
256
6
ByLayer
370
-1
48
1.0
60
0
100
AcDbLine
10
33.9506492010671
20
-0.0000000000000031
30
0.0
11
-0.0493507989328918
21
0.0
31
0.0
39
0.0
210
0.0
220
0.0
230
1.0
0
LINE
5
147
330
1A
100
AcDbEntity
67
0
8
TITLEBLOCK
62
256
6
ByLayer
370
-1
48
1.0
60
0
100
AcDbLine
10
-0.0493507989328918
20
0.0
30
0.0
11
-0.0493507989328918
21
22.0
31
0.0
39
0.0
210
0.0
220
0.0
230
1.0
0
LINE
5
121D
330
1A
100
AcDbEntity
67
0
8
TITLEBLOCK
62
256
6
ByLayer
370
-1
48
1.0
60
0
100
AcDbLine
10
30.6983332896874
20
0.4054007989477
30
0.0
11
33.9492577339549
21
0.4054007989477
31
0.0
39
0.0
210
0.0
220
0.0
230
1.0
0
LINE
5
121E
330
1A
100
AcDbEntity
67
0
8
TITLEBLOCK
62
256
6
ByLayer
370
-1
48
1.0
60
0
100
AcDbLine
10
30.6983332896874
20
-0.0000000000000031
30
0.0
11
30.6983332896874
21
0.810801597895403
31
0.0
39
0.0
210
0.0
220
0.0
230
1.0
0
TEXT
5
121F
330
1A
100
AcDbEntity
67
0
8
TITLEBLOCK
62
256
6
ByLayer
370
-1
48
1.0
60
0
100
AcDbText
1
INFORMATION
10
30.737716098345
20
0.340154470370755
30
0.0
40
0.0354772834646045
41
1.0
50
0.0
51
0.0
7
Standard
11
30.737716098345
21
0.340154470370755
31
0.0
210
0.0
220
0.0
230
1.0
72
0
100
AcDbText
73
0
0
TEXT
5
1220
330
1A
100
AcDbEntity
67
0
8
TITLEBLOCK
62
256
6
ByLayer
370
-1
48
1.0
60
0
100
AcDbText
1
DRAWING NAME
10
30.737716098345
20
0.745555269318457
30
0.0
40
0.0354772834646045
41
1.0
50
0.0
51
0.0
7
Standard
11
30.737716098345
21
0.745555269318457
31
0.0
210
0.0
220
0.0
230
1.0
72
0
100
AcDbText
73
0
0
TEXT
5
1221
330
1A
100
AcDbEntity
67
0
8
TITLEBLOCK
62
256
6
ByLayer
370
-1
48
1.0
60
0
100
AcDbText
1
www.hmiadapterplate.com
10
27.3479970989544
20
0.068764893793645
30
0.0
40
0.1
41
1.0
50
0.0
51
0.0
7
Standard
11
27.3479970989544
21
0.068764893793645
31
0.0
210
0.0
220
0.0
230
1.0
72
1
100
AcDbText
73
1
0
LINE
5
1222
330
1A
100
AcDbEntity
67
0
8
TITLEBLOCK
62
256
6
ByLayer
370
-1
48
1.0
60
0
100
AcDbLine
10
28.5699790952119
20
0.709451398158477
30
0.0
11
30.6983332896874
21
0.709451398158477
31
0.0
39
0.0
210
0.0
220
0.0
230
1.0
0
LINE
5
1223
330
1A
100
AcDbEntity
67
0
8
TITLEBLOCK
62
256
6
ByLayer
370
-1
48
1.0
60
0
100
AcDbLine
10
28.9753798941596
20
-0.0000000000000031
30
0.0
11
28.9753798941596
21
0.709451398158477
31
0.0
39
0.0
210
0.0
220
0.0
230
1.0
0
TEXT
5
1224
330
1A
100
AcDbEntity
67
0
8
TITLEBLOCK
62
256
6
ByLayer
370
-1
48
1.0
60
0
100
AcDbText
1
REVISIONS
10
29.6341561924496
20
0.760126498026941
30
0.0
40
0.0506183909064019
41
1.0
50
0.0
51
0.0
7
Standard
11
29.6341561924496
21
0.760126498026941
31
0.0
210
0.0
220
0.0
230
1.0
72
1
100
AcDbText
73
2
0
LINE
5
1225
330
1A
100
AcDbEntity
67
0
8
TITLEBLOCK
62
256
6
ByLayer
370
-1
48
1.0
60
0
100
AcDbLine
10
28.5699790952119
20
-0.0000000000000031
30
0.0
11
28.5699790952119
21
0.810801597895403
31
0.0
39
0.0
210
0.0
220
0.0
230
1.0
0
LINE
5
1226
330
1A
100
AcDbEntity
67
0
8
TITLEBLOCK
62
256
6
ByLayer
370
-1
48
1.0
60
0
100
AcDbLine
10
28.5699790952119
20
0.608101198421552
30
0.0
11
30.6983332896874
21
0.608101198421552
31
0.0
39
0.0
210
0.0
220
0.0
230
1.0
0
LINE
5
1227
330
1A
100
AcDbEntity
67
0
8
TITLEBLOCK
62
256
6
ByLayer
370
-1
48
1.0
60
0
100
AcDbLine
10
28.5699790952119
20
0.506750998684626
30
0.0
11
30.6983332896874
21
0.506750998684626
31
0.0
39
0.0
210
0.0
220
0.0
230
1.0
0
LINE
5
1228
330
1A
100
AcDbEntity
67
0
8
TITLEBLOCK
62
256
6
ByLayer
370
-1
48
1.0
60
0
100
AcDbLine
10
28.5699790952119
20
0.4054007989477
30
0.0
11
30.6983332896874
21
0.4054007989477
31
0.0
39
0.0
210
0.0
220
0.0
230
1.0
0
LINE
5
1229
330
1A
100
AcDbEntity
67
0
8
TITLEBLOCK
62
256
6
ByLayer
370
-1
48
1.0
60
0
100
AcDbLine
10
28.5699790952119
20
0.304050599210774
30
0.0
11
30.6983332896874
21
0.304050599210774
31
0.0
39
0.0
210
0.0
220
0.0
230
1.0
0
LINE
5
122A
330
1A
100
AcDbEntity
67
0
8
TITLEBLOCK
62
256
6
ByLayer
370
-1
48
1.0
60
0
100
AcDbLine
10
28.5699790952119
20
0.202700399473849
30
0.0
11
30.6983332896874
21
0.202700399473849
31
0.0
39
0.0
210
0.0
220
0.0
230
1.0
0
LINE
5
122B
330
1A
100
AcDbEntity
67
0
8
TITLEBLOCK
62
256
6
ByLayer
370
-1
48
1.0
60
0
100
AcDbLine
10
28.5699790952119
20
0.101350199736923
30
0.0
11
30.6983332896874
21
0.101350199736923
31
0.0
39
0.0
210
0.0
220
0.0
230
1.0
0
LINE
5
122C
330
1A
100
AcDbEntity
67
0
8
TITLEBLOCK
62
256
6
ByLayer
370
-1
48
1.0
60
0
100
AcDbLine
10
30.2929324907396
20
0.709451398158477
30
0.0
11
30.2929324907396
21
-0.0000000000000031
31
0.0
39
0.0
210
0.0
220
0.0
230
1.0
0
TEXT
5
122D
330
1A
100
AcDbEntity
67
0
8
TITLEBLOCK
62
256
6
ByLayer
370
-1
48
1.0
60
0
100
AcDbText
1
DATE
10
30.4956328902135
20
0.658776298290014
30
0.0
40
0.0445940878842474
41
1.0
50
0.0
51
0.0
7
Standard
11
30.4956328902135
21
0.658776298290014
31
0.0
210
0.0
220
0.0
230
1.0
72
1
100
AcDbText
73
2
0
TEXT
5
122E
330
1A
100
AcDbEntity
67
0
8
TITLEBLOCK
62
256
6
ByLayer
370
-1
48
1.0
60
0
100
AcDbText
1
DESCRIPTION
10
29.6341561924496
20
0.658776298290014
30
0.0
40
0.0445940878842474
41
1.0
50
0.0
51
0.0
7
Standard
11
29.6341561924496
21
0.658776298290014
31
0.0
210
0.0
220
0.0
230
1.0
72
1
100
AcDbText
73
2
0
LINE
5
122F
330
1A
100
AcDbEntity
67
0
8
TITLEBLOCK
62
256
6
ByLayer
370
-1
48
1.0
60
0
100
AcDbLine
10
33.9506492010671
20
0.810801597895403
30
0.0
11
26.0757743360389
21
0.810801597895403
31
0.0
39
0.0
210
0.0
220
0.0
230
1.0
0
LINE
5
1230
330
1A
100
AcDbEntity
67
0
8
TITLEBLOCK
62
256
6
ByLayer
370
-1
48
1.0
60
0
100
AcDbLine
10
26.0757743360389
20
0.810801597895403
30
0.0
11
26.0757743360389
21
-0.0000000000000031
31
0.0
39
0.0
210
0.0
220
0.0
230
1.0
0
INSERT
5
1232
330
1A
100
AcDbEntity
67
0
8
0
62
256
6
ByLayer
370
-1
48
1.0
60
0
100
AcDbBlockReference
2
A$C3473086C
10
26.6393953130179
20
0.729324334708589
30
0.0
41
0.5
42
0.5
43
0.5
50
0.0
210
0.0
220
0.0
230
1.0
0
TEXT
5
1233
330
1A
100
AcDbEntity
67
0
8
TITLEBLOCK
62
256
6
ByLayer
370
-1
48
1.0
60
0
100
AcDbText
1
UNITS
10
33.1929153568518
20
0.340154470370755
30
0.0
40
0.0354772834646045
41
1.0
50
0.0
51
0.0
7
Standard
11
33.1929153568518
21
0.340154470370755
31
0.0
210
0.0
220
0.0
230
1.0
72
0
100
AcDbText
73
0
0
LINE
5
1234
330
1A
100
AcDbEntity
67
0
8
TITLEBLOCK
62
256
6
ByLayer
370
-1
48
1.0
60
0
100
AcDbLine
10
33.1535325481941
20
-0.000000000000003
30
0.0
11
33.1535325481941
21
0.4054007989477
31
0.0
39
0.0
210
0.0
220
0.0
230
1.0
0
MTEXT
5
1235
330
1A
100
AcDbEntity
67
0
8
Text
62
256
6
ByLayer
370
-1
48
1.0
60
0
100
AcDbMText
10
33.2808484595739
20
0.199999988079067
30
0.0
210
0.0
220
0.0
230
1.0
1
{INCHES}
40
0.075000002980232
41
2.75
44
1.0
50
0.0
71
1
72
5
7
Standard
1001
ACAD
1000
ACAD_MTEXT_DEFINED_HEIGHT_BEGIN
1070
46
1040
0.075000002980232
1000
ACAD_MTEXT_DEFINED_HEIGHT_END
0
MTEXT
5
1262
330
1A
100
AcDbEntity
67
0
8
0
62
256
6
ByLayer
370
-1
48
1.0
60
0
100
AcDbMText
10
16.9506492010671
20
0.0477743082387199
30
0.0
210
0.0
220
0.0
230
1.0
1
{THIS DRAWING IS PROPERTY OF HEARN ENGINEERING, LLC.  THIS DRAWING MAY ONLY BE USED FOR MATERIAL SUPPLIED BY HEARN ENGINEERING, LLC.}
40
0.05
41
6.65929135854545
44
1.0
50
0.0
71
8
72
5
7
Standard
1001
ACAD
1000
ACAD_MTEXT_DEFINED_HEIGHT_BEGIN
1070
46
1040
0.059375
1000
ACAD_MTEXT_DEFINED_HEIGHT_END
0
LINE
5
1279
330
1A
100
AcDbEntity
67
0
8
Plate
62
256
6
ByLayer
370
-1
48
1.0
60
0
100
AcDbLine
10
9.82145309448242
20
5.59054851531982
30
0.0
11
9.82145309448242
21
16.9094505310059
31
0.0
39
0.0
210
0.0
220
0.0
230
1.0
0
LINE
5
127A
330
1A
100
AcDbEntity
67
0
8
Plate
62
256
6
ByLayer
370
-1
48
1.0
60
0
100
AcDbLine
10
9.82145309448242
20
16.9094505310059
30
0.0
11
24.1785469055176
21
16.9094505310059
31
0.0
39
0.0
210
0.0
220
0.0
230
1.0
0
LINE
5
127B
330
1A
100
AcDbEntity
67
0
8
Plate
62
256
6
ByLayer
370
-1
48
1.0
60
0
100
AcDbLine
10
24.1785469055176
20
16.9094505310059
30
0.0
11
24.1785469055176
21
5.59054851531982
31
0.0
39
0.0
210
0.0
220
0.0
230
1.0
0
LINE
5
127C
330
1A
100
AcDbEntity
67
0
8
Plate
62
256
6
ByLayer
370
-1
48
1.0
60
0
100
AcDbLine
10
24.1785469055176
20
5.59054851531982
30
0.0
11
9.82145309448242
21
5.59054851531982
31
0.0
39
0.0
210
0.0
220
0.0
230
1.0
0
LINE
5
127D
330
1A
100
AcDbEntity
67
0
8
Plate
62
256
6
ByLayer
370
-1
48
1.0
60
0
100
AcDbLine
10
11.7047214508057
20
6.84054851531982
30
0.0
11
11.7047214508057
21
15.6594514846802
31
0.0
39
0.0
210
0.0
220
0.0
230
1.0
0
LINE
5
127E
330
1A
100
AcDbEntity
67
0
8
Plate
62
256
6
ByLayer
370
-1
48
1.0
60
0
100
AcDbLine
10
11.7047214508057
20
15.6594514846802
30
0.0
11
22.2952785491943
21
15.6594514846802
31
0.0
39
0.0
210
0.0
220
0.0
230
1.0
0
LINE
5
127F
330
1A
100
AcDbEntity
67
0
8
Plate
62
256
6
ByLayer
370
-1
48
1.0
60
0
100
AcDbLine
10
22.2952785491943
20
15.6594514846802
30
0.0
11
22.2952785491943
21
6.84054851531982
31
0.0
39
0.0
210
0.0
220
0.0
230
1.0
0
LINE
5
1280
330
1A
100
AcDbEntity
67
0
8
Plate
62
256
6
ByLayer
370
-1
48
1.0
60
0
100
AcDbLine
10
22.2952785491943
20
6.84054851531982
30
0.0
11
11.7047214508057
21
6.84054851531982
31
0.0
39
0.0
210
0.0
220
0.0
230
1.0
0
HATCH
5
1281
330
1A
100
AcDbEntity
67
0
8
Plate
62
9
6
ByLayer
370
-1
48
1.0
60
0
100
AcDbHatch
10
0.0
20
0.0
30
0.0
210
0.0
220
0.0
230
1.0
2
DOTS
70
0
71
0
91
3
92
5
93
0
97
0
92
5
93
4
72
1
10
9.82145309448242
20
5.59054851531982
11
9.82145309448242
21
16.9094505310059
72
1
10
9.82145309448242
20
16.9094505310059
11
24.1785469055176
21
16.9094505310059
72
1
10
24.1785469055176
20
16.9094505310059
11
24.1785469055176
21
5.59054851531982
72
1
10
24.1785469055176
20
5.59054851531982
11
9.82145309448242
21
5.59054851531982
97
0
92
5
93
4
72
1
10
11.7047214508057
20
6.84054851531982
11
11.7047214508057
21
15.6594514846802
72
1
10
11.7047214508057
20
15.6594514846802
11
22.2952785491943
21
15.6594514846802
72
1
10
22.2952785491943
20
15.6594514846802
11
22.2952785491943
21
6.84054851531982
72
1
10
22.2952785491943
20
6.84054851531982
11
11.7047214508057
21
6.84054851531982
97
0
75
0
76
1
52
0.0
41
5.0
77
0
78
1
53
0.0
43
0.0
44
0.0
45
0.15625
46
0.3125
79
2
49
0.0
49
-0.3125
47
0.0
98
1
10
0.0
20
0.0
1001
ACAD
1010
0.0
1020
0.0
1030
0.0
0
LINE
5
1282
330
1A
100
AcDbEntity
67
0
8
Gasket
62
256
6
ByLayer
370
-1
48
1.0
60
0
100
AcDbLine
10
9.83395290374756
20
5.60304832458496
30
0.0
11
9.83395290374756
21
16.896951675415
31
0.0
39
0.0
210
0.0
220
0.0
230
1.0
0
LINE
5
1283
330
1A
100
AcDbEntity
67
0
8
Gasket
62
256
6
ByLayer
370
-1
48
1.0
60
0
100
AcDbLine
10
9.83395290374756
20
16.896951675415
30
0.0
11
24.1660480499268
21
16.896951675415
31
0.0
39
0.0
210
0.0
220
0.0
230
1.0
0
LINE
5
1284
330
1A
100
AcDbEntity
67
0
8
Gasket
62
256
6
ByLayer
370
-1
48
1.0
60
0
100
AcDbLine
10
24.1660480499268
20
16.896951675415
30
0.0
11
24.1660480499268
21
5.60304832458496
31
0.0
39
0.0
210
0.0
220
0.0
230
1.0
0
LINE
5
1285
330
1A
100
AcDbEntity
67
0
8
Gasket
62
256
6
ByLayer
370
-1
48
1.0
60
0
100
AcDbLine
10
24.1660480499268
20
5.60304832458496
30
0.0
11
9.83395290374756
21
5.60304832458496
31
0.0
39
0.0
210
0.0
220
0.0
230
1.0
0
LINE
5
1286
330
1A
100
AcDbEntity
67
0
8
Gasket
62
256
6
ByLayer
370
-1
48
1.0
60
0
100
AcDbLine
10
10.3339529037476
20
6.10304832458496
30
0.0
11
10.3339529037476
21
16.396951675415
31
0.0
39
0.0
210
0.0
220
0.0
230
1.0
0
LINE
5
1287
330
1A
100
AcDbEntity
67
0
8
Gasket
62
256
6
ByLayer
370
-1
48
1.0
60
0
100
AcDbLine
10
10.3339529037476
20
16.396951675415
30
0.0
11
23.6660480499268
21
16.396951675415
31
0.0
39
0.0
210
0.0
220
0.0
230
1.0
0
LINE
5
1288
330
1A
100
AcDbEntity
67
0
8
Gasket
62
256
6
ByLayer
370
-1
48
1.0
60
0
100
AcDbLine
10
23.6660480499268
20
16.396951675415
30
0.0
11
23.6660480499268
21
6.10304832458496
31
0.0
39
0.0
210
0.0
220
0.0
230
1.0
0
LINE
5
1289
330
1A
100
AcDbEntity
67
0
8
Gasket
62
256
6
ByLayer
370
-1
48
1.0
60
0
100
AcDbLine
10
23.6660480499268
20
6.10304832458496
30
0.0
11
10.3339529037476
21
6.10304832458496
31
0.0
39
0.0
210
0.0
220
0.0
230
1.0
0
HATCH
5
128A
330
1A
100
AcDbEntity
67
0
8
Gasket
62
256
6
ByLayer
370
-1
48
1.0
60
0
100
AcDbHatch
10
0.0
20
0.0
30
0.0
210
0.0
220
0.0
230
1.0
2
LINE
70
0
71
0
91
3
92
5
93
0
97
0
92
5
93
4
72
1
10
9.83395290374756
20
5.60304832458496
11
9.83395290374756
21
16.896951675415
72
1
10
9.83395290374756
20
16.896951675415
11
24.1660480499268
21
16.896951675415
72
1
10
24.1660480499268
20
16.896951675415
11
24.1660480499268
21
5.60304832458496
72
1
10
24.1660480499268
20
5.60304832458496
11
9.83395290374756
21
5.60304832458496
97
0
92
5
93
4
72
1
10
10.3339529037476
20
6.10304832458496
11
10.3339529037476
21
16.396951675415
72
1
10
10.3339529037476
20
16.396951675415
11
23.6660480499268
21
16.396951675415
72
1
10
23.6660480499268
20
16.396951675415
11
23.6660480499268
21
6.10304832458496
72
1
10
23.6660480499268
20
6.10304832458496
11
10.3339529037476
21
6.10304832458496
97
0
75
0
76
1
52
45.0
41
1.0
77
0
78
1
53
45.0
43
0.0
44
0.0
45
-0.0883883476483184
46
0.0883883476483184
79
0
47
0.0
98
1
10
0.0
20
0.0
1001
ACAD
1010
0.0
1020
0.0
1030
0.0
0
CIRCLE
5
128B
330
1A
100
AcDbEntity
67
0
8
Stud
62
256
6
ByLayer
370
-1
48
1.0
60
0
100
AcDbCircle
10
10.4914531707764
20
6.33594179153442
30
0.0
40
0.0949999988079071
39
0.0
210
0.0
220
0.0
230
1.0
0
POINT
5
128C
330
1A
100
AcDbEntity
67
0
8
Stud
62
256
6
ByLayer
370
-1
48
1.0
60
0
100
AcDbPoint
10
10.4914531707764
20
6.33594179153442
30
0.0
39
0.0
210
0.0
220
0.0
230
1.0
50
360.0
0
CIRCLE
5
128D
330
1A
100
AcDbEntity
67
0
8
Stud
62
256
6
ByLayer
370
-1
48
1.0
60
0
100
AcDbCircle
10
23.5085487365723
20
6.33594179153442
30
0.0
40
0.0949999988079071
39
0.0
210
0.0
220
0.0
230
1.0
0
POINT
5
128E
330
1A
100
AcDbEntity
67
0
8
Stud
62
256
6
ByLayer
370
-1
48
1.0
60
0
100
AcDbPoint
10
23.5085487365723
20
6.33594179153442
30
0.0
39
0.0
210
0.0
220
0.0
230
1.0
50
360.0
0
CIRCLE
5
128F
330
1A
100
AcDbEntity
67
0
8
Stud
62
256
6
ByLayer
370
-1
48
1.0
60
0
100
AcDbCircle
10
23.5085487365723
20
16.1640586853027
30
0.0
40
0.0949999988079071
39
0.0
210
0.0
220
0.0
230
1.0
0
POINT
5
1290
330
1A
100
AcDbEntity
67
0
8
Stud
62
256
6
ByLayer
370
-1
48
1.0
60
0
100
AcDbPoint
10
23.5085487365723
20
16.1640586853027
30
0.0
39
0.0
210
0.0
220
0.0
230
1.0
50
360.0
0
CIRCLE
5
1291
330
1A
100
AcDbEntity
67
0
8
Stud
62
256
6
ByLayer
370
-1
48
1.0
60
0
100
AcDbCircle
10
10.4914531707764
20
16.1640586853027
30
0.0
40
0.0949999988079071
39
0.0
210
0.0
220
0.0
230
1.0
0
POINT
5
1292
330
1A
100
AcDbEntity
67
0
8
Stud
62
256
6
ByLayer
370
-1
48
1.0
60
0
100
AcDbPoint
10
10.4914531707764
20
16.1640586853027
30
0.0
39
0.0
210
0.0
220
0.0
230
1.0
50
360.0
0
CIRCLE
5
1293
330
1A
100
AcDbEntity
67
0
8
Stud
62
256
6
ByLayer
370
-1
48
1.0
60
0
100
AcDbCircle
10
14.8304843902588
20
6.33594179153442
30
0.0
40
0.0949999988079071
39
0.0
210
0.0
220
0.0
230
1.0
0
POINT
5
1294
330
1A
100
AcDbEntity
67
0
8
Stud
62
256
6
ByLayer
370
-1
48
1.0
60
0
100
AcDbPoint
10
14.8304843902588
20
6.33594179153442
30
0.0
39
0.0
210
0.0
220
0.0
230
1.0
50
360.0
0
CIRCLE
5
1295
330
1A
100
AcDbEntity
67
0
8
Stud
62
256
6
ByLayer
370
-1
48
1.0
60
0
100
AcDbCircle
10
19.1695175170898
20
6.33594179153442
30
0.0
40
0.0949999988079071
39
0.0
210
0.0
220
0.0
230
1.0
0
POINT
5
1296
330
1A
100
AcDbEntity
67
0
8
Stud
62
256
6
ByLayer
370
-1
48
1.0
60
0
100
AcDbPoint
10
19.1695175170898
20
6.33594179153442
30
0.0
39
0.0
210
0.0
220
0.0
230
1.0
50
360.0
0
CIRCLE
5
1297
330
1A
100
AcDbEntity
67
0
8
Stud
62
256
6
ByLayer
370
-1
48
1.0
60
0
100
AcDbCircle
10
14.8304843902588
20
16.1640586853027
30
0.0
40
0.0949999988079071
39
0.0
210
0.0
220
0.0
230
1.0
0
POINT
5
1298
330
1A
100
AcDbEntity
67
0
8
Stud
62
256
6
ByLayer
370
-1
48
1.0
60
0
100
AcDbPoint
10
14.8304843902588
20
16.1640586853027
30
0.0
39
0.0
210
0.0
220
0.0
230
1.0
50
360.0
0
CIRCLE
5
1299
330
1A
100
AcDbEntity
67
0
8
Stud
62
256
6
ByLayer
370
-1
48
1.0
60
0
100
AcDbCircle
10
19.1695175170898
20
16.1640586853027
30
0.0
40
0.0949999988079071
39
0.0
210
0.0
220
0.0
230
1.0
0
POINT
5
129A
330
1A
100
AcDbEntity
67
0
8
Stud
62
256
6
ByLayer
370
-1
48
1.0
60
0
100
AcDbPoint
10
19.1695175170898
20
16.1640586853027
30
0.0
39
0.0
210
0.0
220
0.0
230
1.0
50
360.0
0
CIRCLE
5
129B
330
1A
100
AcDbEntity
67
0
8
Stud
62
256
6
ByLayer
370
-1
48
1.0
60
0
100
AcDbCircle
10
10.4914531707764
20
11.25
30
0.0
40
0.0949999988079071
39
0.0
210
0.0
220
0.0
230
1.0
0
POINT
5
129C
330
1A
100
AcDbEntity
67
0
8
Stud
62
256
6
ByLayer
370
-1
48
1.0
60
0
100
AcDbPoint
10
10.4914531707764
20
11.25
30
0.0
39
0.0
210
0.0
220
0.0
230
1.0
50
360.0
0
CIRCLE
5
129D
330
1A
100
AcDbEntity
67
0
8
Stud
62
256
6
ByLayer
370
-1
48
1.0
60
0
100
AcDbCircle
10
23.5085487365723
20
11.25
30
0.0
40
0.0949999988079071
39
0.0
210
0.0
220
0.0
230
1.0
0
POINT
5
129E
330
1A
100
AcDbEntity
67
0
8
Stud
62
256
6
ByLayer
370
-1
48
1.0
60
0
100
AcDbPoint
10
23.5085487365723
20
11.25
30
0.0
39
0.0
210
0.0
220
0.0
230
1.0
50
360.0
0
HATCH
5
129F
330
1A
100
AcDbEntity
67
0
8
BackPlate
62
256
6
ByLayer
370
-1
48
1.0
60
0
100
AcDbHatch
10
0.0
20
0.0
30
0.0
210
0.0
220
0.0
230
1.0
2
LINE
70
0
71
0
91
1
92
5
93
0
97
0
75
0
76
1
52
315.0
41
1.0
77
0
78
1
53
315.0
43
0.0
44
0.0
45
0.0883883476483185
46
0.0883883476483184
79
0
47
0.0
98
1
10
0.0
20
0.0
1001
ACAD
1010
0.0
1020
0.0
1030
0.0
0
LINE
5
12A0
330
1A
100
AcDbEntity
67
0
8
PrevBezel
62
256
6
ByLayer
370
-1
48
1.0
60
0
100
AcDbLine
10
9.85432720184326
20
5.69881582260132
30
0.0
11
9.85432720184326
21
16.8011856079102
31
0.0
39
0.0
210
0.0
220
0.0
230
1.0
0
LINE
5
12A1
330
1A
100
AcDbEntity
67
0
8
PrevBezel
62
256
6
ByLayer
370
-1
48
1.0
60
0
100
AcDbLine
10
9.85432720184326
20
16.8011856079102
30
0.0
11
24.1456737518311
21
16.8011856079102
31
0.0
39
0.0
210
0.0
220
0.0
230
1.0
0
LINE
5
12A2
330
1A
100
AcDbEntity
67
0
8
PrevBezel
62
256
6
ByLayer
370
-1
48
1.0
60
0
100
AcDbLine
10
24.1456737518311
20
16.8011856079102
30
0.0
11
24.1456737518311
21
5.69881582260132
31
0.0
39
0.0
210
0.0
220
0.0
230
1.0
0
LINE
5
12A3
330
1A
100
AcDbEntity
67
0
8
PrevBezel
62
256
6
ByLayer
370
-1
48
1.0
60
0
100
AcDbLine
10
24.1456737518311
20
5.69881582260132
30
0.0
11
9.85432720184326
21
5.69881582260132
31
0.0
39
0.0
210
0.0
220
0.0
230
1.0
0
LINE
5
12A4
330
1A
100
AcDbEntity
67
0
8
PrevCutout
62
256
6
ByLayer
370
-1
48
1.0
60
0
100
AcDbLine
10
10.3464527130127
20
6.19094181060791
30
0.0
11
10.3464527130127
21
16.3090591430664
31
0.0
39
0.0
210
0.0
220
0.0
230
1.0
0
LINE
5
12A5
330
1A
100
AcDbEntity
67
0
8
PrevCutout
62
256
6
ByLayer
370
-1
48
1.0
60
0
100
AcDbLine
10
10.3464527130127
20
16.3090591430664
30
0.0
11
23.6535472869873
21
16.3090591430664
31
0.0
39
0.0
210
0.0
220
0.0
230
1.0
0
LINE
5
12A6
330
1A
100
AcDbEntity
67
0
8
PrevCutout
62
256
6
ByLayer
370
-1
48
1.0
60
0
100
AcDbLine
10
23.6535472869873
20
16.3090591430664
30
0.0
11
23.6535472869873
21
6.19094181060791
31
0.0
39
0.0
210
0.0
220
0.0
230
1.0
0
LINE
5
12A7
330
1A
100
AcDbEntity
67
0
8
PrevCutout
62
256
6
ByLayer
370
-1
48
1.0
60
0
100
AcDbLine
10
23.6535472869873
20
6.19094181060791
30
0.0
11
10.3464527130127
21
6.19094181060791
31
0.0
39
0.0
210
0.0
220
0.0
230
1.0
0
LINE
5
12A8
330
1A
100
AcDbEntity
67
0
8
NewBezel
62
256
6
ByLayer
370
-1
48
1.0
60
0
100
AcDbLine
10
11.1535406112671
20
6.28936719894409
30
0.0
11
11.1535406112671
21
16.2106323242188
31
0.0
39
0.0
210
0.0
220
0.0
230
1.0
0
LINE
5
12A9
330
1A
100
AcDbEntity
67
0
8
NewBezel
62
256
6
ByLayer
370
-1
48
1.0
60
0
100
AcDbLine
10
11.1535406112671
20
16.2106323242188
30
0.0
11
22.8464603424072
21
16.2106323242188
31
0.0
39
0.0
210
0.0
220
0.0
230
1.0
0
LINE
5
12AA
330
1A
100
AcDbEntity
67
0
8
NewBezel
62
256
6
ByLayer
370
-1
48
1.0
60
0
100
AcDbLine
10
22.8464603424072
20
16.2106323242188
30
0.0
11
22.8464603424072
21
6.28936719894409
31
0.0
39
0.0
210
0.0
220
0.0
230
1.0
0
LINE
5
12AB
330
1A
100
AcDbEntity
67
0
8
NewBezel
62
256
6
ByLayer
370
-1
48
1.0
60
0
100
AcDbLine
10
22.8464603424072
20
6.28936719894409
30
0.0
11
11.1535406112671
21
6.28936719894409
31
0.0
39
0.0
210
0.0
220
0.0
230
1.0
0
DIMENSION
5
12AC
330
1A
100
AcDbEntity
67
0
8
Dimension
62
256
6
ByLayer
370
-1
48
1.0
60
0
100
AcDbDimension
2
*D1
10
24.1785469055176
20
17.2094505429268
30
0.0
11
17.0
21
17.2094505429268
31
0.0
70
32
71
5
72
1
41
1.0
210
0.0
220
0.0
230
1.0
3
DimStyle
100
AcDbAlignedDimension
13
9.82145309448242
23
16.9094505310059
33
0.0
14
24.1785469055176
24
16.9094505310059
34
0.0
50
0.0
100
AcDbRotatedDimension
0
DIMENSION
5
12BA
330
1A
100
AcDbEntity
67
0
8
Dimension
62
256
6
ByLayer
370
-1
48
1.0
60
0
100
AcDbDimension
2
*D2
10
9.52145308256149
20
5.59054851531982
30
0.0
11
9.52145308256149
21
11.2499995231628
31
0.0
70
32
71
5
72
1
41
1.0
210
0.0
220
0.0
230
1.0
3
DimStyle
100
AcDbAlignedDimension
13
9.82145309448242
23
16.9094505310059
33
0.0
14
9.82145309448242
24
5.59054851531982
34
0.0
50
90.0
100
AcDbRotatedDimension
0
DIMENSION
5
12C7
330
1A
100
AcDbEntity
67
0
8
Dimension
62
256
6
ByLayer
370
-1
48
1.0
60
0
100
AcDbDimension
2
*D3
10
22.2952785491943
20
15.9594514966011
30
0.0
11
17.0
21
15.9594514966011
31
0.0
70
32
71
5
72
1
41
1.0
210
0.0
220
0.0
230
1.0
3
DimStyle
100
AcDbAlignedDimension
13
11.7047214508057
23
15.6594514846802
33
0.0
14
22.2952785491943
24
15.6594514846802
34
0.0
50
0.0
100
AcDbRotatedDimension
0
DIMENSION
5
12D4
330
1A
100
AcDbEntity
67
0
8
Dimension
62
256
6
ByLayer
370
-1
48
1.0
60
0
100
AcDbDimension
2
*D4
10
11.4047214388847
20
15.6594514846802
30
0.0
11
11.4047214388847
21
11.25
31
0.0
70
32
71
5
72
1
41
1.0
210
0.0
220
0.0
230
1.0
3
DimStyle
100
AcDbAlignedDimension
13
11.7047214508057
23
6.84054851531982
33
0.0
14
11.7047214508057
24
15.6594514846802
34
0.0
50
90.0
100
AcDbRotatedDimension
0
LINE
5
12E1
330
1A
100
AcDbEntity
67
0
8
BackPlate
62
256
6
ByLayer
370
-1
48
1.0
60
0
100
AcDbLine
10
0.25
20
0.875
30
0.0
11
2.0
21
0.875
31
0.0
39
0.0
210
0.0
220
0.0
230
1.0
0
LINE
5
12E2
330
1A
100
AcDbEntity
67
0
8
Gasket
62
256
6
ByLayer
370
-1
48
1.0
60
0
100
AcDbLine
10
0.25
20
0.625
30
0.0
11
2.0
21
0.625
31
0.0
39
0.0
210
0.0
220
0.0
230
1.0
0
LINE
5
12E3
330
1A
100
AcDbEntity
67
0
8
NewBezel
62
256
6
ByLayer
370
-1
48
1.0
60
0
100
AcDbLine
10
0.25
20
0.25
30
0.0
11
2.0
21
0.25
31
0.0
39
0.0
210
0.0
220
0.0
230
1.0
0
LINE
5
12E4
330
1A
100
AcDbEntity
67
0
8
Plate
62
256
6
ByLayer
370
-1
48
1.0
60
0
100
AcDbLine
10
0.25
20
1.0
30
0.0
11
2.0
21
1.0
31
0.0
39
0.0
210
0.0
220
0.0
230
1.0
0
LINE
5
12E5
330
1A
100
AcDbEntity
67
0
8
PrevBezel
62
256
6
ByLayer
370
-1
48
1.0
60
0
100
AcDbLine
10
0.25
20
0.5
30
0.0
11
2.0
21
0.5
31
0.0
39
0.0
210
0.0
220
0.0
230
1.0
0
LINE
5
12E6
330
1A
100
AcDbEntity
67
0
8
PrevCutout
62
256
6
ByLayer
370
-1
48
1.0
60
0
100
AcDbLine
10
0.25
20
0.375
30
0.0
11
2.0
21
0.375
31
0.0
39
0.0
210
0.0
220
0.0
230
1.0
0
LINE
5
12E7
330
1A
100
AcDbEntity
67
0
8
Stud
62
256
6
ByLayer
370
-1
48
1.0
60
0
100
AcDbLine
10
0.25
20
0.75
30
0.0
11
2.0
21
0.75
31
0.0
39
0.0
210
0.0
220
0.0
230
1.0
0
MTEXT
5
12E8
330
1A
100
AcDbEntity
67
0
8
Text
62
256
6
ByLayer
370
-1
48
1.0
60
0
100
AcDbMText
10
2.25
20
1.04999995231628
30
0.0
210
0.0
220
0.0
230
1.0
1
ADAPTER PLATE (11 GAUGE)
40
0.0750000029802322
41
2.25
44
1.0
50
0.0
71
1
72
5
7
Standard
0
MTEXT
5
12E9
330
1A
100
AcDbEntity
67
0
8
Text
62
256
6
ByLayer
370
-1
48
1.0
60
0
100
AcDbMText
10
2.25
20
0.925000011920929
30
0.0
210
0.0
220
0.0
230
1.0
1
BACK PLATE (11 GAUGE)
40
0.0750000029802322
41
2.25
44
1.0
50
0.0
71
1
72
5
7
Standard
0
MTEXT
5
12EA
330
1A
100
AcDbEntity
67
0
8
Text
62
256
6
ByLayer
370
-1
48
1.0
60
0
100
AcDbMText
10
2.25
20
0.550000011920929
30
0.0
210
0.0
220
0.0
230
1.0
1
EXISTING HMI BEZEL
40
0.0750000029802322
41
2.25
44
1.0
50
0.0
71
1
72
5
7
Standard
0
MTEXT
5
12EB
330
1A
100
AcDbEntity
67
0
8
Text
62
256
6
ByLayer
370
-1
48
1.0
60
0
100
AcDbMText
10
2.25
20
0.425000011920929
30
0.0
210
0.0
220
0.0
230
1.0
1
EXISTING HMI CUTOUT
40
0.0750000029802322
41
2.25
44
1.0
50
0.0
71
1
72
5
7
Standard
0
MTEXT
5
12EC
330
1A
100
AcDbEntity
67
0
8
Text
62
256
6
ByLayer
370
-1
48
1.0
60
0
100
AcDbMText
10
1.75
20
1.29999995231628
30
0.0
210
0.0
220
0.0
230
1.0
1
LEGEND
40
0.0750000029802322
41
2.25
44
1.0
50
0.0
71
1
72
5
7
Standard
0
MTEXT
5
12ED
330
1A
100
AcDbEntity
67
0
8
Text
62
256
6
ByLayer
370
-1
48
1.0
60
0
100
AcDbMText
10
2.25
20
0.800000011920929
30
0.0
210
0.0
220
0.0
230
1.0
1
MOUNTING STUD (10-32x3/4")
40
0.0750000029802322
41
2.25
44
1.0
50
0.0
71
1
72
5
7
Standard
0
MTEXT
5
12EE
330
1A
100
AcDbEntity
67
0
8
Text
62
256
6
ByLayer
370
-1
48
1.0
60
0
100
AcDbMText
10
2.25
20
0.300000011920929
30
0.0
210
0.0
220
0.0
230
1.0
1
NEW HMI BEZEL
40
0.0750000029802322
41
2.25
44
1.0
50
0.0
71
1
72
5
7
Standard
0
MTEXT
5
12EF
330
1A
100
AcDbEntity
67
0
8
Text
62
256
6
ByLayer
370
-1
48
1.0
60
0
100
AcDbMText
10
2.25
20
0.675000011920929
30
0.0
210
0.0
220
0.0
230
1.0
1
SEALING GASKET
40
0.0750000029802322
41
2.25
44
1.0
50
0.0
71
1
72
5
7
Standard
0
MTEXT
5
12F0
330
1A
100
AcDbEntity
67
0
8
Text
62
256
6
ByLayer
370
-1
48
1.0
60
0
100
AcDbMText
10
30.3649997711182
20
0.579999983310699
30
0.0
210
0.0
220
0.0
230
1.0
1
04/22/2020
40
0.0399999991059303
41
0.379999995231628
44
1.0
50
0.0
71
1
72
5
7
Standard
0
MTEXT
5
12F1
330
1A
100
AcDbEntity
67
0
8
Text
62
256
6
ByLayer
370
-1
48
1.0
60
0
100
AcDbMText
10
28.8050003051758
20
0.579999983310699
30
0.0
210
0.0
220
0.0
230
1.0
1
1
40
0.0399999991059303
41
0.100000001490116
44
1.0
50
0.0
71
1
72
5
7
Standard
0
MTEXT
5
12F2
330
1A
100
AcDbEntity
67
0
8
Text
62
256
6
ByLayer
370
-1
48
1.0
60
0
100
AcDbMText
10
30.875
20
0.649999976158142
30
0.0
210
0.0
220
0.0
230
1.0
1
AP3016-2028-IN-XX-XX-XX
40
0.0750000029802322
41
3.0
44
1.0
50
0.0
71
1
72
5
7
Standard
0
MTEXT
5
12F3
330
1A
100
AcDbEntity
67
0
8
Text
62
256
6
ByLayer
370
-1
48
1.0
60
0
100
AcDbMText
10
30.875
20
0.200000002980232
30
0.0
210
0.0
220
0.0
230
1.0
1
Apr 22 2020 11:35AM
40
0.0750000029802322
41
2.25
44
1.0
50
0.0
71
1
72
5
7
Standard
0
MTEXT
5
12F4
330
1A
100
AcDbEntity
67
0
8
Text
62
256
6
ByLayer
370
-1
48
1.0
60
0
100
AcDbMText
10
26.375
20
1.14999997615814
30
0.0
210
0.0
220
0.0
230
1.0
1
Existing HMI: Allen Bradley    #2711P-T12C4D9    Bezel Size:14.291"W x 11.102"H    Cutout:13.307"W x 10.118"H
40
0.0750000029802322
41
7.5
44
1.0
50
0.0
71
1
72
5
7
Standard
0
MTEXT
5
12F5
330
1A
100
AcDbEntity
67
0
8
Text
62
256
6
ByLayer
370
-1
48
1.0
60
0
100
AcDbMText
10
29.0450000762939
20
0.579999983310699
30
0.0
210
0.0
220
0.0
230
1.0
1
INITIAL ISSUE
40
0.0399999991059303
41
1.25
44
1.0
50
0.0
71
1
72
5
7
Standard
0
MTEXT
5
12F6
330
1A
100
AcDbEntity
67
0
8
Text
62
256
6
ByLayer
370
-1
48
1.0
60
0
100
AcDbMText
10
26.375
20
1.0
30
0.0
210
0.0
220
0.0
230
1.0
1
New HMI: Allen Bradley    #2711P-T10C22D8S    Bezel Size:11.693"W x 9.921"H    Cutout:10.591"W x 8.819"H
40
0.0750000029802322
41
7.5
44
1.0
50
0.0
71
1
72
5
7
Standard
0
VIEWPORT
5
126E
330
56C
100
AcDbEntity
67
1
8
0
62
256
6
ByLayer
370
-1
48
1.0
60
0
100
AcDbViewport
10
0.0
20
0.0
30
0.0
40
297.0
41
210.0
68
1
69
1
12
50.0
22
100.0
13
0.0
23
0.0
14
10.0
24
10.0
15
10.0
25
10.0
16
0.0
26
0.0
36
1.0
17
0.0
27
0.0
37
0.0
42
50.0
43
0.0
44
0.0
45
250.0
50
0.0
51
0.0
72
1000
90
819232
110
0.0
120
0.0
130
0.0
111
1.0
121
0.0
131
0.0
112
0.0
122
1.0
132
0.0
0
ENDSEC
0
SECTION
2
OBJECTS
0
DICTIONARY
5
12F7
330
0
100
AcDbDictionary
280
0
281
1
3
ACAD_GROUP
350
12F8
3
ACAD_LAYOUT
350
12F9
3
ACAD_MLINESTYLE
350
12FD
0
DICTIONARY
5
12F8
330
12F7
100
AcDbDictionary
280
0
281
1
0
DICTIONARY
5
12F9
330
12F7
100
AcDbDictionary
280
0
281
1
3
Model
350
1E
3
Sheet1
350
56D
0
DICTIONARY
5
12FD
330
12F7
100
AcDbDictionary
280
0
281
1
3
STANDARD
350
19
0
LAYOUT
5
1E
330
12F9
100
AcDbPlotSettings
1

2
none_device
4
ISO_A4_(210.00_x_297.00_MM)
6

40
7.5
41
20.0
42
7.5
43
20.0
44
210.0
45
297.0
46
0.0
47
0.0
48
0.0
49
0.0
140
0.0
141
0.0
142
1.0
143
1.0
70
11952
72
1
73
1
74
5
7

75
16
147
1.0
148
16.6633025568182
149
0.234999999999994
100
AcDbLayout
1
Model
70
1
71
1
10
-7.5
20
-7.5
11
277.0
21
202.5
12
0.0
22
0.0
32
0.0
14
-0.0493507989328918
24
-0.0000000000000036
34
0.0
15
33.9506492010671
25
22.0
35
0.0
146
0.0
13
0.0
23
0.0
33
0.0
16
1.0
26
0.0
36
0.0
17
0.0
27
1.0
37
0.0
76
0
330
1A
0
LAYOUT
5
56D
330
12F9
100
AcDbPlotSettings
1

2
none_device
4

6

40
0.0
41
0.0
42
0.0
43
0.0
44
0.0
45
0.0
46
0.0
47
0.0
48
0.0
49
0.0
140
0.0
141
0.0
142
1.0
143
1.0
70
688
72
0
73
0
74
5
7

75
16
147
1.0
148
0.0
149
0.0
100
AcDbLayout
1
Sheet1
70
1
71
1
10
0.0
20
-7.5
11
0.0
21
0.0
12
0.0
22
0.0
32
0.0
14
100000000000000000000.0
24
100000000000000000000.0
34
100000000000000000000.0
15
-100000000000000000000.0
25
-100000000000000000000.0
35
-100000000000000000000.0
146
0.0
13
0.0
23
0.0
33
0.0
16
1.0
26
0.0
36
0.0
17
0.0
27
1.0
37
0.0
76
0
330
56C
0
MLINESTYLE
5
19
330
12FD
100
AcDbMlineStyle
2
STANDARD
70
0
3

62
256
51
90.0
52
90.0
71
2
49
-0.5
62
256
6
ByLayer
49
0.5
62
256
6
ByLayer
0
ENDSEC
0
EOF
