  0
SECTION
  2
HEADER
  9
$ACADVER
  1
AC1015
  9
$ACADMAINTVER
 70
    20
  9
$DWGCODEPAGE
  3
ANSI_1252
  9
$INSBASE
 10
0.0
 20
0.0
 30
0.0
  9
$EXTMIN
 10
-0.0003661829982491
 20
-0.0002746372486868
 30
-0.0015258207003583
  9
$EXTMAX
 10
18.50061038706988
 20
12.50010683655286
 30
0.0000000349246037
  9
$LIMMIN
 10
0.0
 20
0.0
  9
$LIMMAX
 10
12.0
 20
9.0
  9
$ORTHOMODE
 70
     0
  9
$REGENMODE
 70
     1
  9
$FILLMODE
 70
     1
  9
$QTEXTMODE
 70
     0
  9
$MIRRTEXT
 70
     0
  9
$LTSCALE
 40
1.0
  9
$ATTMODE
 70
     1
  9
$TEXTSIZE
 40
0.0
  9
$TRACEWID
 40
0.05
  9
$TEXTSTYLE
  7
Standard
  9
$CLAYER
  8
0
  9
$CELTYPE
  6
ByLayer
  9
$CECOLOR
 62
   256
  9
$CELTSCALE
 40
1.0
  9
$DISPSILH
 70
     0
  9
$DIMSCALE
 40
1.0
  9
$DIMASZ
 40
0.18
  9
$DIMEXO
 40
0.0625
  9
$DIMDLI
 40
0.38
  9
$DIMRND
 40
0.0
  9
$DIMDLE
 40
0.0
  9
$DIMEXE
 40
0.18
  9
$DIMTP
 40
0.0
  9
$DIMTM
 40
0.0
  9
$DIMTXT
 40
0.18
  9
$DIMCEN
 40
0.09
  9
$DIMTSZ
 40
0.0
  9
$DIMTOL
 70
     0
  9
$DIMLIM
 70
     0
  9
$DIMTIH
 70
     0
  9
$DIMTOH
 70
     0
  9
$DIMSE1
 70
     0
  9
$DIMSE2
 70
     0
  9
$DIMTAD
 70
     1
  9
$DIMZIN
 70
     0
  9
$DIMBLK
  1

  9
$DIMASO
 70
     1
  9
$DIMSHO
 70
     1
  9
$DIMPOST
  1
<>
  9
$DIMAPOST
  1

  9
$DIMALT
 70
     0
  9
$DIMALTD
 70
     2
  9
$DIMALTF
 40
25.4
  9
$DIMLFAC
 40
1.0
  9
$DIMTOFL
 70
     0
  9
$DIMTVP
 40
0.0
  9
$DIMTIX
 70
     0
  9
$DIMSOXD
 70
     0
  9
$DIMSAH
 70
     0
  9
$DIMBLK1
  1

  9
$DIMBLK2
  1

  9
$DIMSTYLE
  2
Standard
  9
$DIMCLRD
 70
     0
  9
$DIMCLRE
 70
     0
  9
$DIMCLRT
 70
     0
  9
$DIMTFAC
 40
1.0
  9
$DIMGAP
 40
0.09
  9
$DIMJUST
 70
     0
  9
$DIMSD1
 70
     0
  9
$DIMSD2
 70
     0
  9
$DIMTOLJ
 70
     1
  9
$DIMTZIN
 70
     0
  9
$DIMALTZ
 70
     0
  9
$DIMALTTZ
 70
     0
  9
$DIMUPT
 70
     0
  9
$DIMDEC
 70
     2
  9
$DIMTDEC
 70
     4
  9
$DIMALTU
 70
     2
  9
$DIMALTTD
 70
     2
  9
$DIMTXSTY
  7
Standard
  9
$DIMAUNIT
 70
     0
  9
$DIMADEC
 70
     0
  9
$DIMALTRND
 40
0.0
  9
$DIMAZIN
 70
     3
  9
$DIMDSEP
 70
    46
  9
$DIMATFIT
 70
     3
  9
$DIMFRAC
 70
     0
  9
$DIMLDRBLK
  1

  9
$DIMLUNIT
 70
     2
  9
$DIMLWD
 70
    -2
  9
$DIMLWE
 70
    -2
  9
$DIMTMOVE
 70
     0
  9
$LUNITS
 70
     2
  9
$LUPREC
 70
     4
  9
$SKETCHINC
 40
0.1
  9
$FILLETRAD
 40
0.0
  9
$AUNITS
 70
     0
  9
$AUPREC
 70
     0
  9
$MENU
  1
.
  9
$ELEVATION
 40
0.0
  9
$PELEVATION
 40
0.0
  9
$THICKNESS
 40
0.0
  9
$LIMCHECK
 70
     0
  9
$CHAMFERA
 40
0.0
  9
$CHAMFERB
 40
0.0
  9
$CHAMFERC
 40
0.0
  9
$CHAMFERD
 40
0.0
  9
$SKPOLY
 70
     0
  9
$TDCREATE
 40
2457459.257291667
  9
$TDUCREATE
 40
2457459.465625070
  9
$TDUPDATE
 40
2458866.536539352
  9
$TDUUPDATE
 40
2458866.744872685
  9
$TDINDWG
 40
0.0308939005
  9
$TDUSRTIMER
 40
0.0007638889
  9
$USRTIMER
 70
     1
  9
$ANGBASE
 50
0.0
  9
$ANGDIR
 70
     0
  9
$PDMODE
 70
     0
  9
$PDSIZE
 40
0.0
  9
$PLINEWID
 40
0.0
  9
$SPLFRAME
 70
     0
  9
$SPLINETYPE
 70
     6
  9
$SPLINESEGS
 70
     8
  9
$HANDSEED
  5
12BB
  9
$SURFTAB1
 70
     6
  9
$SURFTAB2
 70
     6
  9
$SURFTYPE
 70
     6
  9
$SURFU
 70
     6
  9
$SURFV
 70
     6
  9
$UCSBASE
  2

  9
$UCSNAME
  2

  9
$UCSORG
 10
0.0
 20
0.0
 30
0.0
  9
$UCSXDIR
 10
1.0
 20
0.0
 30
0.0
  9
$UCSYDIR
 10
0.0
 20
1.0
 30
0.0
  9
$UCSORTHOREF
  2

  9
$UCSORTHOVIEW
 70
     0
  9
$UCSORGTOP
 10
0.0
 20
0.0
 30
0.0
  9
$UCSORGBOTTOM
 10
0.0
 20
0.0
 30
0.0
  9
$UCSORGLEFT
 10
0.0
 20
0.0
 30
0.0
  9
$UCSORGRIGHT
 10
0.0
 20
0.0
 30
0.0
  9
$UCSORGFRONT
 10
0.0
 20
0.0
 30
0.0
  9
$UCSORGBACK
 10
0.0
 20
0.0
 30
0.0
  9
$PUCSBASE
  2

  9
$PUCSNAME
  2

  9
$PUCSORG
 10
0.0
 20
0.0
 30
0.0
  9
$PUCSXDIR
 10
1.0
 20
0.0
 30
0.0
  9
$PUCSYDIR
 10
0.0
 20
1.0
 30
0.0
  9
$PUCSORTHOREF
  2

  9
$PUCSORTHOVIEW
 70
     0
  9
$PUCSORGTOP
 10
0.0
 20
0.0
 30
0.0
  9
$PUCSORGBOTTOM
 10
0.0
 20
0.0
 30
0.0
  9
$PUCSORGLEFT
 10
0.0
 20
0.0
 30
0.0
  9
$PUCSORGRIGHT
 10
0.0
 20
0.0
 30
0.0
  9
$PUCSORGFRONT
 10
0.0
 20
0.0
 30
0.0
  9
$PUCSORGBACK
 10
0.0
 20
0.0
 30
0.0
  9
$USERI1
 70
     0
  9
$USERI2
 70
     0
  9
$USERI3
 70
     0
  9
$USERI4
 70
     0
  9
$USERI5
 70
     0
  9
$USERR1
 40
0.0
  9
$USERR2
 40
0.0
  9
$USERR3
 40
0.0
  9
$USERR4
 40
0.0
  9
$USERR5
 40
0.0
  9
$WORLDVIEW
 70
     1
  9
$SHADEDGE
 70
     3
  9
$SHADEDIF
 70
    70
  9
$TILEMODE
 70
     1
  9
$MAXACTVP
 70
    64
  9
$PINSBASE
 10
0.0
 20
0.0
 30
0.0
  9
$PLIMCHECK
 70
     0
  9
$PEXTMIN
 10
1.000000000000000E+20
 20
1.000000000000000E+20
 30
1.000000000000000E+20
  9
$PEXTMAX
 10
-1.000000000000000E+20
 20
-1.000000000000000E+20
 30
-1.000000000000000E+20
  9
$PLIMMIN
 10
0.0
 20
0.0
  9
$PLIMMAX
 10
12.0
 20
9.0
  9
$UNITMODE
 70
     0
  9
$VISRETAIN
 70
     1
  9
$PLINEGEN
 70
     0
  9
$PSLTSCALE
 70
     1
  9
$TREEDEPTH
 70
  3020
  9
$CMLSTYLE
  2
STANDARD
  9
$CMLJUST
 70
     0
  9
$CMLSCALE
 40
20.0
  9
$PROXYGRAPHICS
 70
     1
  9
$MEASUREMENT
 70
     0
  9
$CELWEIGHT
370
    -1
  9
$ENDCAPS
280
     0
  9
$JOINSTYLE
280
     0
  9
$LWDISPLAY
290
     0
  9
$INSUNITS
 70
     1
  9
$HYPERLINKBASE
  1

  9
$STYLESHEET
  1

  9
$XEDIT
290
     1
  9
$CEPSNTYPE
380
     0
  9
$PSTYLEMODE
290
     1
  9
$FINGERPRINTGUID
  2
{B86E9C5B-23C6-2D4A-AB8B-9809ED9D3061}
  9
$VERSIONGUID
  2
{2CA55D46-E611-3A42-BA1C-1D9C4726AB7F}
  9
$EXTNAMES
290
     1
  9
$PSVPSCALE
 40
0.0
  9
$OLESTARTUP
290
     0
  0
ENDSEC
  0
SECTION
  2
CLASSES
  0
CLASS
  1
RASTERVARIABLES
  2
AcDbRasterVariables
  3
ISM
 90
    32768
280
     0
281
     0
  0
CLASS
  1
ACDBDICTIONARYWDFLT
  2
AcDbDictionaryWithDefault
  3
ObjectDBX Classes
 90
        0
280
     0
281
     0
  0
CLASS
  1
MATERIAL
  2
AcDbMaterial
  3
ObjectDBX Classes
 90
     1153
280
     0
281
     0
  0
CLASS
  1
VISUALSTYLE
  2
AcDbVisualStyle
  3
ObjectDBX Classes
 90
     4095
280
     0
281
     0
  0
CLASS
  1
TABLESTYLE
  2
AcDbTableStyle
  3
ObjectDBX Classes
 90
     4095
280
     0
281
     0
  0
CLASS
  1
SCALE
  2
AcDbScale
  3
ObjectDBX Classes
 90
     1153
280
     0
281
     0
  0
CLASS
  1
MLEADERSTYLE
  2
AcDbMLeaderStyle
  3
ACDB_MLEADERSTYLE_CLASS
 90
     4095
280
     0
281
     0
  0
CLASS
  1
ACDBSECTIONVIEWSTYLE
  2
AcDbSectionViewStyle
  3
ObjectDBX Classes
 90
     1025
280
     0
281
     0
  0
CLASS
  1
ACDBDETAILVIEWSTYLE
  2
AcDbDetailViewStyle
  3
ObjectDBX Classes
 90
     1025
280
     0
281
     0
  0
CLASS
  1
DICTIONARYVAR
  2
AcDbDictionaryVar
  3
ObjectDBX Classes
 90
        0
280
     0
281
     0
  0
CLASS
  1
CELLSTYLEMAP
  2
AcDbCellStyleMap
  3
ObjectDBX Classes
 90
     1152
280
     0
281
     0
  0
CLASS
  1
ACDBPLACEHOLDER
  2
AcDbPlaceHolder
  3
ObjectDBX Classes
 90
        0
280
     0
281
     0
  0
CLASS
  1
LAYOUT
  2
AcDbLayout
  3
ObjectDBX Classes
 90
        0
280
     0
281
     0
  0
ENDSEC
  0
SECTION
  2
TABLES
  0
TABLE
  2
VPORT
  5
1
330
0
100
AcDbSymbolTable
 70
     1
  0
VPORT
  5
10B8
330
1
100
AcDbSymbolTableRecord
100
AcDbViewportTableRecord
  2
*Active
 70
     0
 10
0.0
 20
0.0
 11
1.0
 21
1.0
 12
9.250122102035815
 22
6.249916099652084
 13
0.0
 23
0.0
 14
0.5
 24
0.5
 15
10.0
 25
10.0
 16
0.0
 26
0.0
 36
1.0
 17
0.0
 27
0.0
 37
0.0
 40
12.59791370896774
 41
1.9296875
 42
50.0
 43
0.0
 44
0.0
 50
0.0
 51
0.0
 71
     0
 72
   100
 73
     1
 74
     0
 75
     0
 76
     1
 77
     0
 78
     0
281
     0
 65
     1
110
0.0
120
0.0
130
0.0
111
1.0
121
0.0
131
0.0
112
0.0
122
1.0
132
0.0
 79
     0
146
0.0
1001
ACAD_NAV_VCDISPLAY
1070
     3
  0
ENDTAB
  0
TABLE
  2
LTYPE
  5
6
330
0
100
AcDbSymbolTable
 70
     2
  0
LTYPE
  5
15
330
6
100
AcDbSymbolTableRecord
100
AcDbLinetypeTableRecord
  2
ByBlock
 70
     0
  3

 72
    65
 73
     0
 40
0.0
  0
LTYPE
  5
14
330
6
100
AcDbSymbolTableRecord
100
AcDbLinetypeTableRecord
  2
ByLayer
 70
     0
  3

 72
    65
 73
     0
 40
0.0
  0
LTYPE
  5
13
330
6
100
AcDbSymbolTableRecord
100
AcDbLinetypeTableRecord
  2
Continuous
 70
     0
  3
Solid line
 72
    65
 73
     0
 40
0.0
  0
LTYPE
  5
10C3
330
6
100
AcDbSymbolTableRecord
100
AcDbLinetypeTableRecord
  2
Dashed
 70
     0
  3
Dashed, __ __ __ __ __ __ __ __ __ __ __ __ __ _
 72
    65
 73
     2
 40
0.75
 49
0.5
 74
     0
 49
-0.25
 74
     0
  0
ENDTAB
  0
TABLE
  2
LAYER
  5
5
330
0
100
AcDbSymbolTable
 70
    12
  0
LAYER
  5
12
330
5
100
AcDbSymbolTableRecord
100
AcDbLayerTableRecord
  2
0
 70
     0
 62
     7
  6
Continuous
370
    -3
390
1150
  0
LAYER
  5
DD
330
5
100
AcDbSymbolTableRecord
100
AcDbLayerTableRecord
  2
TITLEBLOCK
 70
     0
 62
     7
  6
Continuous
370
    -3
390
1150
  0
LAYER
  5
FDE
330
5
100
AcDbSymbolTableRecord
100
AcDbLayerTableRecord
  2
Text
 70
     0
 62
     7
  6
Continuous
370
    -3
390
1150
  0
LAYER
  5
10BE
330
5
100
AcDbSymbolTableRecord
100
AcDbLayerTableRecord
  2
Plate
 70
     0
 62
     7
  6
Continuous
370
    -3
390
1150
  0
LAYER
  5
10BF
330
5
100
AcDbSymbolTableRecord
100
AcDbLayerTableRecord
  2
Gasket
 70
     0
 62
     5
  6
Continuous
370
    -3
390
1150
  0
LAYER
  5
10C0
330
5
100
AcDbSymbolTableRecord
100
AcDbLayerTableRecord
  2
Stud
 70
     0
 62
     1
  6
Continuous
370
    -3
390
1150
  0
LAYER
  5
10C1
330
5
100
AcDbSymbolTableRecord
100
AcDbLayerTableRecord
  2
Dimension
 70
     0
 62
     7
  6
Continuous
370
    -3
390
1150
  0
LAYER
  5
10C2
330
5
100
AcDbSymbolTableRecord
100
AcDbLayerTableRecord
  2
PrevBezel
 70
     0
 62
     8
  6
Dashed
370
    -3
390
1150
  0
LAYER
  5
10C4
330
5
100
AcDbSymbolTableRecord
100
AcDbLayerTableRecord
  2
PrevCutout
 70
     0
 62
     4
  6
Dashed
370
    -3
390
1150
  0
LAYER
  5
10C5
330
5
100
AcDbSymbolTableRecord
100
AcDbLayerTableRecord
  2
NewBezel
 70
     0
 62
     6
  6
Dashed
370
    -3
390
1150
  0
LAYER
  5
10C6
330
5
100
AcDbSymbolTableRecord
100
AcDbLayerTableRecord
  2
BackPlate
 70
     0
 62
    30
  6
Continuous
370
    -3
390
1150
  0
LAYER
  5
10FC
330
5
100
AcDbSymbolTableRecord
100
AcDbLayerTableRecord
  2
Defpoints
 70
     0
 62
     7
  6
Continuous
290
     0
370
    -3
390
1150
  0
ENDTAB
  0
TABLE
  2
STYLE
  5
7
330
0
100
AcDbSymbolTable
 70
     1
  0
STYLE
  5
16
330
7
100
AcDbSymbolTableRecord
100
AcDbTextStyleTableRecord
  2
Standard
 70
     0
 40
0.0
 41
1.0
 50
0.0
 71
     0
 42
0.0
  3
simplex.shx
  4

  0
ENDTAB
  0
TABLE
  2
VIEW
  5
3
330
0
100
AcDbSymbolTable
 70
     0
  0
ENDTAB
  0
TABLE
  2
UCS
  5
A
330
0
100
AcDbSymbolTable
 70
     0
  0
ENDTAB
  0
TABLE
  2
APPID
  5
4
330
0
100
AcDbSymbolTable
 70
    12
  0
APPID
  5
17
330
4
100
AcDbSymbolTableRecord
100
AcDbRegAppTableRecord
  2
ACAD
 70
     0
  0
APPID
  5
87
330
4
100
AcDbSymbolTableRecord
100
AcDbRegAppTableRecord
  2
AcCmTransparency
 70
     0
  0
APPID
  5
88
330
4
100
AcDbSymbolTableRecord
100
AcDbRegAppTableRecord
  2
GradientColor1ACI
 70
     0
  0
APPID
  5
89
330
4
100
AcDbSymbolTableRecord
100
AcDbRegAppTableRecord
  2
GradientColor2ACI
 70
     0
  0
APPID
  5
551
330
4
100
AcDbSymbolTableRecord
100
AcDbRegAppTableRecord
  2
ACAD_MLEADERVER
 70
     0
  0
APPID
  5
604
330
4
100
AcDbSymbolTableRecord
100
AcDbRegAppTableRecord
  2
ACAD_NAV_VCDISPLAY
 70
     0
  0
APPID
  5
995
330
4
100
AcDbSymbolTableRecord
100
AcDbRegAppTableRecord
  2
AcAecLayerStandard
 70
     0
  0
APPID
  5
996
330
4
100
AcDbSymbolTableRecord
100
AcDbRegAppTableRecord
  2
ACAD_PSEXT
 70
     0
  0
APPID
  5
9A0
330
4
100
AcDbSymbolTableRecord
100
AcDbRegAppTableRecord
  2
ACAD_EXEMPT_FROM_CAD_STANDARDS
 70
     0
  0
APPID
  5
106F
330
4
100
AcDbSymbolTableRecord
100
AcDbRegAppTableRecord
  2
ACAD_DSTYLE_DIM_LINETYPE
 70
     0
  0
APPID
  5
1070
330
4
100
AcDbSymbolTableRecord
100
AcDbRegAppTableRecord
  2
ACAD_DSTYLE_DIM_EXT1_LINETYPE
 70
     0
  0
APPID
  5
1071
330
4
100
AcDbSymbolTableRecord
100
AcDbRegAppTableRecord
  2
ACAD_DSTYLE_DIM_EXT2_LINETYPE
 70
     0
  0
ENDTAB
  0
TABLE
  2
DIMSTYLE
  5
8
330
0
100
AcDbSymbolTable
 70
     2
100
AcDbDimStyleTable
 71
     0
  0
DIMSTYLE
105
18
330
8
100
AcDbSymbolTableRecord
100
AcDbDimStyleTableRecord
  2
Standard
 70
     0
  3
<>
 73
     0
 74
     0
 77
     1
 79
     3
271
     2
340
16
1001
ACAD_DSTYLE_DIM_LINETYPE
1070
   380
1005
15
1001
ACAD_DSTYLE_DIM_EXT1_LINETYPE
1070
   381
1005
15
1001
ACAD_DSTYLE_DIM_EXT2_LINETYPE
1070
   382
1005
15
  0
DIMSTYLE
105
10C7
102
{ACAD_REACTORS
330
10F7
330
1105
330
1112
330
111F
102
}
330
8
100
AcDbSymbolTableRecord
100
AcDbDimStyleTableRecord
  2
DimStyle
 70
     0
  3
<>
 73
     0
 74
     0
 77
     1
271
     2
340
16
1001
ACAD_DSTYLE_DIM_LINETYPE
1070
   380
1005
15
1001
ACAD_DSTYLE_DIM_EXT1_LINETYPE
1070
   381
1005
15
1001
ACAD_DSTYLE_DIM_EXT2_LINETYPE
1070
   382
1005
15
  0
ENDTAB
  0
TABLE
  2
BLOCK_RECORD
  5
B
330
0
100
AcDbSymbolTable
 70
     5
  0
BLOCK_RECORD
  5
1A
330
B
100
AcDbSymbolTableRecord
100
AcDbBlockTableRecord
  2
*Model_Space
340
1E
  0
BLOCK_RECORD
  5
56C
330
B
100
AcDbSymbolTableRecord
100
AcDbBlockTableRecord
  2
*Paper_Space
340
56D
  0
BLOCK_RECORD
  5
D97
330
B
100
AcDbSymbolTableRecord
100
AcDbBlockTableRecord
  2
A$C3473086C
340
0
102
{BLKREFS
331
F60
102
}
1001
ACAD
1000
DesignCenter Data
1002
{
1070
     1
1070
     1
1002
}
  0
BLOCK_RECORD
  5
10F8
330
B
100
AcDbSymbolTableRecord
100
AcDbBlockTableRecord
  2
*D1
340
0
  0
BLOCK_RECORD
  5
1106
330
B
100
AcDbSymbolTableRecord
100
AcDbBlockTableRecord
  2
*D2
340
0
  0
BLOCK_RECORD
  5
1113
330
B
100
AcDbSymbolTableRecord
100
AcDbBlockTableRecord
  2
*D3
340
0
  0
BLOCK_RECORD
  5
1120
330
B
100
AcDbSymbolTableRecord
100
AcDbBlockTableRecord
  2
*D4
340
0
  0
ENDTAB
  0
ENDSEC
  0
SECTION
  2
BLOCKS
  0
BLOCK
  5
1C
330
1A
100
AcDbEntity
  8
0
100
AcDbBlockBegin
  2
*Model_Space
 70
     0
 10
0.0
 20
0.0
 30
0.0
  3
*Model_Space
  1

  0
ENDBLK
  5
1B
330
1A
100
AcDbEntity
  8
0
100
AcDbBlockEnd
  0
BLOCK
  5
56E
330
56C
100
AcDbEntity
 67
     1
  8
0
100
AcDbBlockBegin
  2
*Paper_Space
 70
     0
 10
0.0
 20
0.0
 30
0.0
  3
*Paper_Space
  1

  0
ENDBLK
  5
56F
330
56C
100
AcDbEntity
 67
     1
  8
0
100
AcDbBlockEnd
  0
BLOCK
  5
F5E
330
D97
100
AcDbEntity
  8
0
100
AcDbBlockBegin
  2
A$C3473086C
 70
     0
 10
0.0
 20
0.0
 30
0.0
  3
A$C3473086C
  1

  0
TEXT
  5
D98
330
D97
100
AcDbEntity
  8
TITLEBLOCK
 62
   154
100
AcDbText
 10
0.9898695030418309
 20
-0.2963355010170125
 30
0.0
 40
0.0424828789003611
  1
#
 72
     1
 11
1.005041959791959
 21
-0.275094061566832
 31
0.0
100
AcDbText
 73
     2
  0
HATCH
  5
D99
330
D97
100
AcDbEntity
  8
TITLEBLOCK
  6
Continuous
 62
   154
100
AcDbHatch
 10
0.0
 20
0.0
 30
0.0
210
0.0
220
0.0
230
1.0
  2
ANSI31
 70
     0
 71
     0
 91
        5
 92
        7
 72
     0
 73
     1
 93
       16
 10
1.01971424964248
 20
-0.0430361962343147
 10
1.01435502520576
 20
-0.0215992984874109
 10
0.9989269548576109
 20
-0.0058464266582465
 10
0.9774900571107048
 20
-0.0000000000000009
 10
-0.9774900571107048
 20
-0.0000000000000009
 10
-0.9987645541171039
 20
-0.0058464266582465
 10
-1.014192624465249
 20
-0.0215992984874109
 10
-1.019551848901979
 20
-0.0430361962343147
 10
-1.019551848901979
 20
-0.5677529888119341
 10
-1.014192624465249
 20
-0.5891898865588381
 10
-0.9987645541171039
 20
-0.6049427583880021
 10
-0.9774900571107048
 20
-0.610789185046248
 10
0.9774900571107048
 20
-0.610789185046248
 10
0.9989269548576109
 20
-0.6049427583880021
 10
1.01435502520576
 20
-0.5891898865588381
 10
1.01971424964248
 20
-0.5677529888119341
 97
        0
 92
       23
 72
     0
 73
     1
 93
       12
 10
-0.6892287427110571
 20
-0.0907820139433278
 10
-0.683057514571795
 20
-0.0760035465572042
 10
-0.6681166464451689
 20
-0.0698323184179444
 10
0.6798094997616581
 20
-0.0698323184179444
 10
0.6945879671477809
 20
-0.0760035465572042
 10
0.7007591952870431
 20
-0.0907820139433278
 10
0.7007591952870431
 20
-0.5136735422231551
 10
0.6945879671477809
 20
-0.528614410349784
 10
0.6798094997616581
 20
-0.5347856384890441
 10
-0.6681166464451689
 20
-0.5347856384890441
 10
-0.683057514571795
 20
-0.528614410349784
 10
-0.6892287427110571
 20
-0.5136735422231551
 97
        0
 92
        7
 72
     0
 73
     1
 93
       20
 10
-0.493373449659798
 20
-0.123586963525711
 10
-0.4821677985648291
 20
-0.114654922797834
 10
-0.3947962001721429
 20
-0.114654922797834
 10
-0.383752949817675
 20
-0.123749364266217
 10
-0.383752949817675
 20
-0.261952394437543
 10
-0.217779393019681
 20
-0.261952394437543
 10
-0.217779393019681
 20
-0.123262162044696
 10
-0.206411341184202
 20
-0.114654922797834
 10
-0.121313353158611
 20
-0.114654922797834
 10
-0.110432503544656
 20
-0.123749364266217
 10
-0.110432503544656
 20
-0.485903015596484
 10
-0.121638154639628
 20
-0.4949974570648671
 10
-0.206411341184202
 20
-0.4949974570648671
 10
-0.217779393019681
 20
-0.485903015596484
 10
-0.217779393019681
 20
-0.34964879431124
 10
-0.383752949817675
 20
-0.34964879431124
 10
-0.383752949817675
 20
-0.485903015596484
 10
-0.395121001653157
 20
-0.4949974570648671
 10
-0.4821677985648291
 20
-0.4949974570648671
 10
-0.493373449659798
 20
-0.485903015596484
 97
        0
 92
        7
 72
     0
 73
     1
 93
       60
 10
-0.0901324109812993
 20
-0.123586963525711
 10
-0.0787643591458203
 20
-0.114654922797834
 10
0.0082824377658444
 20
-0.114654922797834
 10
0.0103936473924353
 20
-0.115791727981381
 10
0.0138040629430822
 20
-0.119202143532026
 10
0.018513684417778
 20
-0.124723768709258
 10
0.0243601110760263
 20
-0.132681404994095
 10
0.0315057436583235
 20
-0.142750250905522
 10
0.0397881814241732
 20
-0.154930306443531
 10
0.0493698251140931
 20
-0.169546373089143
 10
0.060250674728044
 20
-0.186273649361347
 10
0.0722683295255475
 20
-0.205274536000654
 10
0.0857475909876211
 20
-0.22654903300706
 10
0.10020125689257
 20
-0.249934739639893
 10
0.116116529462422
 20
-0.275756457380617
 10
0.1331686072156
 20
-0.303689384747813
 10
0.148984409331726
 20
-0.329833873960148
 10
0.151195089411869
 20
-0.325613484716228
 10
0.154443104222002
 20
-0.319929458798488
 10
0.159152725696702
 20
-0.31197182251367
 10
0.165323953835967
 20
-0.30174057586172
 10
0.172956788639786
 20
-0.28907331810219
 10
0.182051230108174
 20
-0.274132449975556
 10
0.192607278241107
 20
-0.256755570741354
 10
0.204624933038618
 20
-0.237105081139954
 10
0.218104194500713
 20
-0.215180981171573
 10
0.233045062627413
 20
-0.190983270835928
 10
0.249447537418517
 20
-0.164349549392929
 10
0.267311618874269
 20
-0.135279816842203
 10
0.2799788766338
 20
-0.114654922797834
 10
0.373846504646762
 20
-0.114654922797834
 10
0.384889755001224
 20
-0.123749364266217
 10
0.384889755001224
 20
-0.485903015596484
 10
0.373521703165745
 20
-0.4949974570648671
 10
0.288748516621174
 20
-0.4949974570648671
 10
0.277542865526195
 20
-0.485903015596484
 10
0.277542865526195
 20
-0.291184527728775
 10
0.267636420355286
 20
-0.307262201038947
 10
0.251396346304576
 20
-0.333246319520063
 10
0.237267481880506
 20
-0.35565762171
 10
0.224762624861475
 20
-0.374983309830311
 10
0.214206576728527
 20
-0.390898582399976
 10
0.20543693674116
 20
-0.403403439419005
 10
0.19861610563987
 20
-0.4126602816278951
 10
0.193581682684156
 20
-0.4186691090266501
 10
0.190130666948386
 20
-0.421429921615266
 10
0.106534885772492
 20
-0.421429921615266
 10
0.103449271702855
 20
-0.4191563112481711
 10
0.0985772494876525
 20
-0.413797086811443
 10
0.0919188191268763
 20
-0.4051898475645811
 10
0.0834739806205196
 20
-0.393496994248085
 10
0.073242733968586
 20
-0.378393725380953
 10
0.0612250791710753
 20
-0.360367243184688
 10
0.0474210162279878
 20
-0.338930345437775
 10
0.0318305451393339
 20
-0.314407833621248
 10
0.0172144784937256
 20
-0.291022126988269
 10
0.0172144784937256
 20
-0.485903015596484
 10
0.0060088273987535
 20
-0.4949974570648671
 10
-0.0787643591458203
 20
-0.4949974570648671
 10
-0.0901324109812993
 20
-0.485903015596484
 97
        0
 92
        7
 72
     0
 73
     1
 93
        8
 10
0.4094122668177591
 20
-0.123586963525711
 10
0.4206179179127341
 20
-0.114654922797834
 10
0.5031174940902101
 20
-0.114654922797834
 10
0.514160744444668
 20
-0.123749364266217
 10
0.514160744444668
 20
-0.485903015596484
 10
0.502792692609189
 20
-0.4949974570648671
 10
0.4206179179127341
 20
-0.4949974570648671
 10
0.4094122668177591
 20
-0.485903015596484
 97
        0
 75
     1
 76
     1
 52
0.0
 41
0.004763286
 77
     0
 78
     1
 53
45.0
 43
-1.82635398809821
 44
-2.103436782919979
 45
-0.0004210189789164
 46
0.0004210189789164
 79
     0
 47
0.0
 98
        1
 10
0.0
 20
0.0
1001
GradientColor1ACI
1070
     5
1001
GradientColor2ACI
1070
     2
1001
ACAD
1010
0.0
1020
0.0
1030
0.0
  0
LINE
  5
D9A
330
D97
100
AcDbEntity
  8
TITLEBLOCK
 62
   154
370
     0
100
AcDbLine
 10
1.01971424964248
 20
-0.0430361962343136
 30
0.0
 11
1.01435502520576
 21
-0.0215992984874098
 31
0.0
  0
LINE
  5
D9B
330
D97
100
AcDbEntity
  8
TITLEBLOCK
 62
   154
370
     0
100
AcDbLine
 10
1.01435502520576
 20
-0.0215992984874098
 30
0.0
 11
0.9989269548576109
 21
-0.0058464266582459
 31
0.0
  0
LINE
  5
D9C
330
D97
100
AcDbEntity
  8
TITLEBLOCK
 62
   154
370
     0
100
AcDbLine
 10
0.9989269548576109
 20
-0.0058464266582459
 30
0.0
 11
0.9774900571107048
 21
0.0
 31
0.0
  0
LINE
  5
D9D
330
D97
100
AcDbEntity
  8
TITLEBLOCK
 62
   154
370
     0
100
AcDbLine
 10
0.9774900571107048
 20
0.0
 30
0.0
 11
-0.9774900571107048
 21
0.0
 31
0.0
  0
LINE
  5
D9E
330
D97
100
AcDbEntity
  8
TITLEBLOCK
 62
   154
370
     0
100
AcDbLine
 10
-1.019551848901979
 20
-0.0422241925317799
 30
0.0
 11
-1.019551848901979
 21
-0.5687273932549751
 31
0.0
  0
LINE
  5
D9F
330
D97
100
AcDbEntity
  8
TITLEBLOCK
 62
   154
370
     0
100
AcDbLine
 10
-0.9774900571107048
 20
-0.610789185046248
 30
0.0
 11
0.9774900571107048
 21
-0.610789185046248
 31
0.0
  0
LINE
  5
DA0
330
D97
100
AcDbEntity
  8
TITLEBLOCK
 62
   154
370
     0
100
AcDbLine
 10
1.01971424964248
 20
-0.5687273932549751
 30
0.0
 11
1.01971424964248
 21
-0.0422241925317799
 31
0.0
  0
LINE
  5
DA1
330
D97
100
AcDbEntity
  8
TITLEBLOCK
 62
   154
370
     0
100
AcDbLine
 10
-0.9774900571107048
 20
0.0
 30
0.0
 11
-0.9987645541171039
 21
-0.0058464266582459
 31
0.0
  0
LINE
  5
DA2
330
D97
100
AcDbEntity
  8
TITLEBLOCK
 62
   154
370
     0
100
AcDbLine
 10
-0.9987645541171039
 20
-0.0058464266582459
 30
0.0
 11
-1.014192624465249
 21
-0.0215992984874098
 31
0.0
  0
LINE
  5
DA3
330
D97
100
AcDbEntity
  8
TITLEBLOCK
 62
   154
370
     0
100
AcDbLine
 10
-1.014192624465249
 20
-0.0215992984874098
 30
0.0
 11
-1.019551848901979
 21
-0.0430361962343136
 31
0.0
  0
LINE
  5
DA4
330
D97
100
AcDbEntity
  8
TITLEBLOCK
 62
   154
370
     0
100
AcDbLine
 10
0.9774900571107048
 20
-0.610789185046248
 30
0.0
 11
0.9989269548576109
 21
-0.6049427583880009
 31
0.0
  0
LINE
  5
DA5
330
D97
100
AcDbEntity
  8
TITLEBLOCK
 62
   154
370
     0
100
AcDbLine
 10
0.9989269548576109
 20
-0.6049427583880009
 30
0.0
 11
1.01435502520576
 21
-0.5891898865588371
 31
0.0
  0
LINE
  5
DA6
330
D97
100
AcDbEntity
  8
TITLEBLOCK
 62
   154
370
     0
100
AcDbLine
 10
1.01435502520576
 20
-0.5891898865588371
 30
0.0
 11
1.01971424964248
 21
-0.5677529888119341
 31
0.0
  0
LINE
  5
DA7
330
D97
100
AcDbEntity
  8
TITLEBLOCK
 62
   154
370
     0
100
AcDbLine
 10
0.9774900571107048
 20
-0.610789185046248
 30
0.0
 11
-0.9774900571107048
 21
-0.610789185046248
 31
0.0
  0
LINE
  5
DA8
330
D97
100
AcDbEntity
  8
TITLEBLOCK
 62
   154
370
     0
100
AcDbLine
 10
-1.019551848901979
 20
-0.5677529888119329
 30
0.0
 11
-1.014192624465249
 21
-0.589189886558836
 31
0.0
  0
LINE
  5
DA9
330
D97
100
AcDbEntity
  8
TITLEBLOCK
 62
   154
370
     0
100
AcDbLine
 10
-1.014192624465249
 20
-0.589189886558836
 30
0.0
 11
-0.9987645541171039
 21
-0.604942758388
 31
0.0
  0
LINE
  5
DAA
330
D97
100
AcDbEntity
  8
TITLEBLOCK
 62
   154
370
     0
100
AcDbLine
 10
-0.9987645541171039
 20
-0.604942758388
 30
0.0
 11
-0.9774900571107048
 21
-0.6107891850462472
 31
0.0
  0
LINE
  5
DAB
330
D97
100
AcDbEntity
  8
TITLEBLOCK
 62
   154
370
     0
100
AcDbLine
 10
0.7007591952870431
 20
-0.0907820139433266
 30
0.0
 11
0.6945879671477809
 21
-0.0760035465572038
 31
0.0
  0
LINE
  5
DAC
330
D97
100
AcDbEntity
  8
TITLEBLOCK
 62
   154
370
     0
100
AcDbLine
 10
0.6945879671477809
 20
-0.0760035465572038
 30
0.0
 11
0.6798094997616581
 21
-0.0698323184179435
 31
0.0
  0
LINE
  5
DAD
330
D97
100
AcDbEntity
  8
TITLEBLOCK
 62
   154
370
     0
100
AcDbLine
 10
-0.6681166464451689
 20
-0.0698323184179435
 30
0.0
 11
0.6798094997616581
 21
-0.0698323184179435
 31
0.0
  0
LINE
  5
DAE
330
D97
100
AcDbEntity
  8
TITLEBLOCK
 62
   154
370
     0
100
AcDbLine
 10
0.7007591952870431
 20
-0.0907820139433266
 30
0.0
 11
0.7007591952870431
 21
-0.5136735422231541
 31
0.0
  0
LINE
  5
DAF
330
D97
100
AcDbEntity
  8
TITLEBLOCK
 62
   154
370
     0
100
AcDbLine
 10
0.6798094997616581
 20
-0.5347856384890441
 30
0.0
 11
-0.6681166464451689
 21
-0.5347856384890441
 31
0.0
  0
LINE
  5
DB0
330
D97
100
AcDbEntity
  8
TITLEBLOCK
 62
   154
370
     0
100
AcDbLine
 10
-0.6892287427110571
 20
-0.5136735422231541
 30
0.0
 11
-0.6892287427110571
 21
-0.0907820139433266
 31
0.0
  0
LINE
  5
DB1
330
D97
100
AcDbEntity
  8
TITLEBLOCK
 62
   154
370
     0
100
AcDbLine
 10
-0.6681166464451689
 20
-0.0698323184179435
 30
0.0
 11
-0.683057514571795
 21
-0.0760035465572038
 31
0.0
  0
LINE
  5
DB2
330
D97
100
AcDbEntity
  8
TITLEBLOCK
 62
   154
370
     0
100
AcDbLine
 10
-0.683057514571795
 20
-0.0760035465572038
 30
0.0
 11
-0.6892287427110571
 21
-0.0907820139433266
 31
0.0
  0
LINE
  5
DB3
330
D97
100
AcDbEntity
  8
TITLEBLOCK
 62
   154
370
     0
100
AcDbLine
 10
-0.683057514571795
 20
-0.528614410349784
 30
0.0
 11
-0.6681166464451689
 21
-0.5347856384890441
 31
0.0
  0
LINE
  5
DB4
330
D97
100
AcDbEntity
  8
TITLEBLOCK
 62
   154
370
     0
100
AcDbLine
 10
0.6945879671477809
 20
-0.528614410349784
 30
0.0
 11
0.7007591952870431
 21
-0.5136735422231541
 31
0.0
  0
LINE
  5
DB5
330
D97
100
AcDbEntity
  8
TITLEBLOCK
 62
   154
370
     0
100
AcDbLine
 10
0.6798094997616581
 20
-0.5347856384890441
 30
0.0
 11
0.6945879671477809
 21
-0.528614410349784
 31
0.0
  0
LINE
  5
DB6
330
D97
100
AcDbEntity
  8
TITLEBLOCK
 62
   154
370
     0
100
AcDbLine
 10
-0.6892287427110571
 20
-0.5136735422231541
 30
0.0
 11
-0.683057514571795
 21
-0.528614410349784
 31
0.0
  0
HATCH
  5
DB7
330
D97
100
AcDbEntity
  8
TITLEBLOCK
 62
   154
100
AcDbHatch
 10
0.0
 20
0.0
 30
0.0
210
0.0
220
0.0
230
1.0
  2
SOLID
 70
     1
 71
     0
 91
        3
 92
        7
 72
     0
 73
     1
 93
       20
 10
-0.143185618084557
 20
-0.123749364266216
 10
-0.154066467698511
 20
-0.114654922797833
 10
-0.239164455724103
 20
-0.114654922797833
 10
-0.250532507559582
 20
-0.123262162044695
 10
-0.250532507559582
 20
-0.261952394437542
 10
-0.4165060643575751
 20
-0.261952394437542
 10
-0.4165060643575751
 20
-0.123749364266216
 10
-0.4275493147120441
 20
-0.114654922797833
 10
-0.51492091310473
 20
-0.114654922797833
 10
-0.526126564199698
 20
-0.123586963525709
 10
-0.526126564199698
 20
-0.485903015596483
 10
-0.51492091310473
 20
-0.4949974570648671
 10
-0.4278741161930581
 20
-0.4949974570648671
 10
-0.4165060643575751
 20
-0.485903015596483
 10
-0.4165060643575751
 20
-0.3496487943112391
 10
-0.250532507559582
 20
-0.3496487943112391
 10
-0.250532507559582
 20
-0.485903015596483
 10
-0.239164455724103
 20
-0.4949974570648671
 10
-0.154391269179529
 20
-0.4949974570648671
 10
-0.143185618084557
 20
-0.485903015596483
 97
        0
 92
        7
 72
     0
 73
     1
 93
       62
 10
0.0172144784937256
 20
-0.2910221269882669
 10
0.0318305451393367
 20
-0.314407833621251
 10
0.0474210162280041
 20
-0.338930345437795
 10
0.0612250791710765
 20
-0.3603672431846871
 10
0.0732427339685841
 20
-0.378393725380946
 10
0.0834739806205202
 20
-0.3934969942480879
 10
0.0919188191268768
 20
-0.40518984756458
 10
0.0985772494876526
 20
-0.413797086811443
 10
0.103449271702855
 20
-0.41915631124817
 10
0.106534885772492
 20
-0.421429921615265
 10
0.189846465652503
 20
-0.421429921615265
 10
0.190333667874024
 20
-0.421267520874758
 10
0.193581682684156
 20
-0.418669109026649
 10
0.19861610563987
 20
-0.4126602816278951
 10
0.205436936741161
 20
-0.4034034394190061
 10
0.214206576728525
 20
-0.390898582399979
 10
0.224762624861476
 20
-0.374983309830311
 10
0.2372674818805
 20
-0.355657621709995
 10
0.251396346304593
 20
-0.333246319520057
 10
0.267636420355291
 20
-0.30726220103895
 10
0.277542865526195
 20
-0.291184527728775
 10
0.277542865526195
 20
-0.485903015596483
 10
0.288748516621174
 20
-0.4949974570648671
 10
0.373521703165745
 20
-0.4949974570648671
 10
0.384889755001224
 20
-0.485903015596483
 10
0.384889755001224
 20
-0.123749364266216
 10
0.373846504646762
 20
-0.114654922797833
 10
0.2799788766338
 20
-0.114654922797833
 10
0.267311618874269
 20
-0.135279816842202
 10
0.249447537418517
 20
-0.164349549392928
 10
0.233045062627349
 20
-0.190983270836025
 10
0.218104194500706
 20
-0.215180981171555
 10
0.204624933038633
 20
-0.237105081140007
 10
0.192607278241127
 20
-0.256755570741313
 10
0.182051230108174
 20
-0.2741324499755549
 10
0.1729567886397769
 20
-0.289073318102195
 10
0.165323953835967
 20
-0.301740575861719
 10
0.159152725696707
 20
-0.311971822513657
 10
0.154443104222009
 20
-0.319929458798486
 10
0.151195089411873
 20
-0.325613484716225
 10
0.149408681266293
 20
-0.32902390026687
 10
0.149083879785286
 20
-0.329998304709911
 10
0.133168607215613
 20
-0.303689384747811
 10
0.116116529462384
 20
-0.275756457380617
 10
0.10020125689272
 20
-0.24993473964004
 10
0.0857475909876126
 20
-0.226549033007044
 10
0.0722683295255475
 20
-0.205274536000653
 10
0.0602506747280428
 20
-0.186273649361354
 10
0.0493698251140853
 20
-0.169546373089137
 10
0.0397881814241787
 20
-0.154930306443533
 10
0.031505743658326
 20
-0.142750250905517
 10
0.0243601110760252
 20
-0.132681404994091
 10
0.0185136844177786
 20
-0.124723768709257
 10
0.0138040629430827
 20
-0.119202143532025
 10
0.0103936473924352
 20
-0.115791727981381
 10
0.0082824377658444
 20
-0.114654922797833
 10
-0.0787643591458203
 20
-0.114654922797833
 10
-0.0901324109812994
 20
-0.123586963525709
 10
-0.0901324109812993
 20
-0.485903015596483
 10
-0.0787643591458203
 20
-0.4949974570648671
 10
0.0060088273987535
 20
-0.4949974570648671
 10
0.0172144784937256
 20
-0.485903015596483
 97
        0
 92
        7
 72
     0
 73
     1
 93
        8
 10
0.4421653813576591
 20
-0.485903015596483
 10
0.4533710324526351
 20
-0.4949974570648671
 10
0.5355458071490901
 20
-0.4949974570648671
 10
0.5469138589845689
 20
-0.485903015596483
 10
0.5469138589845689
 20
-0.123749364266216
 10
0.535870608630111
 20
-0.114654922797833
 10
0.4533710324526351
 20
-0.114654922797833
 10
0.4421653813576591
 20
-0.123586963525709
 97
        0
 75
     1
 76
     1
 47
0.0
 98
        1
 10
0.0
 20
0.0
1001
GradientColor1ACI
1070
     5
1001
GradientColor2ACI
1070
     2
1001
ACAD
1010
0.0
1020
0.0
1030
0.0
  0
LINE
  5
DB8
330
D97
100
AcDbEntity
  8
TITLEBLOCK
 62
   154
370
     0
100
AcDbLine
 10
-0.4275493147120441
 20
-0.114654922797833
 30
0.0
 11
-0.51492091310473
 21
-0.114654922797833
 31
0.0
  0
LINE
  5
DB9
330
D97
100
AcDbEntity
  8
TITLEBLOCK
 62
   154
370
     0
100
AcDbLine
 10
-0.51492091310473
 20
-0.114654922797833
 30
0.0
 11
-0.526126564199698
 21
-0.123586963525709
 31
0.0
  0
LINE
  5
DBA
330
D97
100
AcDbEntity
  8
TITLEBLOCK
 62
   154
370
     0
100
AcDbLine
 10
-0.526126564199698
 20
-0.123586963525709
 30
0.0
 11
-0.526126564199698
 21
-0.485903015596483
 31
0.0
  0
LINE
  5
DBB
330
D97
100
AcDbEntity
  8
TITLEBLOCK
 62
   154
370
     0
100
AcDbLine
 10
-0.526126564199698
 20
-0.485903015596483
 30
0.0
 11
-0.51492091310473
 21
-0.4949974570648671
 31
0.0
  0
LINE
  5
DBC
330
D97
100
AcDbEntity
  8
TITLEBLOCK
 62
   154
370
     0
100
AcDbLine
 10
-0.51492091310473
 20
-0.4949974570648671
 30
0.0
 11
-0.4278741161930581
 21
-0.4949974570648671
 31
0.0
  0
LINE
  5
DBD
330
D97
100
AcDbEntity
  8
TITLEBLOCK
 62
   154
370
     0
100
AcDbLine
 10
-0.4278741161930581
 20
-0.4949974570648671
 30
0.0
 11
-0.4165060643575751
 21
-0.485903015596483
 31
0.0
  0
LINE
  5
DBE
330
D97
100
AcDbEntity
  8
TITLEBLOCK
 62
   154
370
     0
100
AcDbLine
 10
-0.4165060643575751
 20
-0.485903015596483
 30
0.0
 11
-0.4165060643575751
 21
-0.3496487943112391
 31
0.0
  0
LINE
  5
DBF
330
D97
100
AcDbEntity
  8
TITLEBLOCK
 62
   154
370
     0
100
AcDbLine
 10
-0.4165060643575751
 20
-0.3496487943112391
 30
0.0
 11
-0.250532507559582
 21
-0.3496487943112391
 31
0.0
  0
LINE
  5
DC0
330
D97
100
AcDbEntity
  8
TITLEBLOCK
 62
   154
370
     0
100
AcDbLine
 10
-0.4165060643575751
 20
-0.261952394437542
 30
0.0
 11
-0.4165060643575751
 21
-0.123749364266216
 31
0.0
  0
LINE
  5
DC1
330
D97
100
AcDbEntity
  8
TITLEBLOCK
 62
   154
370
     0
100
AcDbLine
 10
-0.4165060643575751
 20
-0.123749364266216
 30
0.0
 11
-0.4275493147120441
 21
-0.114654922797833
 31
0.0
  0
LINE
  5
DC2
330
D97
100
AcDbEntity
  8
TITLEBLOCK
 62
   154
370
     0
100
AcDbLine
 10
-0.154066467698511
 20
-0.114654922797833
 30
0.0
 11
-0.239164455724103
 21
-0.114654922797833
 31
0.0
  0
LINE
  5
DC3
330
D97
100
AcDbEntity
  8
TITLEBLOCK
 62
   154
370
     0
100
AcDbLine
 10
-0.239164455724103
 20
-0.114654922797833
 30
0.0
 11
-0.250532507559582
 21
-0.123262162044695
 31
0.0
  0
LINE
  5
DC4
330
D97
100
AcDbEntity
  8
TITLEBLOCK
 62
   154
370
     0
100
AcDbLine
 10
-0.250532507559582
 20
-0.123262162044695
 30
0.0
 11
-0.250532507559582
 21
-0.261952394437542
 31
0.0
  0
LINE
  5
DC5
330
D97
100
AcDbEntity
  8
TITLEBLOCK
 62
   154
370
     0
100
AcDbLine
 10
-0.250532507559582
 20
-0.261952394437542
 30
0.0
 11
-0.4165060643575751
 21
-0.261952394437542
 31
0.0
  0
LINE
  5
DC6
330
D97
100
AcDbEntity
  8
TITLEBLOCK
 62
   154
370
     0
100
AcDbLine
 10
-0.250532507559582
 20
-0.3496487943112391
 30
0.0
 11
-0.250532507559582
 21
-0.485903015596483
 31
0.0
  0
LINE
  5
DC7
330
D97
100
AcDbEntity
  8
TITLEBLOCK
 62
   154
370
     0
100
AcDbLine
 10
-0.250532507559582
 20
-0.485903015596483
 30
0.0
 11
-0.239164455724103
 21
-0.4949974570648671
 31
0.0
  0
LINE
  5
DC8
330
D97
100
AcDbEntity
  8
TITLEBLOCK
 62
   154
370
     0
100
AcDbLine
 10
-0.239164455724103
 20
-0.4949974570648671
 30
0.0
 11
-0.154391269179529
 21
-0.4949974570648671
 31
0.0
  0
LINE
  5
DC9
330
D97
100
AcDbEntity
  8
TITLEBLOCK
 62
   154
370
     0
100
AcDbLine
 10
-0.154391269179529
 20
-0.4949974570648671
 30
0.0
 11
-0.143185618084557
 21
-0.485903015596483
 31
0.0
  0
LINE
  5
DCA
330
D97
100
AcDbEntity
  8
TITLEBLOCK
 62
   154
370
     0
100
AcDbLine
 10
-0.143185618084557
 20
-0.485903015596483
 30
0.0
 11
-0.143185618084557
 21
-0.123749364266216
 31
0.0
  0
LINE
  5
DCB
330
D97
100
AcDbEntity
  8
TITLEBLOCK
 62
   154
370
     0
100
AcDbLine
 10
-0.143185618084557
 20
-0.123749364266216
 30
0.0
 11
-0.154066467698511
 21
-0.114654922797833
 31
0.0
  0
LINE
  5
DCC
330
D97
100
AcDbEntity
  8
TITLEBLOCK
 62
   154
370
     0
100
AcDbLine
 10
0.172956788639789
 20
-0.289073318102186
 30
0.0
 11
0.165323953835967
 21
-0.301740575861719
 31
0.0
  0
LINE
  5
DCD
330
D97
100
AcDbEntity
  8
TITLEBLOCK
 62
   154
370
     0
100
AcDbLine
 10
0.159152725696709
 20
-0.311971822513651
 30
0.0
 11
0.154443104222009
 21
-0.319929458798486
 31
0.0
  0
LINE
  5
DCE
330
D97
100
AcDbEntity
  8
TITLEBLOCK
 62
   154
370
     0
100
AcDbLine
 10
0.165323953835967
 20
-0.301740575861719
 30
0.0
 11
0.159152725696709
 21
-0.311971822513651
 31
0.0
  0
LINE
  5
DCF
330
D97
100
AcDbEntity
  8
TITLEBLOCK
 62
   154
370
     0
100
AcDbLine
 10
0.149408681266293
 20
-0.32902390026687
 30
0.0
 11
0.149083879785286
 21
-0.329998304709911
 31
0.0
  0
LINE
  5
DD0
330
D97
100
AcDbEntity
  8
TITLEBLOCK
 62
   154
370
     0
100
AcDbLine
 10
0.154443104222009
 20
-0.319929458798486
 30
0.0
 11
0.151195089411873
 21
-0.325613484716226
 31
0.0
  0
LINE
  5
DD1
330
D97
100
AcDbEntity
  8
TITLEBLOCK
 62
   154
370
     0
100
AcDbLine
 10
0.151195089411873
 20
-0.325613484716226
 30
0.0
 11
0.149408681266293
 21
-0.32902390026687
 31
0.0
  0
LINE
  5
DD2
330
D97
100
AcDbEntity
  8
TITLEBLOCK
 62
   154
370
     0
100
AcDbLine
 10
0.251396346304597
 20
-0.3332463195200481
 30
0.0
 11
0.267636420355283
 21
-0.3072622010389519
 31
0.0
  0
LINE
  5
DD3
330
D97
100
AcDbEntity
  8
TITLEBLOCK
 62
   154
370
     0
100
AcDbLine
 10
0.267636420355283
 20
-0.3072622010389519
 30
0.0
 11
0.277542865526195
 21
-0.291184527728775
 31
0.0
  0
LINE
  5
DD4
330
D97
100
AcDbEntity
  8
TITLEBLOCK
 62
   154
370
     0
100
AcDbLine
 10
0.0172144784937256
 20
-0.2910221269882669
 30
0.0
 11
0.0318305451393375
 21
-0.3144078336212539
 31
0.0
  0
LINE
  5
DD5
330
D97
100
AcDbEntity
  8
TITLEBLOCK
 62
   154
370
     0
100
AcDbLine
 10
0.0318305451393375
 20
-0.3144078336212539
 30
0.0
 11
0.0474210162279984
 21
-0.338930345437788
 31
0.0
  0
LINE
  5
DD6
330
D97
100
AcDbEntity
  8
TITLEBLOCK
 62
   154
370
     0
100
AcDbLine
 10
0.0474210162279984
 20
-0.338930345437788
 30
0.0
 11
0.0612250791710789
 21
-0.3603672431846911
 31
0.0
  0
LINE
  5
DD7
330
D97
100
AcDbEntity
  8
TITLEBLOCK
 62
   154
370
     0
100
AcDbLine
 10
0.0612250791710789
 20
-0.3603672431846911
 30
0.0
 11
0.073242733968586
 21
-0.37839372538095
 31
0.0
  0
LINE
  5
DD8
330
D97
100
AcDbEntity
  8
TITLEBLOCK
 62
   154
370
     0
100
AcDbLine
 10
0.073242733968586
 20
-0.37839372538095
 30
0.0
 11
0.0834739806205196
 21
-0.393496994248087
 31
0.0
  0
LINE
  5
DD9
330
D97
100
AcDbEntity
  8
TITLEBLOCK
 62
   154
370
     0
100
AcDbLine
 10
0.0834739806205196
 20
-0.393496994248087
 30
0.0
 11
0.0919188191268763
 21
-0.40518984756458
 31
0.0
  0
LINE
  5
DDA
330
D97
100
AcDbEntity
  8
TITLEBLOCK
 62
   154
370
     0
100
AcDbLine
 10
0.0919188191268763
 20
-0.40518984756458
 30
0.0
 11
0.0985772494876525
 21
-0.413797086811443
 31
0.0
  0
LINE
  5
DDB
330
D97
100
AcDbEntity
  8
TITLEBLOCK
 62
   154
370
     0
100
AcDbLine
 10
0.0985772494876525
 20
-0.413797086811443
 30
0.0
 11
0.103449271702855
 21
-0.41915631124817
 31
0.0
  0
LINE
  5
DDC
330
D97
100
AcDbEntity
  8
TITLEBLOCK
 62
   154
370
     0
100
AcDbLine
 10
0.103449271702855
 20
-0.41915631124817
 30
0.0
 11
0.106534885772492
 21
-0.421429921615265
 31
0.0
  0
LINE
  5
DDD
330
D97
100
AcDbEntity
  8
TITLEBLOCK
 62
   154
370
     0
100
AcDbLine
 10
0.106534885772492
 20
-0.421429921615265
 30
0.0
 11
0.189846465652502
 21
-0.421429921615265
 31
0.0
  0
LINE
  5
DDE
330
D97
100
AcDbEntity
  8
TITLEBLOCK
 62
   154
370
     0
100
AcDbLine
 10
0.189846465652502
 20
-0.421429921615265
 30
0.0
 11
0.190333667874024
 21
-0.421267520874758
 31
0.0
  0
LINE
  5
DDF
330
D97
100
AcDbEntity
  8
TITLEBLOCK
 62
   154
370
     0
100
AcDbLine
 10
0.190333667874024
 20
-0.421267520874758
 30
0.0
 11
0.193581682684156
 21
-0.418669109026649
 31
0.0
  0
LINE
  5
DE0
330
D97
100
AcDbEntity
  8
TITLEBLOCK
 62
   154
370
     0
100
AcDbLine
 10
0.193581682684156
 20
-0.418669109026649
 30
0.0
 11
0.19861610563987
 21
-0.4126602816278951
 31
0.0
  0
LINE
  5
DE1
330
D97
100
AcDbEntity
  8
TITLEBLOCK
 62
   154
370
     0
100
AcDbLine
 10
0.19861610563987
 20
-0.4126602816278951
 30
0.0
 11
0.20543693674116
 21
-0.403403439419005
 31
0.0
  0
LINE
  5
DE2
330
D97
100
AcDbEntity
  8
TITLEBLOCK
 62
   154
370
     0
100
AcDbLine
 10
0.20543693674116
 20
-0.403403439419005
 30
0.0
 11
0.214206576728527
 21
-0.390898582399978
 31
0.0
  0
LINE
  5
DE3
330
D97
100
AcDbEntity
  8
TITLEBLOCK
 62
   154
370
     0
100
AcDbLine
 10
0.214206576728527
 20
-0.390898582399978
 30
0.0
 11
0.224762624861475
 21
-0.374983309830307
 31
0.0
  0
LINE
  5
DE4
330
D97
100
AcDbEntity
  8
TITLEBLOCK
 62
   154
370
     0
100
AcDbLine
 10
0.224762624861475
 20
-0.374983309830307
 30
0.0
 11
0.237267481880499
 21
-0.3556576217099929
 31
0.0
  0
LINE
  5
DE5
330
D97
100
AcDbEntity
  8
TITLEBLOCK
 62
   154
370
     0
100
AcDbLine
 10
0.237267481880499
 20
-0.3556576217099929
 30
0.0
 11
0.251396346304597
 21
-0.3332463195200481
 31
0.0
  0
LINE
  5
DE6
330
D97
100
AcDbEntity
  8
TITLEBLOCK
 62
   154
370
     0
100
AcDbLine
 10
0.149083879785286
 20
-0.329998304709911
 30
0.0
 11
0.133168607215614
 21
-0.303689384747801
 31
0.0
  0
LINE
  5
DE7
330
D97
100
AcDbEntity
  8
TITLEBLOCK
 62
   154
370
     0
100
AcDbLine
 10
0.133168607215614
 20
-0.303689384747801
 30
0.0
 11
0.116116529462394
 21
-0.275756457380624
 31
0.0
  0
LINE
  5
DE8
330
D97
100
AcDbEntity
  8
TITLEBLOCK
 62
   154
370
     0
100
AcDbLine
 10
0.373846504646762
 20
-0.114654922797833
 30
0.0
 11
0.2799788766338
 21
-0.114654922797833
 31
0.0
  0
LINE
  5
DE9
330
D97
100
AcDbEntity
  8
TITLEBLOCK
 62
   154
370
     0
100
AcDbLine
 10
0.2799788766338
 20
-0.114654922797833
 30
0.0
 11
0.267311618874269
 21
-0.135279816842202
 31
0.0
  0
LINE
  5
DEA
330
D97
100
AcDbEntity
  8
TITLEBLOCK
 62
   154
370
     0
100
AcDbLine
 10
0.267311618874269
 20
-0.135279816842202
 30
0.0
 11
0.249447537418517
 21
-0.164349549392928
 31
0.0
  0
LINE
  5
DEB
330
D97
100
AcDbEntity
  8
TITLEBLOCK
 62
   154
370
     0
100
AcDbLine
 10
0.249447537418517
 20
-0.164349549392928
 30
0.0
 11
0.233045062627324
 21
-0.19098327083605
 31
0.0
  0
LINE
  5
DEC
330
D97
100
AcDbEntity
  8
TITLEBLOCK
 62
   154
370
     0
100
AcDbLine
 10
0.233045062627324
 20
-0.19098327083605
 30
0.0
 11
0.218104194500695
 21
-0.215180981171571
 31
0.0
  0
LINE
  5
DED
330
D97
100
AcDbEntity
  8
TITLEBLOCK
 62
   154
370
     0
100
AcDbLine
 10
0.218104194500695
 20
-0.215180981171571
 30
0.0
 11
0.204624933038628
 21
-0.237105081139995
 31
0.0
  0
LINE
  5
DEE
330
D97
100
AcDbEntity
  8
TITLEBLOCK
 62
   154
370
     0
100
AcDbLine
 10
0.204624933038628
 20
-0.237105081139995
 30
0.0
 11
0.192607278241118
 21
-0.256755570741323
 31
0.0
  0
LINE
  5
DEF
330
D97
100
AcDbEntity
  8
TITLEBLOCK
 62
   154
370
     0
100
AcDbLine
 10
0.192607278241118
 20
-0.256755570741323
 30
0.0
 11
0.182051230108174
 21
-0.2741324499755549
 31
0.0
  0
LINE
  5
DF0
330
D97
100
AcDbEntity
  8
TITLEBLOCK
 62
   154
370
     0
100
AcDbLine
 10
0.182051230108174
 20
-0.2741324499755549
 30
0.0
 11
0.172956788639789
 21
-0.289073318102186
 31
0.0
  0
LINE
  5
DF1
330
D97
100
AcDbEntity
  8
TITLEBLOCK
 62
   154
370
     0
100
AcDbLine
 10
0.277542865526195
 20
-0.291184527728775
 30
0.0
 11
0.277542865526195
 21
-0.485903015596483
 31
0.0
  0
LINE
  5
DF2
330
D97
100
AcDbEntity
  8
TITLEBLOCK
 62
   154
370
     0
100
AcDbLine
 10
0.277542865526195
 20
-0.485903015596483
 30
0.0
 11
0.288748516621174
 21
-0.4949974570648671
 31
0.0
  0
LINE
  5
DF3
330
D97
100
AcDbEntity
  8
TITLEBLOCK
 62
   154
370
     0
100
AcDbLine
 10
0.288748516621174
 20
-0.4949974570648671
 30
0.0
 11
0.373521703165745
 21
-0.4949974570648671
 31
0.0
  0
LINE
  5
DF4
330
D97
100
AcDbEntity
  8
TITLEBLOCK
 62
   154
370
     0
100
AcDbLine
 10
0.373521703165745
 20
-0.4949974570648671
 30
0.0
 11
0.384889755001224
 21
-0.485903015596483
 31
0.0
  0
LINE
  5
DF5
330
D97
100
AcDbEntity
  8
TITLEBLOCK
 62
   154
370
     0
100
AcDbLine
 10
0.384889755001224
 20
-0.485903015596483
 30
0.0
 11
0.384889755001224
 21
-0.123749364266216
 31
0.0
  0
LINE
  5
DF6
330
D97
100
AcDbEntity
  8
TITLEBLOCK
 62
   154
370
     0
100
AcDbLine
 10
0.384889755001224
 20
-0.123749364266216
 30
0.0
 11
0.373846504646762
 21
-0.114654922797833
 31
0.0
  0
LINE
  5
DF7
330
D97
100
AcDbEntity
  8
TITLEBLOCK
 62
   154
370
     0
100
AcDbLine
 10
0.0082824377658444
 20
-0.114654922797833
 30
0.0
 11
-0.0787643591458203
 21
-0.114654922797833
 31
0.0
  0
LINE
  5
DF8
330
D97
100
AcDbEntity
  8
TITLEBLOCK
 62
   154
370
     0
100
AcDbLine
 10
-0.0787643591458203
 20
-0.114654922797833
 30
0.0
 11
-0.0901324109812993
 21
-0.123586963525709
 31
0.0
  0
LINE
  5
DF9
330
D97
100
AcDbEntity
  8
TITLEBLOCK
 62
   154
370
     0
100
AcDbLine
 10
-0.0901324109812993
 20
-0.123586963525709
 30
0.0
 11
-0.0901324109812993
 21
-0.485903015596483
 31
0.0
  0
LINE
  5
DFA
330
D97
100
AcDbEntity
  8
TITLEBLOCK
 62
   154
370
     0
100
AcDbLine
 10
-0.0901324109812993
 20
-0.485903015596483
 30
0.0
 11
-0.0787643591458203
 21
-0.4949974570648671
 31
0.0
  0
LINE
  5
DFB
330
D97
100
AcDbEntity
  8
TITLEBLOCK
 62
   154
370
     0
100
AcDbLine
 10
-0.0787643591458203
 20
-0.4949974570648671
 30
0.0
 11
0.0060088273987535
 21
-0.4949974570648671
 31
0.0
  0
LINE
  5
DFC
330
D97
100
AcDbEntity
  8
TITLEBLOCK
 62
   154
370
     0
100
AcDbLine
 10
0.0060088273987535
 20
-0.4949974570648671
 30
0.0
 11
0.0172144784937256
 21
-0.485903015596483
 31
0.0
  0
LINE
  5
DFD
330
D97
100
AcDbEntity
  8
TITLEBLOCK
 62
   154
370
     0
100
AcDbLine
 10
0.0172144784937256
 20
-0.485903015596483
 30
0.0
 11
0.0172144784937256
 21
-0.2910221269882669
 31
0.0
  0
LINE
  5
DFE
330
D97
100
AcDbEntity
  8
TITLEBLOCK
 62
   154
370
     0
100
AcDbLine
 10
0.116116529462394
 20
-0.275756457380624
 30
0.0
 11
0.100201256892722
 21
-0.249934739640036
 31
0.0
  0
LINE
  5
DFF
330
D97
100
AcDbEntity
  8
TITLEBLOCK
 62
   154
370
     0
100
AcDbLine
 10
0.100201256892722
 20
-0.249934739640036
 30
0.0
 11
0.085747590987614
 21
-0.22654903300705
 31
0.0
  0
LINE
  5
E00
330
D97
100
AcDbEntity
  8
TITLEBLOCK
 62
   154
370
     0
100
AcDbLine
 10
0.085747590987614
 20
-0.22654903300705
 30
0.0
 11
0.0722683295255475
 21
-0.205274536000653
 31
0.0
  0
LINE
  5
E01
330
D97
100
AcDbEntity
  8
TITLEBLOCK
 62
   154
370
     0
100
AcDbLine
 10
0.0722683295255475
 20
-0.205274536000653
 30
0.0
 11
0.0602506747280405
 21
-0.186273649361352
 31
0.0
  0
LINE
  5
E02
330
D97
100
AcDbEntity
  8
TITLEBLOCK
 62
   154
370
     0
100
AcDbLine
 10
0.0602506747280405
 20
-0.186273649361352
 30
0.0
 11
0.0493698251140824
 21
-0.169546373089147
 31
0.0
  0
LINE
  5
E03
330
D97
100
AcDbEntity
  8
TITLEBLOCK
 62
   154
370
     0
100
AcDbLine
 10
0.0493698251140824
 20
-0.169546373089147
 30
0.0
 11
0.0397881814241767
 21
-0.154930306443531
 31
0.0
  0
LINE
  5
E04
330
D97
100
AcDbEntity
  8
TITLEBLOCK
 62
   154
370
     0
100
AcDbLine
 10
0.0397881814241767
 20
-0.154930306443531
 30
0.0
 11
0.031505743658327
 21
-0.142750250905517
 31
0.0
  0
LINE
  5
E05
330
D97
100
AcDbEntity
  8
TITLEBLOCK
 62
   154
370
     0
100
AcDbLine
 10
0.031505743658327
 20
-0.142750250905517
 30
0.0
 11
0.0243601110760263
 21
-0.132681404994092
 31
0.0
  0
LINE
  5
E06
330
D97
100
AcDbEntity
  8
TITLEBLOCK
 62
   154
370
     0
100
AcDbLine
 10
0.0138040629430822
 20
-0.119202143532025
 30
0.0
 11
0.0103936473924353
 21
-0.115791727981381
 31
0.0
  0
LINE
  5
E07
330
D97
100
AcDbEntity
  8
TITLEBLOCK
 62
   154
370
     0
100
AcDbLine
 10
0.0243601110760263
 20
-0.132681404994092
 30
0.0
 11
0.018513684417778
 21
-0.124723768709257
 31
0.0
  0
LINE
  5
E08
330
D97
100
AcDbEntity
  8
TITLEBLOCK
 62
   154
370
     0
100
AcDbLine
 10
0.4533710324526351
 20
-0.114654922797833
 30
0.0
 11
0.535870608630111
 21
-0.114654922797833
 31
0.0
  0
LINE
  5
E09
330
D97
100
AcDbEntity
  8
TITLEBLOCK
 62
   154
370
     0
100
AcDbLine
 10
0.5469138589845689
 20
-0.123749364266216
 30
0.0
 11
0.5469138589845689
 21
-0.123749364266216
 31
0.0
  0
LINE
  5
E0A
330
D97
100
AcDbEntity
  8
TITLEBLOCK
 62
   154
370
     0
100
AcDbLine
 10
0.5469138589845689
 20
-0.123749364266216
 30
0.0
 11
0.5469138589845689
 21
-0.485903015596483
 31
0.0
  0
LINE
  5
E0B
330
D97
100
AcDbEntity
  8
TITLEBLOCK
 62
   154
370
     0
100
AcDbLine
 10
0.0103936473924353
 20
-0.115791727981381
 30
0.0
 11
0.0082824377658444
 21
-0.114654922797833
 31
0.0
  0
LINE
  5
E0C
330
D97
100
AcDbEntity
  8
TITLEBLOCK
 62
   154
370
     0
100
AcDbLine
 10
0.5469138589845689
 20
-0.485903015596483
 30
0.0
 11
0.5355458071490901
 21
-0.4949974570648671
 31
0.0
  0
LINE
  5
E0D
330
D97
100
AcDbEntity
  8
TITLEBLOCK
 62
   154
370
     0
100
AcDbLine
 10
0.018513684417778
 20
-0.124723768709257
 30
0.0
 11
0.0138040629430822
 21
-0.119202143532025
 31
0.0
  0
LINE
  5
E0E
330
D97
100
AcDbEntity
  8
TITLEBLOCK
 62
   154
370
     0
100
AcDbLine
 10
0.5355458071490901
 20
-0.4949974570648671
 30
0.0
 11
0.5355458071490901
 21
-0.4949974570648671
 31
0.0
  0
LINE
  5
E0F
330
D97
100
AcDbEntity
  8
TITLEBLOCK
 62
   154
370
     0
100
AcDbLine
 10
0.535870608630111
 20
-0.114654922797833
 30
0.0
 11
0.5469138589845689
 21
-0.123749364266216
 31
0.0
  0
LINE
  5
E10
330
D97
100
AcDbEntity
  8
TITLEBLOCK
 62
   154
370
     0
100
AcDbLine
 10
0.5355458071490901
 20
-0.4949974570648671
 30
0.0
 11
0.4533710324526351
 21
-0.4949974570648671
 31
0.0
  0
LINE
  5
E11
330
D97
100
AcDbEntity
  8
TITLEBLOCK
 62
   154
370
     0
100
AcDbLine
 10
0.4533710324526351
 20
-0.4949974570648671
 30
0.0
 11
0.4421653813576591
 21
-0.485903015596483
 31
0.0
  0
LINE
  5
E12
330
D97
100
AcDbEntity
  8
TITLEBLOCK
 62
   154
370
     0
100
AcDbLine
 10
0.4421653813576591
 20
-0.485903015596483
 30
0.0
 11
0.4421653813576591
 21
-0.485903015596483
 31
0.0
  0
LINE
  5
E13
330
D97
100
AcDbEntity
  8
TITLEBLOCK
 62
   154
370
     0
100
AcDbLine
 10
0.4421653813576591
 20
-0.485903015596483
 30
0.0
 11
0.4421653813576591
 21
-0.123586963525709
 31
0.0
  0
LINE
  5
E14
330
D97
100
AcDbEntity
  8
TITLEBLOCK
 62
   154
370
     0
100
AcDbLine
 10
0.4421653813576591
 20
-0.123586963525709
 30
0.0
 11
0.4533710324526351
 21
-0.114654922797833
 31
0.0
  0
LINE
  5
E15
330
D97
100
AcDbEntity
  8
TITLEBLOCK
 62
   154
370
     0
100
AcDbLine
 10
0.4533710324526351
 20
-0.114654922797833
 30
0.0
 11
0.4533710324526351
 21
-0.114654922797833
 31
0.0
  0
LINE
  5
E16
330
D97
100
AcDbEntity
  8
TITLEBLOCK
 62
   154
370
     0
100
AcDbLine
 10
0.4533710324526351
 20
-0.114654922797833
 30
0.0
 11
0.4533710324526351
 21
-0.114654922797833
 31
0.0
  0
LINE
  5
E17
330
D97
100
AcDbEntity
  8
TITLEBLOCK
 62
   154
370
     0
100
AcDbLine
 10
0.4533710324526351
 20
-0.114654922797833
 30
0.0
 11
0.4533710324526351
 21
-0.114654922797833
 31
0.0
  0
HATCH
  5
E18
330
D97
100
AcDbEntity
  8
TITLEBLOCK
  6
Continuous
 62
   154
100
AcDbHatch
 10
0.0
 20
0.0
 30
0.0
210
0.0
220
0.0
230
1.0
  2
ANSI31
 70
     0
 71
     0
 91
       20
 92
        7
 72
     0
 73
     1
 93
       22
 10
-0.8366886150912709
 20
-0.7007591952870412
 10
-0.838150221755834
 20
-0.690690349375617
 10
-0.8435094461925579
 20
-0.6809463049452061
 10
-0.852766288401453
 20
-0.673313470141384
 10
-0.8660831491230121
 20
-0.6681166464451652
 10
-0.8832976276167389
 20
-0.6651934331160411
 10
-0.9794388659967919
 20
-0.6651934331160411
 10
-0.9890205096866909
 20
-0.6674670434831372
 10
-1.002174969667749
 20
-0.673313470141384
 10
-1.01143181187664
 20
-0.6814335071667262
 10
-1.01711583779438
 20
-0.6918271545591639
 10
-1.01906464668046
 20
-0.704494412318698
 10
-1.01906464668046
 20
-0.8417230380469828
 10
-1.013543021503219
 20
-0.8461078580406679
 10
-0.9721308326739769
 20
-0.8461078580406679
 10
-0.9667716082372571
 20
-0.8417230380469828
 10
-0.9667716082372571
 20
-0.81102929809119
 10
-0.890118458718023
 20
-0.81102929809119
 10
-0.890118458718023
 20
-0.8417230380469828
 10
-0.8847592342812991
 20
-0.8461078580406679
 10
-0.8420478395279939
 20
-0.8461078580406679
 10
-0.8366886150912709
 20
-0.8417230380469828
 97
        0
 92
       23
 72
     0
 73
     1
 93
       10
 10
-0.890118458718023
 20
-0.7701043114834642
 10
-0.9656348030537049
 20
-0.7701043114834642
 10
-0.9656348030537049
 20
-0.7210592878503971
 10
-0.9653100015726941
 20
-0.717648872299753
 10
-0.9581643689903939
 20
-0.7095288352744108
 10
-0.9422490964207192
 20
-0.7069304234263009
 10
-0.9133417646105021
 20
-0.7069304234263009
 10
-0.9079825401737778
 20
-0.707092824166808
 10
-0.894503278711708
 20
-0.7113152434199859
 10
-0.890118458718023
 20
-0.7210592878503971
 97
        0
 92
        7
 72
     0
 73
     1
 93
       20
 10
-0.6453805427742071
 20
-0.6702278560717541
 10
-0.650577366470424
 20
-0.665843036078069
 10
-0.6915023530781479
 20
-0.665843036078069
 10
-0.6968615775148751
 20
-0.670065455331248
 10
-0.6968615775148751
 20
-0.7012463975085622
 10
-0.792190812192393
 20
-0.7012463975085622
 10
-0.797062834407603
 20
-0.7025456034326171
 10
-0.81086689735068
 20
-0.7082296293503561
 10
-0.8207733425216028
 20
-0.716349666375698
 10
-0.8266197691798479
 20
-0.726580913027629
 10
-0.8285685780659319
 20
-0.7392481707871641
 10
-0.8285685780659319
 20
-0.8090804892051071
 10
-0.8284061773254208
 20
-0.8131405077177779
 10
-0.824670960293764
 20
-0.825158162515285
 10
-0.821260544743124
 20
-0.8298677839899829
 10
-0.81086689735068
 20
-0.838962225458366
 10
-0.797874838110138
 20
-0.844321449895092
 10
-0.7822843670214771
 20
-0.8461078580406679
 10
-0.6507397672109311
 20
-0.8461078580406679
 10
-0.6453805427742071
 20
-0.8417230380469828
 97
        0
 92
       23
 72
     0
 73
     1
 93
       10
 10
-0.6968615775148751
 20
-0.8048580699519289
 10
-0.7601978663125501
 20
-0.8048580699519289
 10
-0.770591513704991
 20
-0.802259658103819
 10
-0.7769251425847501
 20
-0.7913788084898609
 10
-0.7769251425847501
 20
-0.7550010426163281
 10
-0.775788337401208
 20
-0.7538642374327792
 10
-0.7743267307366411
 20
-0.7486674137365601
 10
-0.7647450870467391
 20
-0.7426585863378071
 10
-0.7462314026289592
 20
-0.7407097774517251
 10
-0.6968615775148751
 20
-0.7407097774517251
 97
        0
 92
        7
 72
     0
 73
     1
 93
       20
 10
-0.4659277245141401
 20
-0.731128133761822
 10
-0.4669021289571861
 20
-0.728042519692191
 10
-0.473073357096441
 20
-0.715862464154177
 10
-0.4821677985648291
 20
-0.707092824166808
 10
-0.494023052621826
 20
-0.701896000470589
 10
-0.508801520007952
 20
-0.700109592325013
 10
-0.5917882984069449
 20
-0.700109592325013
 10
-0.604130754685469
 20
-0.7020584012110961
 10
-0.617934817628553
 20
-0.7069304234263009
 10
-0.6278412627994661
 20
-0.7142384567491091
 10
-0.6336876894577181
 20
-0.72398250117952
 10
-0.635636498343798
 20
-0.736000155977027
 10
-0.635636498343798
 20
-0.809567691426627
 10
-0.6338500901982211
 20
-0.8176877284519699
 10
-0.628653266502001
 20
-0.8301925854709971
 10
-0.6205332294766581
 20
-0.838962225458366
 10
-0.6096523798627
 20
-0.844321449895092
 10
-0.595848316919616
 20
-0.8461078580406679
 10
-0.47112454821036
 20
-0.8461078580406679
 10
-0.4659277245141401
 20
-0.8417230380469828
 97
        0
 92
       23
 72
     0
 73
     1
 93
       13
 10
-0.5139983437041681
 20
-0.7582490574264642
 10
-0.5139983437041681
 20
-0.8050204706924359
 10
-0.5723626713693989
 20
-0.8050204706924359
 10
-0.5838306621221129
 20
-0.8006356506987508
 10
-0.587403478413263
 20
-0.7879683929392171
 10
-0.587403478413263
 20
-0.7592234618695059
 10
-0.5864290739702211
 20
-0.755975447059368
 10
-0.585617070267689
 20
-0.751428226325177
 10
-0.5778218347233571
 20
-0.7437953915213549
 10
-0.5615817606726751
 20
-0.741359380413753
 10
-0.537871252558675
 20
-0.741359380413753
 10
-0.5291016125713011
 20
-0.7420089833757801
 10
-0.517733560735826
 20
-0.7473682078125061
 97
        0
 92
        7
 72
     0
 73
     1
 93
       19
 10
-0.271534038127447
 20
-0.7360001559770259
 10
-0.274132449975559
 20
-0.72398250117952
 10
-0.280303678114818
 20
-0.715537662673164
 10
-0.290859726247758
 20
-0.7074176256478221
 10
-0.3041765869693211
 20
-0.7025456034326171
 10
-0.3200918595389961
 20
-0.700921596027548
 10
-0.449525249722951
 20
-0.700921596027548
 10
-0.4548844741596751
 20
-0.7049816145402192
 10
-0.4548844741596751
 20
-0.894665679452215
 10
-0.449525249722951
 20
-0.8988880987053928
 10
-0.4087626638557311
 20
-0.8988880987053928
 10
-0.403403439419003
 20
-0.894665679452215
 10
-0.403403439419003
 20
-0.846757461002695
 10
-0.316681443988353
 20
-0.846757461002695
 10
-0.3049885906718599
 20
-0.8457830565596539
 10
-0.292321332912325
 20
-0.8417230380469828
 10
-0.2825772884819149
 20
-0.8345774054646819
 10
-0.275594056640118
 20
-0.8241837580722441
 10
-0.271534038127447
 20
-0.810704496610176
 97
        0
 92
       23
 72
     0
 73
     1
 93
        9
 10
-0.323177473608625
 20
-0.7928404151544241
 10
-0.323339874349133
 20
-0.794464422559491
 10
-0.329186301007377
 20
-0.8033964632873679
 10
-0.344614371355528
 20
-0.8063196766164908
 10
-0.4021042334949511
 20
-0.8063196766164908
 10
-0.4021042334949511
 20
-0.7421713841162859
 10
-0.341041555064374
 20
-0.7421713841162859
 10
-0.329673503228902
 20
-0.744932196704903
 10
-0.323177473608625
 20
-0.7556506455783551
 97
        0
 92
        7
 72
     0
 73
     1
 93
       12
 10
-0.1684095679056
 20
-0.740060174489698
 10
-0.125210970930778
 20
-0.740060174489698
 10
-0.125210970930778
 20
-0.6999471915845071
 10
-0.1684095679056
 20
-0.6999471915845071
 10
-0.1684095679056
 20
-0.6651934331160411
 10
-0.216642587836135
 20
-0.6651934331160411
 10
-0.216642587836135
 20
-0.6999471915845071
 10
-0.2598411848109539
 20
-0.6999471915845071
 10
-0.2598411848109539
 20
-0.740060174489698
 10
-0.216642587836135
 20
-0.740060174489698
 10
-0.216642587836135
 20
-0.845295854338134
 10
-0.1684095679056
 20
-0.845295854338134
 97
        0
 92
        7
 72
     0
 73
     1
 93
       31
 10
0.0678835095318622
 20
-0.73989777374919
 10
0.0644730939812117
 20
-0.7257689093250971
 10
0.0583018658419601
 20
-0.7148880597111372
 10
0.0493698251140824
 20
-0.707092824166808
 10
0.0376769717975893
 20
-0.70238320269211
 10
0.0232233058924738
 20
-0.700921596027548
 10
-0.0665843036078062
 20
-0.700921596027548
 10
-0.0745419398926419
 20
-0.7012463975085622
 10
-0.0898076095002889
 20
-0.704819213799712
 10
-0.0941924294939742
 20
-0.7066056219452881
 10
-0.10556048132945
 20
-0.7144008574896161
 10
-0.11238131243074
 20
-0.7246321041415469
 10
-0.114654922797831
 20
-0.7374617626415891
 10
-0.114654922797831
 20
-0.807943684021559
 10
-0.112218911690233
 20
-0.8206109417810941
 10
-0.107509290215534
 20
-0.829380581768463
 10
-0.098414848747149
 20
-0.8386374239773529
 10
-0.086397193949642
 20
-0.844321449895092
 10
-0.0712939250825091
 20
-0.8461078580406679
 10
0.0211120962658864
 20
-0.8461078580406679
 10
0.0360529643925194
 20
-0.8436718469330649
 10
0.0500194280761068
 20
-0.8386374239773529
 10
0.0599258732470265
 20
-0.831491791395052
 10
0.0659347006457782
 20
-0.8220725484456549
 10
0.0678835095318622
 20
-0.810542095869669
 10
0.0623618843546279
 20
-0.8051828714329431
 10
-0.0422241925317781
 20
-0.8051828714329431
 10
-0.0571650606584076
 20
-0.802584459584834
 10
-0.0634986895381768
 20
-0.7954388270025321
 10
0.0623618843546279
 20
-0.7954388270025321
 10
0.0678835095318622
 20
-0.791054007008847
 97
        0
 92
       23
 72
     0
 73
     1
 93
        6
 10
0.0159152725696696
 20
-0.7525650315087251
 10
-0.0630114873166594
 20
-0.7525650315087251
 10
-0.0602506747280405
 20
-0.7467186048504791
 10
-0.0482330199305334
 20
-0.741846582635273
 10
-0.0012992059240577
 20
-0.741846582635273
 10
0.0108808496139599
 20
-0.745256998185917
 97
        0
 92
        7
 72
     0
 73
     1
 93
       13
 10
0.174255994563849
 20
-0.738760968565643
 10
0.174255994563849
 20
-0.706768022685795
 10
0.169059170867625
 20
-0.7025456034326171
 10
0.085747590987614
 20
-0.7025456034326171
 10
0.0803883665508867
 20
-0.7066056219452881
 10
0.0803883665508867
 20
-0.8417230380469828
 10
0.085747590987614
 20
-0.8461078580406679
 10
0.1256981731523
 20
-0.8461078580406679
 10
0.131057397589023
 20
-0.8417230380469828
 10
0.131057397589023
 20
-0.758086656685957
 10
0.136091820544733
 20
-0.7470434063314921
 10
0.148271876082747
 20
-0.7429833878188209
 10
0.168896770127118
 20
-0.7429833878188209
 97
        0
 92
        7
 72
     0
 73
     1
 93
       25
 10
0.4401060067735491
 20
-0.6858183271604101
 10
0.435883587520374
 20
-0.680296701983178
 10
0.4254899401279341
 20
-0.6718518634768222
 10
0.412173079406374
 20
-0.6668174405211101
 10
0.396095406096199
 20
-0.6651934331160411
 10
0.2681236225768
 20
-0.6651934331160411
 10
0.262764398140076
 20
-0.669253451628713
 10
0.262764398140076
 20
-0.8417230380469828
 10
0.2681236225768
 20
-0.8461078580406679
 10
0.30856140696301
 20
-0.8461078580406679
 10
0.313920631399734
 20
-0.8417230380469828
 10
0.313920631399734
 20
-0.828893379546942
 10
0.313920631399734
 20
-0.8282437765849309
 10
0.314083032140237
 20
-0.8181749306734118
 10
0.314245432880744
 20
-0.805994875135503
 10
0.314570234361762
 20
-0.792028411451878
 10
0.315057436583279
 20
-0.7761131388822181
 10
0.410224270520294
 20
-0.7761131388822181
 10
0.420293116431713
 20
-0.77286512407208
 10
0.431173966045675
 20
-0.766369094451807
 10
0.438969201590007
 20
-0.7571122522429159
 10
0.4435164223241961
 20
-0.7454193989264231
 10
0.4451404297292691
 20
-0.73129053450233
 10
0.4451404297292691
 20
-0.7103408389769471
 10
0.443841223805206
 20
-0.694912768628795
 97
        0
 92
       23
 72
     0
 73
     1
 93
        7
 10
0.313920631399734
 20
-0.70595601898326
 10
0.3787185268619609
 20
-0.70595601898326
 10
0.3879753690708571
 20
-0.708716831571876
 10
0.393984196469605
 20
-0.720247284147863
 10
0.3902489794379471
 20
-0.729341725616246
 10
0.376282515754363
 20
-0.734213747831452
 10
0.313920631399734
 20
-0.734213747831452
 97
        0
 92
        7
 72
     0
 73
     1
 93
        8
 10
0.5050663029762911
 20
-0.66941585236922
 10
0.499707078539567
 20
-0.6651934331160411
 10
0.45926929415336
 20
-0.6651934331160411
 10
0.453910069716636
 20
-0.669253451628713
 10
0.453910069716636
 20
-0.8417230380469828
 10
0.45926929415336
 20
-0.8461078580406679
 10
0.4995446777990561
 20
-0.8461078580406679
 10
0.5050663029762911
 20
-0.8417230380469828
 97
        0
 92
        7
 72
     0
 73
     1
 93
       20
 10
0.6798094997616581
 20
-0.7158624641541779
 10
0.6707150582932701
 20
-0.707092824166808
 10
0.6588598042362739
 20
-0.701896000470589
 10
0.6442437375906551
 20
-0.700109592325013
 10
0.5610945584511552
 20
-0.700109592325013
 10
0.548752102172633
 20
-0.7020584012110961
 10
0.534948039229553
 20
-0.7069304234263009
 10
0.5252039947991371
 20
-0.7142384567491091
 10
0.519195167400385
 20
-0.72398250117952
 10
0.517246358514305
 20
-0.736000155977027
 10
0.517246358514305
 20
-0.809567691426629
 10
0.519032766659882
 20
-0.817687728451971
 10
0.5243919910966021
 20
-0.8301925854709971
 10
0.532512028121948
 20
-0.838962225458366
 10
0.5433928777359061
 20
-0.844321449895092
 10
0.55703453993848
 20
-0.8461078580406679
 10
0.6817583086477422
 20
-0.8461078580406679
 10
0.6869551323439561
 20
-0.8417230380469828
 10
0.6869551323439561
 20
-0.731128133761821
 10
0.6859807279009209
 20
-0.728042519692192
 97
        0
 92
       23
 72
     0
 73
     1
 93
       14
 10
0.5913010961854271
 20
-0.741359380413753
 10
0.615011604299427
 20
-0.741359380413753
 10
0.623781244286794
 20
-0.7420089833757801
 10
0.635149296122274
 20
-0.7473682078125061
 10
0.638884513153931
 20
-0.758249057426465
 10
0.638884513153931
 20
-0.8050204706924359
 10
0.5805826473119761
 20
-0.8050204706924359
 10
0.580257845830959
 20
-0.8048580699519289
 10
0.5690521947359901
 20
-0.8006356506987508
 10
0.565479378444833
 20
-0.787968392939218
 10
0.565479378444833
 20
-0.7592234618695072
 10
0.5664537828878779
 20
-0.755975447059368
 10
0.5672657865904101
 20
-0.751428226325177
 10
0.5750610221347379
 20
-0.7437953915213549
 97
        0
 92
        7
 72
     0
 73
     1
 93
       12
 10
0.8327909973191099
 20
-0.6999471915845071
 10
0.789592400344281
 20
-0.6999471915845071
 10
0.789592400344281
 20
-0.6651934331160411
 10
0.7413593804137491
 20
-0.6651934331160411
 10
0.7413593804137491
 20
-0.6999471915845071
 10
0.698160783438931
 20
-0.6999471915845071
 10
0.698160783438931
 20
-0.740060174489698
 10
0.7413593804137491
 20
-0.740060174489698
 10
0.7413593804137491
 20
-0.845295854338134
 10
0.789592400344281
 20
-0.845295854338134
 10
0.789592400344281
 20
-0.740060174489698
 10
0.8327909973191099
 20
-0.740060174489698
 97
        0
 92
        7
 72
     0
 73
     1
 93
       31
 10
1.016303834091849
 20
-0.7148880597111359
 10
1.007371793363959
 20
-0.707092824166808
 10
0.9956789400474709
 20
-0.70238320269211
 10
0.981387674882869
 20
-0.700921596027548
 10
0.8914176646420749
 20
-0.700921596027548
 10
0.883622429097746
 20
-0.7012463975085622
 10
0.8681943587495998
 20
-0.704819213799712
 10
0.8638095387559108
 20
-0.7066056219452881
 10
0.8524414869204351
 20
-0.7144008574896161
 10
0.845620655819145
 20
-0.7246321041415469
 10
0.8433470454520508
 20
-0.7374617626415891
 10
0.8433470454520508
 20
-0.807943684021558
 10
0.8457830565596518
 20
-0.8206109417810941
 10
0.850492678034351
 20
-0.829380581768463
 10
0.859587119502736
 20
-0.8386374239773529
 10
0.8716047743002398
 20
-0.844321449895092
 10
0.8867080431673759
 20
-0.8461078580406679
 10
0.9791140645157749
 20
-0.8461078580406679
 10
0.994054932642404
 20
-0.8436718469330649
 10
1.008021396325989
 20
-0.8386374239773529
 10
1.017927841496909
 20
-0.8314917913950509
 10
1.023936668895669
 20
-0.8220725484456549
 10
1.026047878522249
 20
-0.810542095869669
 10
1.020526253345019
 20
-0.8051828714329431
 10
0.9157777757181101
 20
-0.8051828714329431
 10
0.9008369075914741
 20
-0.802584459584834
 10
0.8945032787117048
 20
-0.7954388270025321
 10
1.020526253345019
 20
-0.7954388270025321
 10
1.026047878522249
 20
-0.791054007008847
 10
1.026047878522249
 20
-0.7405705768170041
 10
1.022475062231099
 20
-0.725768909325096
 97
        0
 92
       23
 72
     0
 73
     1
 93
        6
 10
0.956702762325831
 20
-0.741846582635273
 10
0.9688828178638448
 20
-0.745256998185917
 10
0.9739172408195509
 20
-0.7525650315087251
 10
0.8951528816737328
 20
-0.7525650315087251
 10
0.8977512935218442
 20
-0.7467186048504791
 10
0.909768948319348
 20
-0.741846582635273
 97
        0
 75
     1
 76
     1
 52
0.0
 41
0.004763286
 77
     0
 78
     1
 53
45.0
 43
-1.82635398809821
 44
-2.103436782919979
 45
-0.0004210189789164
 46
0.0004210189789164
 79
     0
 47
0.0
 98
        1
 10
0.0
 20
0.0
1001
GradientColor1ACI
1070
     5
1001
GradientColor2ACI
1070
     2
1001
ACAD
1010
0.0
1020
0.0
1030
0.0
  0
LINE
  5
E19
330
D97
100
AcDbEntity
  8
TITLEBLOCK
 62
   154
370
     0
100
AcDbLine
 10
-1.01906464668046
 20
-0.704494412318698
 30
0.0
 11
-1.01906464668046
 21
-0.8417230380469828
 31
0.0
  0
LINE
  5
E1A
330
D97
100
AcDbEntity
  8
TITLEBLOCK
 62
   154
370
     0
100
AcDbLine
 10
-1.01906464668046
 20
-0.8417230380469828
 30
0.0
 11
-1.013543021503219
 21
-0.8461078580406679
 31
0.0
  0
LINE
  5
E1B
330
D97
100
AcDbEntity
  8
TITLEBLOCK
 62
   154
370
     0
100
AcDbLine
 10
-1.013543021503219
 20
-0.8461078580406679
 30
0.0
 11
-0.9721308326739769
 21
-0.8461078580406679
 31
0.0
  0
LINE
  5
E1C
330
D97
100
AcDbEntity
  8
TITLEBLOCK
 62
   154
370
     0
100
AcDbLine
 10
-0.9721308326739769
 20
-0.8461078580406679
 30
0.0
 11
-0.9667716082372571
 21
-0.8417230380469828
 31
0.0
  0
LINE
  5
E1D
330
D97
100
AcDbEntity
  8
TITLEBLOCK
 62
   154
370
     0
100
AcDbLine
 10
-0.9667716082372571
 20
-0.8417230380469828
 30
0.0
 11
-0.9667716082372571
 21
-0.8110292980911889
 31
0.0
  0
LINE
  5
E1E
330
D97
100
AcDbEntity
  8
TITLEBLOCK
 62
   154
370
     0
100
AcDbLine
 10
-0.9667716082372571
 20
-0.8110292980911889
 30
0.0
 11
-0.890118458718023
 21
-0.8110292980911889
 31
0.0
  0
LINE
  5
E1F
330
D97
100
AcDbEntity
  8
TITLEBLOCK
 62
   154
370
     0
100
AcDbLine
 10
-0.9656348030537049
 20
-0.770104311483463
 30
0.0
 11
-0.9656348030537049
 21
-0.7210592878503962
 31
0.0
  0
LINE
  5
E20
330
D97
100
AcDbEntity
  8
TITLEBLOCK
 62
   154
370
     0
100
AcDbLine
 10
-0.9656348030537049
 20
-0.7210592878503962
 30
0.0
 11
-0.9653100015726941
 21
-0.7176488722997521
 31
0.0
  0
LINE
  5
E21
330
D97
100
AcDbEntity
  8
TITLEBLOCK
 62
   154
370
     0
100
AcDbLine
 10
-0.9653100015726941
 20
-0.7176488722997521
 30
0.0
 11
-0.9581643689903939
 21
-0.7095288352744102
 31
0.0
  0
LINE
  5
E22
330
D97
100
AcDbEntity
  8
TITLEBLOCK
 62
   154
370
     0
100
AcDbLine
 10
-0.9581643689903939
 20
-0.7095288352744102
 30
0.0
 11
-0.9422490964207192
 21
-0.7069304234263009
 31
0.0
  0
LINE
  5
E23
330
D97
100
AcDbEntity
  8
TITLEBLOCK
 62
   154
370
     0
100
AcDbLine
 10
-0.9422490964207192
 20
-0.7069304234263009
 30
0.0
 11
-0.9133417646105021
 21
-0.7069304234263009
 31
0.0
  0
LINE
  5
E24
330
D97
100
AcDbEntity
  8
TITLEBLOCK
 62
   154
370
     0
100
AcDbLine
 10
-0.8832976276167389
 20
-0.6651934331160411
 30
0.0
 11
-0.9794388659967919
 21
-0.6651934331160411
 31
0.0
  0
LINE
  5
E25
330
D97
100
AcDbEntity
  8
TITLEBLOCK
 62
   154
370
     0
100
AcDbLine
 10
-0.9794388659967919
 20
-0.6651934331160411
 30
0.0
 11
-0.9890205096866909
 21
-0.6674670434831372
 31
0.0
  0
LINE
  5
E26
330
D97
100
AcDbEntity
  8
TITLEBLOCK
 62
   154
370
     0
100
AcDbLine
 10
-0.9890205096866909
 20
-0.6674670434831372
 30
0.0
 11
-1.002174969667749
 21
-0.673313470141383
 31
0.0
  0
LINE
  5
E27
330
D97
100
AcDbEntity
  8
TITLEBLOCK
 62
   154
370
     0
100
AcDbLine
 10
-1.002174969667749
 20
-0.673313470141383
 30
0.0
 11
-1.01143181187664
 21
-0.6814335071667262
 31
0.0
  0
LINE
  5
E28
330
D97
100
AcDbEntity
  8
TITLEBLOCK
 62
   154
370
     0
100
AcDbLine
 10
-1.01143181187664
 20
-0.6814335071667262
 30
0.0
 11
-1.01711583779438
 21
-0.6918271545591639
 31
0.0
  0
LINE
  5
E29
330
D97
100
AcDbEntity
  8
TITLEBLOCK
 62
   154
370
     0
100
AcDbLine
 10
-1.01711583779438
 20
-0.6918271545591639
 30
0.0
 11
-1.01906464668046
 21
-0.704494412318698
 31
0.0
  0
LINE
  5
E2A
330
D97
100
AcDbEntity
  8
TITLEBLOCK
 62
   154
370
     0
100
AcDbLine
 10
-0.9133417646105021
 20
-0.7069304234263009
 30
0.0
 11
-0.9079825401737778
 21
-0.707092824166808
 31
0.0
  0
LINE
  5
E2B
330
D97
100
AcDbEntity
  8
TITLEBLOCK
 62
   154
370
     0
100
AcDbLine
 10
-0.9079825401737778
 20
-0.707092824166808
 30
0.0
 11
-0.894503278711708
 21
-0.7113152434199859
 31
0.0
  0
LINE
  5
E2C
330
D97
100
AcDbEntity
  8
TITLEBLOCK
 62
   154
370
     0
100
AcDbLine
 10
-0.894503278711708
 20
-0.7113152434199859
 30
0.0
 11
-0.890118458718023
 21
-0.7210592878503962
 31
0.0
  0
LINE
  5
E2D
330
D97
100
AcDbEntity
  8
TITLEBLOCK
 62
   154
370
     0
100
AcDbLine
 10
-0.890118458718023
 20
-0.7210592878503962
 30
0.0
 11
-0.890118458718023
 21
-0.770104311483463
 31
0.0
  0
LINE
  5
E2E
330
D97
100
AcDbEntity
  8
TITLEBLOCK
 62
   154
370
     0
100
AcDbLine
 10
-0.890118458718023
 20
-0.770104311483463
 30
0.0
 11
-0.9656348030537049
 21
-0.770104311483463
 31
0.0
  0
LINE
  5
E2F
330
D97
100
AcDbEntity
  8
TITLEBLOCK
 62
   154
370
     0
100
AcDbLine
 10
-0.890118458718023
 20
-0.8110292980911889
 30
0.0
 11
-0.890118458718023
 21
-0.8417230380469828
 31
0.0
  0
LINE
  5
E30
330
D97
100
AcDbEntity
  8
TITLEBLOCK
 62
   154
370
     0
100
AcDbLine
 10
-0.890118458718023
 20
-0.8417230380469828
 30
0.0
 11
-0.8847592342812991
 21
-0.8461078580406679
 31
0.0
  0
LINE
  5
E31
330
D97
100
AcDbEntity
  8
TITLEBLOCK
 62
   154
370
     0
100
AcDbLine
 10
-0.8847592342812991
 20
-0.8461078580406679
 30
0.0
 11
-0.8420478395279939
 21
-0.8461078580406679
 31
0.0
  0
LINE
  5
E32
330
D97
100
AcDbEntity
  8
TITLEBLOCK
 62
   154
370
     0
100
AcDbLine
 10
-0.8420478395279939
 20
-0.8461078580406679
 30
0.0
 11
-0.8366886150912709
 21
-0.8417230380469828
 31
0.0
  0
LINE
  5
E33
330
D97
100
AcDbEntity
  8
TITLEBLOCK
 62
   154
370
     0
100
AcDbLine
 10
-0.8366886150912709
 20
-0.8417230380469828
 30
0.0
 11
-0.8366886150912709
 21
-0.70075919528704
 31
0.0
  0
LINE
  5
E34
330
D97
100
AcDbEntity
  8
TITLEBLOCK
 62
   154
370
     0
100
AcDbLine
 10
-0.8366886150912709
 20
-0.70075919528704
 30
0.0
 11
-0.838150221755834
 21
-0.6906903493756161
 31
0.0
  0
LINE
  5
E35
330
D97
100
AcDbEntity
  8
TITLEBLOCK
 62
   154
370
     0
100
AcDbLine
 10
-0.838150221755834
 20
-0.6906903493756161
 30
0.0
 11
-0.8435094461925579
 21
-0.6809463049452051
 31
0.0
  0
LINE
  5
E36
330
D97
100
AcDbEntity
  8
TITLEBLOCK
 62
   154
370
     0
100
AcDbLine
 10
-0.8435094461925579
 20
-0.6809463049452051
 30
0.0
 11
-0.852766288401453
 21
-0.673313470141383
 31
0.0
  0
LINE
  5
E37
330
D97
100
AcDbEntity
  8
TITLEBLOCK
 62
   154
370
     0
100
AcDbLine
 10
-0.852766288401453
 20
-0.673313470141383
 30
0.0
 11
-0.8660831491230121
 21
-0.6681166464451652
 31
0.0
  0
LINE
  5
E38
330
D97
100
AcDbEntity
  8
TITLEBLOCK
 62
   154
370
     0
100
AcDbLine
 10
-0.8660831491230121
 20
-0.6681166464451652
 30
0.0
 11
-0.8832976276167389
 21
-0.6651934331160411
 31
0.0
  0
LINE
  5
E39
330
D97
100
AcDbEntity
  8
TITLEBLOCK
 62
   154
370
     0
100
AcDbLine
 10
-0.8285685780659319
 20
-0.739248170787163
 30
0.0
 11
-0.8285685780659319
 21
-0.8090804892051071
 31
0.0
  0
LINE
  5
E3A
330
D97
100
AcDbEntity
  8
TITLEBLOCK
 62
   154
370
     0
100
AcDbLine
 10
-0.7601978663125501
 20
-0.8048580699519289
 30
0.0
 11
-0.770591513704991
 21
-0.802259658103819
 31
0.0
  0
LINE
  5
E3B
330
D97
100
AcDbEntity
  8
TITLEBLOCK
 62
   154
370
     0
100
AcDbLine
 10
-0.770591513704991
 20
-0.802259658103819
 30
0.0
 11
-0.7769251425847501
 21
-0.79137880848986
 31
0.0
  0
LINE
  5
E3C
330
D97
100
AcDbEntity
  8
TITLEBLOCK
 62
   154
370
     0
100
AcDbLine
 10
-0.7769251425847501
 20
-0.79137880848986
 30
0.0
 11
-0.7769251425847501
 21
-0.755001042616327
 31
0.0
  0
LINE
  5
E3D
330
D97
100
AcDbEntity
  8
TITLEBLOCK
 62
   154
370
     0
100
AcDbLine
 10
-0.7769251425847501
 20
-0.755001042616327
 30
0.0
 11
-0.775788337401208
 21
-0.7538642374327792
 31
0.0
  0
LINE
  5
E3E
330
D97
100
AcDbEntity
  8
TITLEBLOCK
 62
   154
370
     0
100
AcDbLine
 10
-0.775788337401208
 20
-0.7538642374327792
 30
0.0
 11
-0.7743267307366411
 21
-0.7486674137365601
 31
0.0
  0
LINE
  5
E3F
330
D97
100
AcDbEntity
  8
TITLEBLOCK
 62
   154
370
     0
100
AcDbLine
 10
-0.7743267307366411
 20
-0.7486674137365601
 30
0.0
 11
-0.7647450870467391
 21
-0.7426585863378059
 31
0.0
  0
LINE
  5
E40
330
D97
100
AcDbEntity
  8
TITLEBLOCK
 62
   154
370
     0
100
AcDbLine
 10
-0.7647450870467391
 20
-0.7426585863378059
 30
0.0
 11
-0.7462314026289592
 21
-0.7407097774517241
 31
0.0
  0
LINE
  5
E41
330
D97
100
AcDbEntity
  8
TITLEBLOCK
 62
   154
370
     0
100
AcDbLine
 10
-0.7462314026289592
 20
-0.7407097774517241
 30
0.0
 11
-0.6968615775148751
 21
-0.7407097774517241
 31
0.0
  0
LINE
  5
E42
330
D97
100
AcDbEntity
  8
TITLEBLOCK
 62
   154
370
     0
100
AcDbLine
 10
-0.650577366470424
 20
-0.6658430360780681
 30
0.0
 11
-0.6915023530781479
 21
-0.6658430360780681
 31
0.0
  0
LINE
  5
E43
330
D97
100
AcDbEntity
  8
TITLEBLOCK
 62
   154
370
     0
100
AcDbLine
 10
-0.6915023530781479
 20
-0.6658430360780681
 30
0.0
 11
-0.6968615775148751
 21
-0.6700654553312471
 31
0.0
  0
LINE
  5
E44
330
D97
100
AcDbEntity
  8
TITLEBLOCK
 62
   154
370
     0
100
AcDbLine
 10
-0.6968615775148751
 20
-0.6700654553312471
 30
0.0
 11
-0.6968615775148751
 21
-0.701246397508561
 31
0.0
  0
LINE
  5
E45
330
D97
100
AcDbEntity
  8
TITLEBLOCK
 62
   154
370
     0
100
AcDbLine
 10
-0.6968615775148751
 20
-0.701246397508561
 30
0.0
 11
-0.792190812192393
 21
-0.701246397508561
 31
0.0
  0
LINE
  5
E46
330
D97
100
AcDbEntity
  8
TITLEBLOCK
 62
   154
370
     0
100
AcDbLine
 10
-0.792190812192393
 20
-0.701246397508561
 30
0.0
 11
-0.797062834407603
 21
-0.702545603432616
 31
0.0
  0
LINE
  5
E47
330
D97
100
AcDbEntity
  8
TITLEBLOCK
 62
   154
370
     0
100
AcDbLine
 10
-0.797062834407603
 20
-0.702545603432616
 30
0.0
 11
-0.81086689735068
 21
-0.708229629350355
 31
0.0
  0
LINE
  5
E48
330
D97
100
AcDbEntity
  8
TITLEBLOCK
 62
   154
370
     0
100
AcDbLine
 10
-0.81086689735068
 20
-0.708229629350355
 30
0.0
 11
-0.8207733425216028
 21
-0.716349666375698
 31
0.0
  0
LINE
  5
E49
330
D97
100
AcDbEntity
  8
TITLEBLOCK
 62
   154
370
     0
100
AcDbLine
 10
-0.8207733425216028
 20
-0.716349666375698
 30
0.0
 11
-0.8266197691798479
 21
-0.726580913027629
 31
0.0
  0
LINE
  5
E4A
330
D97
100
AcDbEntity
  8
TITLEBLOCK
 62
   154
370
     0
100
AcDbLine
 10
-0.8266197691798479
 20
-0.726580913027629
 30
0.0
 11
-0.8285685780659319
 21
-0.739248170787163
 31
0.0
  0
LINE
  5
E4B
330
D97
100
AcDbEntity
  8
TITLEBLOCK
 62
   154
370
     0
100
AcDbLine
 10
-0.6968615775148751
 20
-0.7407097774517241
 30
0.0
 11
-0.6968615775148751
 21
-0.8048580699519289
 31
0.0
  0
LINE
  5
E4C
330
D97
100
AcDbEntity
  8
TITLEBLOCK
 62
   154
370
     0
100
AcDbLine
 10
-0.6968615775148751
 20
-0.8048580699519289
 30
0.0
 11
-0.7601978663125501
 21
-0.8048580699519289
 31
0.0
  0
LINE
  5
E4D
330
D97
100
AcDbEntity
  8
TITLEBLOCK
 62
   154
370
     0
100
AcDbLine
 10
-0.8285685780659319
 20
-0.8090804892051071
 30
0.0
 11
-0.8284061773254208
 21
-0.8131405077177779
 31
0.0
  0
LINE
  5
E4E
330
D97
100
AcDbEntity
  8
TITLEBLOCK
 62
   154
370
     0
100
AcDbLine
 10
-0.8284061773254208
 20
-0.8131405077177779
 30
0.0
 11
-0.824670960293764
 21
-0.825158162515285
 31
0.0
  0
LINE
  5
E4F
330
D97
100
AcDbEntity
  8
TITLEBLOCK
 62
   154
370
     0
100
AcDbLine
 10
-0.824670960293764
 20
-0.825158162515285
 30
0.0
 11
-0.821260544743124
 21
-0.8298677839899829
 31
0.0
  0
LINE
  5
E50
330
D97
100
AcDbEntity
  8
TITLEBLOCK
 62
   154
370
     0
100
AcDbLine
 10
-0.821260544743124
 20
-0.8298677839899829
 30
0.0
 11
-0.81086689735068
 21
-0.838962225458366
 31
0.0
  0
LINE
  5
E51
330
D97
100
AcDbEntity
  8
TITLEBLOCK
 62
   154
370
     0
100
AcDbLine
 10
-0.81086689735068
 20
-0.838962225458366
 30
0.0
 11
-0.797874838110138
 21
-0.844321449895092
 31
0.0
  0
LINE
  5
E52
330
D97
100
AcDbEntity
  8
TITLEBLOCK
 62
   154
370
     0
100
AcDbLine
 10
-0.797874838110138
 20
-0.844321449895092
 30
0.0
 11
-0.7822843670214771
 21
-0.8461078580406679
 31
0.0
  0
LINE
  5
E53
330
D97
100
AcDbEntity
  8
TITLEBLOCK
 62
   154
370
     0
100
AcDbLine
 10
-0.7822843670214771
 20
-0.8461078580406679
 30
0.0
 11
-0.6507397672109311
 21
-0.8461078580406679
 31
0.0
  0
LINE
  5
E54
330
D97
100
AcDbEntity
  8
TITLEBLOCK
 62
   154
370
     0
100
AcDbLine
 10
-0.6507397672109311
 20
-0.8461078580406679
 30
0.0
 11
-0.6453805427742071
 21
-0.8417230380469828
 31
0.0
  0
LINE
  5
E55
330
D97
100
AcDbEntity
  8
TITLEBLOCK
 62
   154
370
     0
100
AcDbLine
 10
-0.6453805427742071
 20
-0.8417230380469828
 30
0.0
 11
-0.6453805427742071
 21
-0.6702278560717541
 31
0.0
  0
LINE
  5
E56
330
D97
100
AcDbEntity
  8
TITLEBLOCK
 62
   154
370
     0
100
AcDbLine
 10
-0.6453805427742071
 20
-0.6702278560717541
 30
0.0
 11
-0.650577366470424
 21
-0.6658430360780681
 31
0.0
  0
LINE
  5
E57
330
D97
100
AcDbEntity
  8
TITLEBLOCK
 62
   154
370
     0
100
AcDbLine
 10
-0.635636498343798
 20
-0.7360001559770259
 30
0.0
 11
-0.635636498343798
 21
-0.809567691426627
 31
0.0
  0
LINE
  5
E58
330
D97
100
AcDbEntity
  8
TITLEBLOCK
 62
   154
370
     0
100
AcDbLine
 10
-0.572300209546126
 20
-0.805020470692435
 30
0.0
 11
-0.572787411767647
 21
-0.8048580699519289
 31
0.0
  0
LINE
  5
E59
330
D97
100
AcDbEntity
  8
TITLEBLOCK
 62
   154
370
     0
100
AcDbLine
 10
-0.572787411767647
 20
-0.8048580699519289
 30
0.0
 11
-0.5838306621221129
 21
-0.8006356506987508
 31
0.0
  0
LINE
  5
E5A
330
D97
100
AcDbEntity
  8
TITLEBLOCK
 62
   154
370
     0
100
AcDbLine
 10
-0.5838306621221129
 20
-0.8006356506987508
 30
0.0
 11
-0.587403478413263
 21
-0.7879683929392171
 31
0.0
  0
LINE
  5
E5B
330
D97
100
AcDbEntity
  8
TITLEBLOCK
 62
   154
370
     0
100
AcDbLine
 10
-0.587403478413263
 20
-0.7879683929392171
 30
0.0
 11
-0.587403478413263
 21
-0.7592234618695051
 31
0.0
  0
LINE
  5
E5C
330
D97
100
AcDbEntity
  8
TITLEBLOCK
 62
   154
370
     0
100
AcDbLine
 10
-0.587403478413263
 20
-0.7592234618695051
 30
0.0
 11
-0.5864290739702211
 21
-0.755975447059368
 31
0.0
  0
LINE
  5
E5D
330
D97
100
AcDbEntity
  8
TITLEBLOCK
 62
   154
370
     0
100
AcDbLine
 10
-0.5864290739702211
 20
-0.755975447059368
 30
0.0
 11
-0.585617070267689
 21
-0.751428226325177
 31
0.0
  0
LINE
  5
E5E
330
D97
100
AcDbEntity
  8
TITLEBLOCK
 62
   154
370
     0
100
AcDbLine
 10
-0.585617070267689
 20
-0.751428226325177
 30
0.0
 11
-0.5778218347233571
 21
-0.7437953915213549
 31
0.0
  0
LINE
  5
E5F
330
D97
100
AcDbEntity
  8
TITLEBLOCK
 62
   154
370
     0
100
AcDbLine
 10
-0.5778218347233571
 20
-0.7437953915213549
 30
0.0
 11
-0.5615817606726751
 21
-0.7413593804137521
 31
0.0
  0
LINE
  5
E60
330
D97
100
AcDbEntity
  8
TITLEBLOCK
 62
   154
370
     0
100
AcDbLine
 10
-0.5615817606726751
 20
-0.7413593804137521
 30
0.0
 11
-0.537871252558675
 21
-0.7413593804137521
 31
0.0
  0
LINE
  5
E61
330
D97
100
AcDbEntity
  8
TITLEBLOCK
 62
   154
370
     0
100
AcDbLine
 10
-0.508801520007952
 20
-0.700109592325013
 30
0.0
 11
-0.5917882984069449
 21
-0.700109592325013
 31
0.0
  0
LINE
  5
E62
330
D97
100
AcDbEntity
  8
TITLEBLOCK
 62
   154
370
     0
100
AcDbLine
 10
-0.5917882984069449
 20
-0.700109592325013
 30
0.0
 11
-0.604130754685469
 21
-0.702058401211095
 31
0.0
  0
LINE
  5
E63
330
D97
100
AcDbEntity
  8
TITLEBLOCK
 62
   154
370
     0
100
AcDbLine
 10
-0.604130754685469
 20
-0.702058401211095
 30
0.0
 11
-0.617934817628553
 21
-0.7069304234263009
 31
0.0
  0
LINE
  5
E64
330
D97
100
AcDbEntity
  8
TITLEBLOCK
 62
   154
370
     0
100
AcDbLine
 10
-0.617934817628553
 20
-0.7069304234263009
 30
0.0
 11
-0.6278412627994661
 21
-0.7142384567491078
 31
0.0
  0
LINE
  5
E65
330
D97
100
AcDbEntity
  8
TITLEBLOCK
 62
   154
370
     0
100
AcDbLine
 10
-0.6278412627994661
 20
-0.7142384567491078
 30
0.0
 11
-0.6336876894577181
 21
-0.7239825011795191
 31
0.0
  0
LINE
  5
E66
330
D97
100
AcDbEntity
  8
TITLEBLOCK
 62
   154
370
     0
100
AcDbLine
 10
-0.6336876894577181
 20
-0.7239825011795191
 30
0.0
 11
-0.635636498343798
 21
-0.7360001559770259
 31
0.0
  0
LINE
  5
E67
330
D97
100
AcDbEntity
  8
TITLEBLOCK
 62
   154
370
     0
100
AcDbLine
 10
-0.537871252558675
 20
-0.7413593804137521
 30
0.0
 11
-0.5291016125713011
 21
-0.7420089833757792
 31
0.0
  0
LINE
  5
E68
330
D97
100
AcDbEntity
  8
TITLEBLOCK
 62
   154
370
     0
100
AcDbLine
 10
-0.5291016125713011
 20
-0.7420089833757792
 30
0.0
 11
-0.517733560735826
 21
-0.747368207812505
 31
0.0
  0
LINE
  5
E69
330
D97
100
AcDbEntity
  8
TITLEBLOCK
 62
   154
370
     0
100
AcDbLine
 10
-0.517733560735826
 20
-0.747368207812505
 30
0.0
 11
-0.5139983437041681
 21
-0.7582490574264642
 31
0.0
  0
LINE
  5
E6A
330
D97
100
AcDbEntity
  8
TITLEBLOCK
 62
   154
370
     0
100
AcDbLine
 10
-0.5139983437041681
 20
-0.7582490574264642
 30
0.0
 11
-0.5139983437041681
 21
-0.805020470692435
 31
0.0
  0
LINE
  5
E6B
330
D97
100
AcDbEntity
  8
TITLEBLOCK
 62
   154
370
     0
100
AcDbLine
 10
-0.5139983437041681
 20
-0.805020470692435
 30
0.0
 11
-0.572300209546126
 21
-0.805020470692435
 31
0.0
  0
LINE
  5
E6C
330
D97
100
AcDbEntity
  8
TITLEBLOCK
 62
   154
370
     0
100
AcDbLine
 10
-0.635636498343798
 20
-0.809567691426627
 30
0.0
 11
-0.6338500901982211
 21
-0.817687728451969
 31
0.0
  0
LINE
  5
E6D
330
D97
100
AcDbEntity
  8
TITLEBLOCK
 62
   154
370
     0
100
AcDbLine
 10
-0.6338500901982211
 20
-0.817687728451969
 30
0.0
 11
-0.628653266502001
 21
-0.8301925854709971
 31
0.0
  0
LINE
  5
E6E
330
D97
100
AcDbEntity
  8
TITLEBLOCK
 62
   154
370
     0
100
AcDbLine
 10
-0.628653266502001
 20
-0.8301925854709971
 30
0.0
 11
-0.6205332294766581
 21
-0.838962225458366
 31
0.0
  0
LINE
  5
E6F
330
D97
100
AcDbEntity
  8
TITLEBLOCK
 62
   154
370
     0
100
AcDbLine
 10
-0.6205332294766581
 20
-0.838962225458366
 30
0.0
 11
-0.6096523798627
 21
-0.844321449895092
 31
0.0
  0
LINE
  5
E70
330
D97
100
AcDbEntity
  8
TITLEBLOCK
 62
   154
370
     0
100
AcDbLine
 10
-0.6096523798627
 20
-0.844321449895092
 30
0.0
 11
-0.595848316919616
 21
-0.8461078580406679
 31
0.0
  0
LINE
  5
E71
330
D97
100
AcDbEntity
  8
TITLEBLOCK
 62
   154
370
     0
100
AcDbLine
 10
-0.595848316919616
 20
-0.846107858040667
 30
0.0
 11
-0.47112454821036
 21
-0.846107858040667
 31
0.0
  0
LINE
  5
E72
330
D97
100
AcDbEntity
  8
TITLEBLOCK
 62
   154
370
     0
100
AcDbLine
 10
-0.47112454821036
 20
-0.846107858040667
 30
0.0
 11
-0.4659277245141401
 21
-0.841723038046982
 31
0.0
  0
LINE
  5
E73
330
D97
100
AcDbEntity
  8
TITLEBLOCK
 62
   154
370
     0
100
AcDbLine
 10
-0.4659277245141401
 20
-0.8417230380469828
 30
0.0
 11
-0.4659277245141401
 21
-0.731128133761821
 31
0.0
  0
LINE
  5
E74
330
D97
100
AcDbEntity
  8
TITLEBLOCK
 62
   154
370
     0
100
AcDbLine
 10
-0.4659277245141401
 20
-0.731128133761821
 30
0.0
 11
-0.4669021289571861
 21
-0.728042519692191
 31
0.0
  0
LINE
  5
E75
330
D97
100
AcDbEntity
  8
TITLEBLOCK
 62
   154
370
     0
100
AcDbLine
 10
-0.4669021289571861
 20
-0.728042519692191
 30
0.0
 11
-0.473073357096441
 21
-0.715862464154177
 31
0.0
  0
LINE
  5
E76
330
D97
100
AcDbEntity
  8
TITLEBLOCK
 62
   154
370
     0
100
AcDbLine
 10
-0.473073357096441
 20
-0.715862464154177
 30
0.0
 11
-0.4821677985648291
 21
-0.707092824166808
 31
0.0
  0
LINE
  5
E77
330
D97
100
AcDbEntity
  8
TITLEBLOCK
 62
   154
370
     0
100
AcDbLine
 10
-0.4821677985648291
 20
-0.707092824166808
 30
0.0
 11
-0.494023052621826
 21
-0.701896000470589
 31
0.0
  0
LINE
  5
E78
330
D97
100
AcDbEntity
  8
TITLEBLOCK
 62
   154
370
     0
100
AcDbLine
 10
-0.494023052621826
 20
-0.701896000470589
 30
0.0
 11
-0.508801520007952
 21
-0.700109592325013
 31
0.0
  0
LINE
  5
E79
330
D97
100
AcDbEntity
  8
TITLEBLOCK
 62
   154
370
     0
100
AcDbLine
 10
-0.341041555064374
 20
-0.7421713841162859
 30
0.0
 11
-0.329673503228902
 21
-0.744932196704903
 31
0.0
  0
LINE
  5
E7A
330
D97
100
AcDbEntity
  8
TITLEBLOCK
 62
   154
370
     0
100
AcDbLine
 10
-0.329673503228902
 20
-0.744932196704903
 30
0.0
 11
-0.323177473608625
 21
-0.7556506455783541
 31
0.0
  0
LINE
  5
E7B
330
D97
100
AcDbEntity
  8
TITLEBLOCK
 62
   154
370
     0
100
AcDbLine
 10
-0.323177473608625
 20
-0.7556506455783541
 30
0.0
 11
-0.323177473608625
 21
-0.792840415154422
 31
0.0
  0
LINE
  5
E7C
330
D97
100
AcDbEntity
  8
TITLEBLOCK
 62
   154
370
     0
100
AcDbLine
 10
-0.323177473608625
 20
-0.7928404151544209
 30
0.0
 11
-0.323339874349133
 21
-0.7944644225594891
 31
0.0
  0
LINE
  5
E7D
330
D97
100
AcDbEntity
  8
TITLEBLOCK
 62
   154
370
     0
100
AcDbLine
 10
-0.323339874349133
 20
-0.7944644225594891
 30
0.0
 11
-0.329186301007377
 21
-0.803396463287366
 31
0.0
  0
LINE
  5
E7E
330
D97
100
AcDbEntity
  8
TITLEBLOCK
 62
   154
370
     0
100
AcDbLine
 10
-0.329186301007377
 20
-0.803396463287366
 30
0.0
 11
-0.344614371355528
 21
-0.8063196766164889
 31
0.0
  0
LINE
  5
E7F
330
D97
100
AcDbEntity
  8
TITLEBLOCK
 62
   154
370
     0
100
AcDbLine
 10
-0.344614371355528
 20
-0.8063196766164889
 30
0.0
 11
-0.4021042334949511
 21
-0.8063196766164889
 31
0.0
  0
LINE
  5
E80
330
D97
100
AcDbEntity
  8
TITLEBLOCK
 62
   154
370
     0
100
AcDbLine
 10
-0.271534038127447
 20
-0.8107044966101749
 30
0.0
 11
-0.271534038127447
 21
-0.7360001559770259
 31
0.0
  0
LINE
  5
E81
330
D97
100
AcDbEntity
  8
TITLEBLOCK
 62
   154
370
     0
100
AcDbLine
 10
-0.3200918595389961
 20
-0.700921596027548
 30
0.0
 11
-0.449525249722951
 21
-0.700921596027548
 31
0.0
  0
LINE
  5
E82
330
D97
100
AcDbEntity
  8
TITLEBLOCK
 62
   154
370
     0
100
AcDbLine
 10
-0.449525249722951
 20
-0.700921596027548
 30
0.0
 11
-0.4548844741596751
 21
-0.7049816145402192
 31
0.0
  0
LINE
  5
E83
330
D97
100
AcDbEntity
  8
TITLEBLOCK
 62
   154
370
     0
100
AcDbLine
 10
-0.4548844741596751
 20
-0.7049816145402192
 30
0.0
 11
-0.4548844741596751
 21
-0.8946656794522141
 31
0.0
  0
LINE
  5
E84
330
D97
100
AcDbEntity
  8
TITLEBLOCK
 62
   154
370
     0
100
AcDbLine
 10
-0.4548844741596751
 20
-0.8946656794522141
 30
0.0
 11
-0.449525249722951
 21
-0.8988880987053919
 31
0.0
  0
LINE
  5
E85
330
D97
100
AcDbEntity
  8
TITLEBLOCK
 62
   154
370
     0
100
AcDbLine
 10
-0.449525249722951
 20
-0.8988880987053919
 30
0.0
 11
-0.4087626638557311
 21
-0.8988880987053919
 31
0.0
  0
LINE
  5
E86
330
D97
100
AcDbEntity
  8
TITLEBLOCK
 62
   154
370
     0
100
AcDbLine
 10
-0.4087626638557311
 20
-0.8988880987053919
 30
0.0
 11
-0.403403439419003
 21
-0.8946656794522141
 31
0.0
  0
LINE
  5
E87
330
D97
100
AcDbEntity
  8
TITLEBLOCK
 62
   154
370
     0
100
AcDbLine
 10
-0.403403439419003
 20
-0.8946656794522141
 30
0.0
 11
-0.403403439419003
 21
-0.8467574610026941
 31
0.0
  0
LINE
  5
E88
330
D97
100
AcDbEntity
  8
TITLEBLOCK
 62
   154
370
     0
100
AcDbLine
 10
-0.403403439419003
 20
-0.8467574610026941
 30
0.0
 11
-0.316681443988353
 21
-0.8467574610026941
 31
0.0
  0
LINE
  5
E89
330
D97
100
AcDbEntity
  8
TITLEBLOCK
 62
   154
370
     0
100
AcDbLine
 10
-0.316681443988353
 20
-0.8467574610026941
 30
0.0
 11
-0.3049885906718599
 21
-0.845783056559653
 31
0.0
  0
LINE
  5
E8A
330
D97
100
AcDbEntity
  8
TITLEBLOCK
 62
   154
370
     0
100
AcDbLine
 10
-0.3049885906718599
 20
-0.845783056559653
 30
0.0
 11
-0.292321332912325
 21
-0.841723038046982
 31
0.0
  0
LINE
  5
E8B
330
D97
100
AcDbEntity
  8
TITLEBLOCK
 62
   154
370
     0
100
AcDbLine
 10
-0.292321332912325
 20
-0.841723038046982
 30
0.0
 11
-0.2825772884819149
 21
-0.834577405464681
 31
0.0
  0
LINE
  5
E8C
330
D97
100
AcDbEntity
  8
TITLEBLOCK
 62
   154
370
     0
100
AcDbLine
 10
-0.2825772884819149
 20
-0.834577405464681
 30
0.0
 11
-0.275594056640118
 21
-0.8241837580722428
 31
0.0
  0
LINE
  5
E8D
330
D97
100
AcDbEntity
  8
TITLEBLOCK
 62
   154
370
     0
100
AcDbLine
 10
-0.275594056640118
 20
-0.8241837580722428
 30
0.0
 11
-0.271534038127447
 21
-0.810704496610174
 31
0.0
  0
LINE
  5
E8E
330
D97
100
AcDbEntity
  8
TITLEBLOCK
 62
   154
370
     0
100
AcDbLine
 10
-0.4021042334949511
 20
-0.8063196766164899
 30
0.0
 11
-0.4021042334949511
 21
-0.7421713841162859
 31
0.0
  0
LINE
  5
E8F
330
D97
100
AcDbEntity
  8
TITLEBLOCK
 62
   154
370
     0
100
AcDbLine
 10
-0.4021042334949511
 20
-0.7421713841162859
 30
0.0
 11
-0.341041555064374
 21
-0.7421713841162859
 31
0.0
  0
LINE
  5
E90
330
D97
100
AcDbEntity
  8
TITLEBLOCK
 62
   154
370
     0
100
AcDbLine
 10
-0.271534038127447
 20
-0.7360001559770259
 30
0.0
 11
-0.274132449975559
 21
-0.7239825011795191
 31
0.0
  0
LINE
  5
E91
330
D97
100
AcDbEntity
  8
TITLEBLOCK
 62
   154
370
     0
100
AcDbLine
 10
-0.274132449975559
 20
-0.7239825011795191
 30
0.0
 11
-0.280303678114818
 21
-0.715537662673163
 31
0.0
  0
LINE
  5
E92
330
D97
100
AcDbEntity
  8
TITLEBLOCK
 62
   154
370
     0
100
AcDbLine
 10
-0.280303678114818
 20
-0.715537662673163
 30
0.0
 11
-0.290859726247758
 21
-0.707417625647821
 31
0.0
  0
LINE
  5
E93
330
D97
100
AcDbEntity
  8
TITLEBLOCK
 62
   154
370
     0
100
AcDbLine
 10
-0.290859726247758
 20
-0.707417625647821
 30
0.0
 11
-0.3041765869693211
 21
-0.702545603432616
 31
0.0
  0
LINE
  5
E94
330
D97
100
AcDbEntity
  8
TITLEBLOCK
 62
   154
370
     0
100
AcDbLine
 10
-0.3041765869693211
 20
-0.702545603432616
 30
0.0
 11
-0.3200918595389961
 21
-0.700921596027548
 31
0.0
  0
LINE
  5
E95
330
D97
100
AcDbEntity
  8
TITLEBLOCK
 62
   154
370
     0
100
AcDbLine
 10
-0.1684095679056
 20
-0.6651934331160411
 30
0.0
 11
-0.216642587836135
 21
-0.6651934331160411
 31
0.0
  0
LINE
  5
E96
330
D97
100
AcDbEntity
  8
TITLEBLOCK
 62
   154
370
     0
100
AcDbLine
 10
-0.216642587836135
 20
-0.6651934331160411
 30
0.0
 11
-0.216642587836135
 21
-0.699947191584506
 31
0.0
  0
LINE
  5
E97
330
D97
100
AcDbEntity
  8
TITLEBLOCK
 62
   154
370
     0
100
AcDbLine
 10
-0.216642587836135
 20
-0.699947191584506
 30
0.0
 11
-0.2598411848109539
 21
-0.699947191584506
 31
0.0
  0
LINE
  5
E98
330
D97
100
AcDbEntity
  8
TITLEBLOCK
 62
   154
370
     0
100
AcDbLine
 10
-0.2598411848109539
 20
-0.699947191584506
 30
0.0
 11
-0.2598411848109539
 21
-0.7400601744896971
 31
0.0
  0
LINE
  5
E99
330
D97
100
AcDbEntity
  8
TITLEBLOCK
 62
   154
370
     0
100
AcDbLine
 10
-0.2598411848109539
 20
-0.7400601744896971
 30
0.0
 11
-0.216642587836135
 21
-0.7400601744896971
 31
0.0
  0
LINE
  5
E9A
330
D97
100
AcDbEntity
  8
TITLEBLOCK
 62
   154
370
     0
100
AcDbLine
 10
-0.216642587836135
 20
-0.7400601744896971
 30
0.0
 11
-0.216642587836135
 21
-0.8452958543381329
 31
0.0
  0
LINE
  5
E9B
330
D97
100
AcDbEntity
  8
TITLEBLOCK
 62
   154
370
     0
100
AcDbLine
 10
-0.216642587836135
 20
-0.8452958543381321
 30
0.0
 11
-0.1684095679056
 21
-0.8452958543381321
 31
0.0
  0
LINE
  5
E9C
330
D97
100
AcDbEntity
  8
TITLEBLOCK
 62
   154
370
     0
100
AcDbLine
 10
-0.1684095679056
 20
-0.8452958543381329
 30
0.0
 11
-0.1684095679056
 21
-0.7400601744896971
 31
0.0
  0
LINE
  5
E9D
330
D97
100
AcDbEntity
  8
TITLEBLOCK
 62
   154
370
     0
100
AcDbLine
 10
-0.1684095679056
 20
-0.7400601744896971
 30
0.0
 11
-0.125210970930778
 21
-0.7400601744896971
 31
0.0
  0
LINE
  5
E9E
330
D97
100
AcDbEntity
  8
TITLEBLOCK
 62
   154
370
     0
100
AcDbLine
 10
-0.125210970930778
 20
-0.7400601744896971
 30
0.0
 11
-0.125210970930778
 21
-0.699947191584506
 31
0.0
  0
LINE
  5
E9F
330
D97
100
AcDbEntity
  8
TITLEBLOCK
 62
   154
370
     0
100
AcDbLine
 10
-0.125210970930778
 20
-0.699947191584506
 30
0.0
 11
-0.1684095679056
 21
-0.699947191584506
 31
0.0
  0
LINE
  5
EA0
330
D97
100
AcDbEntity
  8
TITLEBLOCK
 62
   154
370
     0
100
AcDbLine
 10
-0.1684095679056
 20
-0.699947191584506
 30
0.0
 11
-0.1684095679056
 21
-0.6651934331160411
 31
0.0
  0
LINE
  5
EA1
330
D97
100
AcDbEntity
  8
TITLEBLOCK
 62
   154
370
     0
100
AcDbLine
 10
-0.0012992059240577
 20
-0.741846582635273
 30
0.0
 11
0.0108808496139599
 21
-0.745256998185916
 31
0.0
  0
LINE
  5
EA2
330
D97
100
AcDbEntity
  8
TITLEBLOCK
 62
   154
370
     0
100
AcDbLine
 10
0.0108808496139599
 20
-0.745256998185916
 30
0.0
 11
0.0159152725696696
 21
-0.7525650315087242
 31
0.0
  0
LINE
  5
EA3
330
D97
100
AcDbEntity
  8
TITLEBLOCK
 62
   154
370
     0
100
AcDbLine
 10
0.0159152725696696
 20
-0.7525650315087242
 30
0.0
 11
-0.0630114873166594
 21
-0.7525650315087242
 31
0.0
  0
LINE
  5
EA4
330
D97
100
AcDbEntity
  8
TITLEBLOCK
 62
   154
370
     0
100
AcDbLine
 10
0.0678835095318622
 20
-0.791054007008847
 30
0.0
 11
0.0678835095318622
 21
-0.7402225752302042
 31
0.0
  0
LINE
  5
EA5
330
D97
100
AcDbEntity
  8
TITLEBLOCK
 62
   154
370
     0
100
AcDbLine
 10
0.0232233058924738
 20
-0.700921596027548
 30
0.0
 11
-0.0665843036078062
 21
-0.700921596027548
 31
0.0
  0
LINE
  5
EA6
330
D97
100
AcDbEntity
  8
TITLEBLOCK
 62
   154
370
     0
100
AcDbLine
 10
-0.0665843036078062
 20
-0.700921596027548
 30
0.0
 11
-0.0745419398926419
 21
-0.701246397508561
 31
0.0
  0
LINE
  5
EA7
330
D97
100
AcDbEntity
  8
TITLEBLOCK
 62
   154
370
     0
100
AcDbLine
 10
-0.0745419398926419
 20
-0.701246397508561
 30
0.0
 11
-0.0898076095002889
 21
-0.7048192137997109
 31
0.0
  0
LINE
  5
EA8
330
D97
100
AcDbEntity
  8
TITLEBLOCK
 62
   154
370
     0
100
AcDbLine
 10
-0.0898076095002889
 20
-0.7048192137997109
 30
0.0
 11
-0.0941924294939742
 21
-0.706605621945287
 31
0.0
  0
LINE
  5
EA9
330
D97
100
AcDbEntity
  8
TITLEBLOCK
 62
   154
370
     0
100
AcDbLine
 10
-0.0941924294939742
 20
-0.706605621945287
 30
0.0
 11
-0.10556048132945
 21
-0.7144008574896149
 31
0.0
  0
LINE
  5
EAA
330
D97
100
AcDbEntity
  8
TITLEBLOCK
 62
   154
370
     0
100
AcDbLine
 10
-0.10556048132945
 20
-0.7144008574896149
 30
0.0
 11
-0.11238131243074
 21
-0.7246321041415469
 31
0.0
  0
LINE
  5
EAB
330
D97
100
AcDbEntity
  8
TITLEBLOCK
 62
   154
370
     0
100
AcDbLine
 10
-0.11238131243074
 20
-0.7246321041415469
 30
0.0
 11
-0.114654922797831
 21
-0.7374617626415871
 31
0.0
  0
LINE
  5
EAC
330
D97
100
AcDbEntity
  8
TITLEBLOCK
 62
   154
370
     0
100
AcDbLine
 10
-0.114654922797831
 20
-0.7374617626415871
 30
0.0
 11
-0.114654922797831
 21
-0.807618882540545
 31
0.0
  0
LINE
  5
EAD
330
D97
100
AcDbEntity
  8
TITLEBLOCK
 62
   154
370
     0
100
AcDbLine
 10
-0.114654922797831
 20
-0.8076188825405441
 30
0.0
 11
-0.114654922797831
 21
-0.807943684021558
 31
0.0
  0
LINE
  5
EAE
330
D97
100
AcDbEntity
  8
TITLEBLOCK
 62
   154
370
     0
100
AcDbLine
 10
-0.114654922797831
 20
-0.807943684021558
 30
0.0
 11
-0.112218911690233
 21
-0.8206109417810919
 31
0.0
  0
LINE
  5
EAF
330
D97
100
AcDbEntity
  8
TITLEBLOCK
 62
   154
370
     0
100
AcDbLine
 10
-0.112218911690233
 20
-0.8206109417810919
 30
0.0
 11
-0.107509290215534
 21
-0.8293805817684621
 31
0.0
  0
LINE
  5
EB0
330
D97
100
AcDbEntity
  8
TITLEBLOCK
 62
   154
370
     0
100
AcDbLine
 10
-0.107509290215534
 20
-0.8293805817684621
 30
0.0
 11
-0.098414848747149
 21
-0.838637423977352
 31
0.0
  0
LINE
  5
EB1
330
D97
100
AcDbEntity
  8
TITLEBLOCK
 62
   154
370
     0
100
AcDbLine
 10
-0.098414848747149
 20
-0.838637423977352
 30
0.0
 11
-0.086397193949642
 21
-0.844321449895091
 31
0.0
  0
LINE
  5
EB2
330
D97
100
AcDbEntity
  8
TITLEBLOCK
 62
   154
370
     0
100
AcDbLine
 10
-0.086397193949642
 20
-0.844321449895091
 30
0.0
 11
-0.0712939250825091
 21
-0.846107858040667
 31
0.0
  0
LINE
  5
EB3
330
D97
100
AcDbEntity
  8
TITLEBLOCK
 62
   154
370
     0
100
AcDbLine
 10
-0.0712939250825091
 20
-0.8461078580406679
 30
0.0
 11
0.0211120962658864
 21
-0.8461078580406679
 31
0.0
  0
LINE
  5
EB4
330
D97
100
AcDbEntity
  8
TITLEBLOCK
 62
   154
370
     0
100
AcDbLine
 10
0.0211120962658864
 20
-0.8461078580406679
 30
0.0
 11
0.0360529643925194
 21
-0.8436718469330649
 31
0.0
  0
LINE
  5
EB5
330
D97
100
AcDbEntity
  8
TITLEBLOCK
 62
   154
370
     0
100
AcDbLine
 10
0.0360529643925194
 20
-0.8436718469330649
 30
0.0
 11
0.0500194280761139
 21
-0.8386374239773529
 31
0.0
  0
LINE
  5
EB6
330
D97
100
AcDbEntity
  8
TITLEBLOCK
 62
   154
370
     0
100
AcDbLine
 10
0.0500194280761139
 20
-0.8386374239773529
 30
0.0
 11
0.0599258732470265
 21
-0.8314917913950509
 31
0.0
  0
LINE
  5
EB7
330
D97
100
AcDbEntity
  8
TITLEBLOCK
 62
   154
370
     0
100
AcDbLine
 10
0.0599258732470265
 20
-0.8314917913950509
 30
0.0
 11
0.0659347006457782
 21
-0.822072548445654
 31
0.0
  0
LINE
  5
EB8
330
D97
100
AcDbEntity
  8
TITLEBLOCK
 62
   154
370
     0
100
AcDbLine
 10
0.0659347006457782
 20
-0.822072548445654
 30
0.0
 11
0.0678835095318622
 21
-0.810542095869669
 31
0.0
  0
LINE
  5
EB9
330
D97
100
AcDbEntity
  8
TITLEBLOCK
 62
   154
370
     0
100
AcDbLine
 10
0.0678835095318622
 20
-0.810542095869669
 30
0.0
 11
0.0623618843546279
 21
-0.8051828714329419
 31
0.0
  0
LINE
  5
EBA
330
D97
100
AcDbEntity
  8
TITLEBLOCK
 62
   154
370
     0
100
AcDbLine
 10
0.0623618843546279
 20
-0.8051828714329419
 30
0.0
 11
-0.0422241925317781
 21
-0.8051828714329419
 31
0.0
  0
LINE
  5
EBB
330
D97
100
AcDbEntity
  8
TITLEBLOCK
 62
   154
370
     0
100
AcDbLine
 10
-0.0422241925317781
 20
-0.8051828714329419
 30
0.0
 11
-0.0571650606584076
 21
-0.8025844595848321
 31
0.0
  0
LINE
  5
EBC
330
D97
100
AcDbEntity
  8
TITLEBLOCK
 62
   154
370
     0
100
AcDbLine
 10
-0.0571650606584076
 20
-0.8025844595848321
 30
0.0
 11
-0.0634986895381768
 21
-0.7954388270025309
 31
0.0
  0
LINE
  5
EBD
330
D97
100
AcDbEntity
  8
TITLEBLOCK
 62
   154
370
     0
100
AcDbLine
 10
-0.0634986895381768
 20
-0.7954388270025321
 30
0.0
 11
0.0623618843546279
 21
-0.7954388270025321
 31
0.0
  0
LINE
  5
EBE
330
D97
100
AcDbEntity
  8
TITLEBLOCK
 62
   154
370
     0
100
AcDbLine
 10
0.0623618843546279
 20
-0.7954388270025321
 30
0.0
 11
0.0678835095318622
 21
-0.791054007008847
 31
0.0
  0
LINE
  5
EBF
330
D97
100
AcDbEntity
  8
TITLEBLOCK
 62
   154
370
     0
100
AcDbLine
 10
-0.0630114873166594
 20
-0.7525650315087242
 30
0.0
 11
-0.0602506747280405
 21
-0.7467186048504781
 31
0.0
  0
LINE
  5
EC0
330
D97
100
AcDbEntity
  8
TITLEBLOCK
 62
   154
370
     0
100
AcDbLine
 10
-0.0602506747280405
 20
-0.7467186048504781
 30
0.0
 11
-0.0482330199305334
 21
-0.741846582635273
 31
0.0
  0
LINE
  5
EC1
330
D97
100
AcDbEntity
  8
TITLEBLOCK
 62
   154
370
     0
100
AcDbLine
 10
-0.0482330199305334
 20
-0.741846582635273
 30
0.0
 11
-0.0012992059240577
 21
-0.741846582635273
 31
0.0
  0
LINE
  5
EC2
330
D97
100
AcDbEntity
  8
TITLEBLOCK
 62
   154
370
     0
100
AcDbLine
 10
0.0678835095318622
 20
-0.7402225752302042
 30
0.0
 11
0.0678835095318622
 21
-0.7398977737491909
 31
0.0
  0
LINE
  5
EC3
330
D97
100
AcDbEntity
  8
TITLEBLOCK
 62
   154
370
     0
100
AcDbLine
 10
0.0678835095318622
 20
-0.7398977737491909
 30
0.0
 11
0.0644730939812117
 21
-0.725768909325095
 31
0.0
  0
LINE
  5
EC4
330
D97
100
AcDbEntity
  8
TITLEBLOCK
 62
   154
370
     0
100
AcDbLine
 10
0.0644730939812117
 20
-0.725768909325095
 30
0.0
 11
0.0583018658419601
 21
-0.7148880597111359
 31
0.0
  0
LINE
  5
EC5
330
D97
100
AcDbEntity
  8
TITLEBLOCK
 62
   154
370
     0
100
AcDbLine
 10
0.0583018658419601
 20
-0.7148880597111359
 30
0.0
 11
0.0493698251140824
 21
-0.707092824166808
 31
0.0
  0
LINE
  5
EC6
330
D97
100
AcDbEntity
  8
TITLEBLOCK
 62
   154
370
     0
100
AcDbLine
 10
0.0493698251140824
 20
-0.707092824166808
 30
0.0
 11
0.0376769717975893
 21
-0.7023832026921091
 31
0.0
  0
LINE
  5
EC7
330
D97
100
AcDbEntity
  8
TITLEBLOCK
 62
   154
370
     0
100
AcDbLine
 10
0.0376769717975893
 20
-0.7023832026921091
 30
0.0
 11
0.0232233058924738
 21
-0.700921596027548
 31
0.0
  0
LINE
  5
EC8
330
D97
100
AcDbEntity
  8
TITLEBLOCK
 62
   154
370
     0
100
AcDbLine
 10
0.169059170867625
 20
-0.702545603432616
 30
0.0
 11
0.085747590987614
 21
-0.702545603432616
 31
0.0
  0
LINE
  5
EC9
330
D97
100
AcDbEntity
  8
TITLEBLOCK
 62
   154
370
     0
100
AcDbLine
 10
0.085747590987614
 20
-0.702545603432616
 30
0.0
 11
0.0803883665508867
 21
-0.706605621945287
 31
0.0
  0
LINE
  5
ECA
330
D97
100
AcDbEntity
  8
TITLEBLOCK
 62
   154
370
     0
100
AcDbLine
 10
0.0803883665508867
 20
-0.706605621945287
 30
0.0
 11
0.0803883665508867
 21
-0.8417230380469828
 31
0.0
  0
LINE
  5
ECB
330
D97
100
AcDbEntity
  8
TITLEBLOCK
 62
   154
370
     0
100
AcDbLine
 10
0.0803883665508867
 20
-0.8417230380469828
 30
0.0
 11
0.085747590987614
 21
-0.8461078580406679
 31
0.0
  0
LINE
  5
ECC
330
D97
100
AcDbEntity
  8
TITLEBLOCK
 62
   154
370
     0
100
AcDbLine
 10
0.085747590987614
 20
-0.8461078580406679
 30
0.0
 11
0.1256981731523
 21
-0.8461078580406679
 31
0.0
  0
LINE
  5
ECD
330
D97
100
AcDbEntity
  8
TITLEBLOCK
 62
   154
370
     0
100
AcDbLine
 10
0.1256981731523
 20
-0.8461078580406679
 30
0.0
 11
0.131057397589023
 21
-0.8417230380469828
 31
0.0
  0
LINE
  5
ECE
330
D97
100
AcDbEntity
  8
TITLEBLOCK
 62
   154
370
     0
100
AcDbLine
 10
0.131057397589023
 20
-0.8417230380469828
 30
0.0
 11
0.131057397589023
 21
-0.758086656685957
 31
0.0
  0
LINE
  5
ECF
330
D97
100
AcDbEntity
  8
TITLEBLOCK
 62
   154
370
     0
100
AcDbLine
 10
0.131057397589023
 20
-0.758086656685957
 30
0.0
 11
0.136091820544733
 21
-0.747043406331491
 31
0.0
  0
LINE
  5
ED0
330
D97
100
AcDbEntity
  8
TITLEBLOCK
 62
   154
370
     0
100
AcDbLine
 10
0.136091820544733
 20
-0.747043406331491
 30
0.0
 11
0.148271876082747
 21
-0.7429833878188199
 31
0.0
  0
LINE
  5
ED1
330
D97
100
AcDbEntity
  8
TITLEBLOCK
 62
   154
370
     0
100
AcDbLine
 10
0.148271876082747
 20
-0.7429833878188199
 30
0.0
 11
0.168896770127118
 21
-0.7429833878188199
 31
0.0
  0
LINE
  5
ED2
330
D97
100
AcDbEntity
  8
TITLEBLOCK
 62
   154
370
     0
100
AcDbLine
 10
0.168896770127118
 20
-0.7429833878188199
 30
0.0
 11
0.174255994563849
 21
-0.738760968565643
 31
0.0
  0
LINE
  5
ED3
330
D97
100
AcDbEntity
  8
TITLEBLOCK
 62
   154
370
     0
100
AcDbLine
 10
0.174255994563849
 20
-0.738760968565643
 30
0.0
 11
0.174255994563849
 21
-0.7067680226857941
 31
0.0
  0
LINE
  5
ED4
330
D97
100
AcDbEntity
  8
TITLEBLOCK
 62
   154
370
     0
100
AcDbLine
 10
0.174255994563849
 20
-0.7067680226857941
 30
0.0
 11
0.169059170867625
 21
-0.702545603432616
 31
0.0
  0
LINE
  5
ED5
330
D97
100
AcDbEntity
  8
TITLEBLOCK
 62
   154
370
     0
100
AcDbLine
 10
0.3787185268619609
 20
-0.70595601898326
 30
0.0
 11
0.3879753690708571
 21
-0.708716831571876
 31
0.0
  0
LINE
  5
ED6
330
D97
100
AcDbEntity
  8
TITLEBLOCK
 62
   154
370
     0
100
AcDbLine
 10
0.3879753690708571
 20
-0.708716831571876
 30
0.0
 11
0.393984196469605
 21
-0.7202472841478622
 31
0.0
  0
LINE
  5
ED7
330
D97
100
AcDbEntity
  8
TITLEBLOCK
 62
   154
370
     0
100
AcDbLine
 10
0.393984196469605
 20
-0.7202472841478622
 30
0.0
 11
0.390248979437951
 21
-0.7293417256162451
 31
0.0
  0
LINE
  5
ED8
330
D97
100
AcDbEntity
  8
TITLEBLOCK
 62
   154
370
     0
100
AcDbLine
 10
0.390248979437951
 20
-0.7293417256162451
 30
0.0
 11
0.376282515754367
 21
-0.734213747831451
 31
0.0
  0
LINE
  5
ED9
330
D97
100
AcDbEntity
  8
TITLEBLOCK
 62
   154
370
     0
100
AcDbLine
 10
0.376282515754367
 20
-0.734213747831451
 30
0.0
 11
0.313920631399734
 21
-0.734213747831451
 31
0.0
  0
LINE
  5
EDA
330
D97
100
AcDbEntity
  8
TITLEBLOCK
 62
   154
370
     0
100
AcDbLine
 10
0.4435164223241961
 20
-0.7454193989264231
 30
0.0
 11
0.4451404297292691
 21
-0.731290534502327
 31
0.0
  0
LINE
  5
EDB
330
D97
100
AcDbEntity
  8
TITLEBLOCK
 62
   154
370
     0
100
AcDbLine
 10
0.4451404297292691
 20
-0.731290534502327
 30
0.0
 11
0.4451404297292691
 21
-0.711802445641506
 31
0.0
  0
LINE
  5
EDC
330
D97
100
AcDbEntity
  8
TITLEBLOCK
 62
   154
370
     0
100
AcDbLine
 10
0.4451404297292691
 20
-0.711802445641506
 30
0.0
 11
0.4451404297292691
 21
-0.7103408389769451
 31
0.0
  0
LINE
  5
EDD
330
D97
100
AcDbEntity
  8
TITLEBLOCK
 62
   154
370
     0
100
AcDbLine
 10
0.4451404297292691
 20
-0.7103408389769451
 30
0.0
 11
0.443841223805206
 21
-0.694912768628794
 31
0.0
  0
LINE
  5
EDE
330
D97
100
AcDbEntity
  8
TITLEBLOCK
 62
   154
370
     0
100
AcDbLine
 10
0.396095406096199
 20
-0.6651934331160411
 30
0.0
 11
0.2681236225768
 21
-0.6651934331160411
 31
0.0
  0
LINE
  5
EDF
330
D97
100
AcDbEntity
  8
TITLEBLOCK
 62
   154
370
     0
100
AcDbLine
 10
0.2681236225768
 20
-0.6651934331160411
 30
0.0
 11
0.262764398140076
 21
-0.669253451628713
 31
0.0
  0
LINE
  5
EE0
330
D97
100
AcDbEntity
  8
TITLEBLOCK
 62
   154
370
     0
100
AcDbLine
 10
0.262764398140076
 20
-0.669253451628713
 30
0.0
 11
0.262764398140076
 21
-0.8417230380469828
 31
0.0
  0
LINE
  5
EE1
330
D97
100
AcDbEntity
  8
TITLEBLOCK
 62
   154
370
     0
100
AcDbLine
 10
0.262764398140076
 20
-0.8417230380469828
 30
0.0
 11
0.2681236225768
 21
-0.8461078580406679
 31
0.0
  0
LINE
  5
EE2
330
D97
100
AcDbEntity
  8
TITLEBLOCK
 62
   154
370
     0
100
AcDbLine
 10
0.2681236225768
 20
-0.8461078580406679
 30
0.0
 11
0.30856140696301
 21
-0.8461078580406679
 31
0.0
  0
LINE
  5
EE3
330
D97
100
AcDbEntity
  8
TITLEBLOCK
 62
   154
370
     0
100
AcDbLine
 10
0.30856140696301
 20
-0.8461078580406679
 30
0.0
 11
0.313920631399734
 21
-0.8417230380469828
 31
0.0
  0
LINE
  5
EE4
330
D97
100
AcDbEntity
  8
TITLEBLOCK
 62
   154
370
     0
100
AcDbLine
 10
0.313920631399734
 20
-0.8417230380469828
 30
0.0
 11
0.313920631399734
 21
-0.828893379546942
 31
0.0
  0
LINE
  5
EE5
330
D97
100
AcDbEntity
  8
TITLEBLOCK
 62
   154
370
     0
100
AcDbLine
 10
0.313920631399734
 20
-0.828893379546942
 30
0.0
 11
0.313920631399734
 21
-0.828243776584914
 31
0.0
  0
LINE
  5
EE6
330
D97
100
AcDbEntity
  8
TITLEBLOCK
 62
   154
370
     0
100
AcDbLine
 10
0.313920631399734
 20
-0.828243776584914
 30
0.0
 11
0.314083032140237
 21
-0.8181749306734889
 31
0.0
  0
LINE
  5
EE7
330
D97
100
AcDbEntity
  8
TITLEBLOCK
 62
   154
370
     0
100
AcDbLine
 10
0.314083032140237
 20
-0.8181749306734889
 30
0.0
 11
0.314245432880744
 21
-0.805994875135477
 31
0.0
  0
LINE
  5
EE8
330
D97
100
AcDbEntity
  8
TITLEBLOCK
 62
   154
370
     0
100
AcDbLine
 10
0.314245432880744
 20
-0.805994875135477
 30
0.0
 11
0.314570234361762
 21
-0.792028411451888
 31
0.0
  0
LINE
  5
EE9
330
D97
100
AcDbEntity
  8
TITLEBLOCK
 62
   154
370
     0
100
AcDbLine
 10
0.314570234361762
 20
-0.792028411451888
 30
0.0
 11
0.315057436583279
 21
-0.7761131388822172
 31
0.0
  0
LINE
  5
EEA
330
D97
100
AcDbEntity
  8
TITLEBLOCK
 62
   154
370
     0
100
AcDbLine
 10
0.315057436583279
 20
-0.7761131388822172
 30
0.0
 11
0.410224270520294
 21
-0.7761131388822172
 31
0.0
  0
LINE
  5
EEB
330
D97
100
AcDbEntity
  8
TITLEBLOCK
 62
   154
370
     0
100
AcDbLine
 10
0.410224270520294
 20
-0.7761131388822172
 30
0.0
 11
0.420293116431713
 21
-0.77286512407208
 31
0.0
  0
LINE
  5
EEC
330
D97
100
AcDbEntity
  8
TITLEBLOCK
 62
   154
370
     0
100
AcDbLine
 10
0.420293116431713
 20
-0.77286512407208
 30
0.0
 11
0.431173966045675
 21
-0.766369094451806
 31
0.0
  0
LINE
  5
EED
330
D97
100
AcDbEntity
  8
TITLEBLOCK
 62
   154
370
     0
100
AcDbLine
 10
0.431173966045675
 20
-0.766369094451806
 30
0.0
 11
0.438969201590007
 21
-0.7571122522429159
 31
0.0
  0
LINE
  5
EEE
330
D97
100
AcDbEntity
  8
TITLEBLOCK
 62
   154
370
     0
100
AcDbLine
 10
0.438969201590007
 20
-0.7571122522429159
 30
0.0
 11
0.4435164223241961
 21
-0.7454193989264231
 31
0.0
  0
LINE
  5
EEF
330
D97
100
AcDbEntity
  8
TITLEBLOCK
 62
   154
370
     0
100
AcDbLine
 10
0.313920631399734
 20
-0.734213747831451
 30
0.0
 11
0.313920631399734
 21
-0.70595601898326
 31
0.0
  0
LINE
  5
EF0
330
D97
100
AcDbEntity
  8
TITLEBLOCK
 62
   154
370
     0
100
AcDbLine
 10
0.313920631399734
 20
-0.70595601898326
 30
0.0
 11
0.3787185268619609
 21
-0.70595601898326
 31
0.0
  0
LINE
  5
EF1
330
D97
100
AcDbEntity
  8
TITLEBLOCK
 62
   154
370
     0
100
AcDbLine
 10
0.443841223805206
 20
-0.694912768628794
 30
0.0
 11
0.4401060067735491
 21
-0.6858183271604111
 31
0.0
  0
LINE
  5
EF2
330
D97
100
AcDbEntity
  8
TITLEBLOCK
 62
   154
370
     0
100
AcDbLine
 10
0.4401060067735491
 20
-0.6858183271604111
 30
0.0
 11
0.435883587520374
 21
-0.680296701983178
 31
0.0
  0
LINE
  5
EF3
330
D97
100
AcDbEntity
  8
TITLEBLOCK
 62
   154
370
     0
100
AcDbLine
 10
0.435883587520374
 20
-0.680296701983178
 30
0.0
 11
0.4254899401279371
 21
-0.6718518634768222
 31
0.0
  0
LINE
  5
EF4
330
D97
100
AcDbEntity
  8
TITLEBLOCK
 62
   154
370
     0
100
AcDbLine
 10
0.4254899401279371
 20
-0.6718518634768222
 30
0.0
 11
0.412173079406374
 21
-0.666817440521109
 31
0.0
  0
LINE
  5
EF5
330
D97
100
AcDbEntity
  8
TITLEBLOCK
 62
   154
370
     0
100
AcDbLine
 10
0.412173079406374
 20
-0.666817440521109
 30
0.0
 11
0.396095406096199
 21
-0.6651934331160411
 31
0.0
  0
LINE
  5
EF6
330
D97
100
AcDbEntity
  8
TITLEBLOCK
 62
   154
370
     0
100
AcDbLine
 10
0.45926929415336
 20
-0.6651934331160411
 30
0.0
 11
0.499707078539567
 21
-0.6651934331160411
 31
0.0
  0
LINE
  5
EF7
330
D97
100
AcDbEntity
  8
TITLEBLOCK
 62
   154
370
     0
100
AcDbLine
 10
0.499707078539567
 20
-0.6651934331160411
 30
0.0
 11
0.5050663029762911
 21
-0.669415852369219
 31
0.0
  0
LINE
  5
EF8
330
D97
100
AcDbEntity
  8
TITLEBLOCK
 62
   154
370
     0
100
AcDbLine
 10
0.5050663029762911
 20
-0.669415852369219
 30
0.0
 11
0.5050663029762911
 21
-0.669415852369219
 31
0.0
  0
LINE
  5
EF9
330
D97
100
AcDbEntity
  8
TITLEBLOCK
 62
   154
370
     0
100
AcDbLine
 10
0.5050663029762911
 20
-0.669415852369219
 30
0.0
 11
0.5050663029762911
 21
-0.8417230380469828
 31
0.0
  0
LINE
  5
EFA
330
D97
100
AcDbEntity
  8
TITLEBLOCK
 62
   154
370
     0
100
AcDbLine
 10
0.5050663029762911
 20
-0.8417230380469828
 30
0.0
 11
0.4995446777990561
 21
-0.8461078580406679
 31
0.0
  0
LINE
  5
EFB
330
D97
100
AcDbEntity
  8
TITLEBLOCK
 62
   154
370
     0
100
AcDbLine
 10
0.4995446777990561
 20
-0.8461078580406679
 30
0.0
 11
0.4995446777990561
 21
-0.8461078580406679
 31
0.0
  0
LINE
  5
EFC
330
D97
100
AcDbEntity
  8
TITLEBLOCK
 62
   154
370
     0
100
AcDbLine
 10
0.4995446777990561
 20
-0.8461078580406679
 30
0.0
 11
0.45926929415336
 21
-0.8461078580406679
 31
0.0
  0
LINE
  5
EFD
330
D97
100
AcDbEntity
  8
TITLEBLOCK
 62
   154
370
     0
100
AcDbLine
 10
0.45926929415336
 20
-0.8461078580406679
 30
0.0
 11
0.453910069716636
 21
-0.8417230380469828
 31
0.0
  0
LINE
  5
EFE
330
D97
100
AcDbEntity
  8
TITLEBLOCK
 62
   154
370
     0
100
AcDbLine
 10
0.453910069716636
 20
-0.8417230380469828
 30
0.0
 11
0.453910069716636
 21
-0.8417230380469828
 31
0.0
  0
LINE
  5
EFF
330
D97
100
AcDbEntity
  8
TITLEBLOCK
 62
   154
370
     0
100
AcDbLine
 10
0.453910069716636
 20
-0.8417230380469828
 30
0.0
 11
0.453910069716636
 21
-0.669253451628713
 31
0.0
  0
LINE
  5
F00
330
D97
100
AcDbEntity
  8
TITLEBLOCK
 62
   154
370
     0
100
AcDbLine
 10
0.453910069716636
 20
-0.669253451628713
 30
0.0
 11
0.45926929415336
 21
-0.6651934331160411
 31
0.0
  0
LINE
  5
F01
330
D97
100
AcDbEntity
  8
TITLEBLOCK
 62
   154
370
     0
100
AcDbLine
 10
0.45926929415336
 20
-0.6651934331160411
 30
0.0
 11
0.45926929415336
 21
-0.6651934331160411
 31
0.0
  0
LINE
  5
F02
330
D97
100
AcDbEntity
  8
TITLEBLOCK
 62
   154
370
     0
100
AcDbLine
 10
0.45926929415336
 20
-0.6651934331160411
 30
0.0
 11
0.45926929415336
 21
-0.6651934331160411
 31
0.0
  0
LINE
  5
F03
330
D97
100
AcDbEntity
  8
TITLEBLOCK
 62
   154
370
     0
100
AcDbLine
 10
0.45926929415336
 20
-0.6651934331160411
 30
0.0
 11
0.45926929415336
 21
-0.6651934331160411
 31
0.0
  0
LINE
  5
F04
330
D97
100
AcDbEntity
  8
TITLEBLOCK
 62
   154
370
     0
100
AcDbLine
 10
0.517246358514305
 20
-0.7360001559770259
 30
0.0
 11
0.517246358514305
 21
-0.809567691426627
 31
0.0
  0
LINE
  5
F05
330
D97
100
AcDbEntity
  8
TITLEBLOCK
 62
   154
370
     0
100
AcDbLine
 10
0.5805826473119761
 20
-0.805020470692435
 30
0.0
 11
0.580257845830959
 21
-0.8048580699519289
 31
0.0
  0
LINE
  5
F06
330
D97
100
AcDbEntity
  8
TITLEBLOCK
 62
   154
370
     0
100
AcDbLine
 10
0.580257845830959
 20
-0.8048580699519289
 30
0.0
 11
0.5690521947359901
 21
-0.8006356506987508
 31
0.0
  0
LINE
  5
F07
330
D97
100
AcDbEntity
  8
TITLEBLOCK
 62
   154
370
     0
100
AcDbLine
 10
0.5690521947359901
 20
-0.8006356506987508
 30
0.0
 11
0.565479378444833
 21
-0.7879683929392171
 31
0.0
  0
LINE
  5
F08
330
D97
100
AcDbEntity
  8
TITLEBLOCK
 62
   154
370
     0
100
AcDbLine
 10
0.565479378444833
 20
-0.7879683929392171
 30
0.0
 11
0.565479378444833
 21
-0.7592234618695051
 31
0.0
  0
LINE
  5
F09
330
D97
100
AcDbEntity
  8
TITLEBLOCK
 62
   154
370
     0
100
AcDbLine
 10
0.565479378444833
 20
-0.7592234618695051
 30
0.0
 11
0.5664537828878779
 21
-0.755975447059368
 31
0.0
  0
LINE
  5
F0A
330
D97
100
AcDbEntity
  8
TITLEBLOCK
 62
   154
370
     0
100
AcDbLine
 10
0.5664537828878779
 20
-0.755975447059368
 30
0.0
 11
0.5672657865904101
 21
-0.751428226325177
 31
0.0
  0
LINE
  5
F0B
330
D97
100
AcDbEntity
  8
TITLEBLOCK
 62
   154
370
     0
100
AcDbLine
 10
0.5672657865904101
 20
-0.751428226325177
 30
0.0
 11
0.5750610221347379
 21
-0.7437953915213549
 31
0.0
  0
LINE
  5
F0C
330
D97
100
AcDbEntity
  8
TITLEBLOCK
 62
   154
370
     0
100
AcDbLine
 10
0.5750610221347379
 20
-0.7437953915213549
 30
0.0
 11
0.5913010961854271
 21
-0.7413593804137521
 31
0.0
  0
LINE
  5
F0D
330
D97
100
AcDbEntity
  8
TITLEBLOCK
 62
   154
370
     0
100
AcDbLine
 10
0.5913010961854271
 20
-0.7413593804137521
 30
0.0
 11
0.615011604299427
 21
-0.7413593804137521
 31
0.0
  0
LINE
  5
F0E
330
D97
100
AcDbEntity
  8
TITLEBLOCK
 62
   154
370
     0
100
AcDbLine
 10
0.6442437375906551
 20
-0.700109592325013
 30
0.0
 11
0.5610945584511552
 21
-0.700109592325013
 31
0.0
  0
LINE
  5
F0F
330
D97
100
AcDbEntity
  8
TITLEBLOCK
 62
   154
370
     0
100
AcDbLine
 10
0.5610945584511552
 20
-0.700109592325013
 30
0.0
 11
0.548752102172633
 21
-0.702058401211095
 31
0.0
  0
LINE
  5
F10
330
D97
100
AcDbEntity
  8
TITLEBLOCK
 62
   154
370
     0
100
AcDbLine
 10
0.548752102172633
 20
-0.702058401211095
 30
0.0
 11
0.534948039229553
 21
-0.7069304234263009
 31
0.0
  0
LINE
  5
F11
330
D97
100
AcDbEntity
  8
TITLEBLOCK
 62
   154
370
     0
100
AcDbLine
 10
0.534948039229553
 20
-0.7069304234263009
 30
0.0
 11
0.5252039947991371
 21
-0.7142384567491078
 31
0.0
  0
LINE
  5
F12
330
D97
100
AcDbEntity
  8
TITLEBLOCK
 62
   154
370
     0
100
AcDbLine
 10
0.5252039947991371
 20
-0.7142384567491078
 30
0.0
 11
0.519195167400385
 21
-0.7239825011795191
 31
0.0
  0
LINE
  5
F13
330
D97
100
AcDbEntity
  8
TITLEBLOCK
 62
   154
370
     0
100
AcDbLine
 10
0.519195167400385
 20
-0.7239825011795191
 30
0.0
 11
0.517246358514305
 21
-0.7360001559770259
 31
0.0
  0
LINE
  5
F14
330
D97
100
AcDbEntity
  8
TITLEBLOCK
 62
   154
370
     0
100
AcDbLine
 10
0.615011604299427
 20
-0.7413593804137521
 30
0.0
 11
0.623781244286794
 21
-0.7420089833757792
 31
0.0
  0
LINE
  5
F15
330
D97
100
AcDbEntity
  8
TITLEBLOCK
 62
   154
370
     0
100
AcDbLine
 10
0.623781244286794
 20
-0.7420089833757792
 30
0.0
 11
0.635149296122274
 21
-0.747368207812505
 31
0.0
  0
LINE
  5
F16
330
D97
100
AcDbEntity
  8
TITLEBLOCK
 62
   154
370
     0
100
AcDbLine
 10
0.635149296122274
 20
-0.747368207812505
 30
0.0
 11
0.638884513153931
 21
-0.7582490574264642
 31
0.0
  0
LINE
  5
F17
330
D97
100
AcDbEntity
  8
TITLEBLOCK
 62
   154
370
     0
100
AcDbLine
 10
0.638884513153931
 20
-0.7582490574264642
 30
0.0
 11
0.638884513153931
 21
-0.805020470692435
 31
0.0
  0
LINE
  5
F18
330
D97
100
AcDbEntity
  8
TITLEBLOCK
 62
   154
370
     0
100
AcDbLine
 10
0.638884513153931
 20
-0.805020470692435
 30
0.0
 11
0.5805826473119761
 21
-0.805020470692435
 31
0.0
  0
LINE
  5
F19
330
D97
100
AcDbEntity
  8
TITLEBLOCK
 62
   154
370
     0
100
AcDbLine
 10
0.517246358514305
 20
-0.809567691426627
 30
0.0
 11
0.519032766659882
 21
-0.817687728451969
 31
0.0
  0
LINE
  5
F1A
330
D97
100
AcDbEntity
  8
TITLEBLOCK
 62
   154
370
     0
100
AcDbLine
 10
0.519032766659882
 20
-0.817687728451969
 30
0.0
 11
0.5243919910966021
 21
-0.8301925854709971
 31
0.0
  0
LINE
  5
F1B
330
D97
100
AcDbEntity
  8
TITLEBLOCK
 62
   154
370
     0
100
AcDbLine
 10
0.5243919910966021
 20
-0.8301925854709971
 30
0.0
 11
0.532512028121948
 21
-0.838962225458366
 31
0.0
  0
LINE
  5
F1C
330
D97
100
AcDbEntity
  8
TITLEBLOCK
 62
   154
370
     0
100
AcDbLine
 10
0.532512028121948
 20
-0.838962225458366
 30
0.0
 11
0.5433928777359061
 21
-0.844321449895092
 31
0.0
  0
LINE
  5
F1D
330
D97
100
AcDbEntity
  8
TITLEBLOCK
 62
   154
370
     0
100
AcDbLine
 10
0.5433928777359061
 20
-0.844321449895092
 30
0.0
 11
0.55703453993848
 21
-0.8461078580406679
 31
0.0
  0
LINE
  5
F1E
330
D97
100
AcDbEntity
  8
TITLEBLOCK
 62
   154
370
     0
100
AcDbLine
 10
0.55703453993848
 20
-0.8461078580406679
 30
0.0
 11
0.6817583086477422
 21
-0.8461078580406679
 31
0.0
  0
LINE
  5
F1F
330
D97
100
AcDbEntity
  8
TITLEBLOCK
 62
   154
370
     0
100
AcDbLine
 10
0.6817583086477422
 20
-0.8461078580406679
 30
0.0
 11
0.6869551323439561
 21
-0.8417230380469828
 31
0.0
  0
LINE
  5
F20
330
D97
100
AcDbEntity
  8
TITLEBLOCK
 62
   154
370
     0
100
AcDbLine
 10
0.6869551323439561
 20
-0.8417230380469828
 30
0.0
 11
0.6869551323439561
 21
-0.731128133761821
 31
0.0
  0
LINE
  5
F21
330
D97
100
AcDbEntity
  8
TITLEBLOCK
 62
   154
370
     0
100
AcDbLine
 10
0.6869551323439561
 20
-0.731128133761821
 30
0.0
 11
0.6859807279009209
 21
-0.728042519692191
 31
0.0
  0
LINE
  5
F22
330
D97
100
AcDbEntity
  8
TITLEBLOCK
 62
   154
370
     0
100
AcDbLine
 10
0.6859807279009209
 20
-0.728042519692191
 30
0.0
 11
0.6798094997616581
 21
-0.715862464154177
 31
0.0
  0
LINE
  5
F23
330
D97
100
AcDbEntity
  8
TITLEBLOCK
 62
   154
370
     0
100
AcDbLine
 10
0.6798094997616581
 20
-0.715862464154177
 30
0.0
 11
0.6707150582932701
 21
-0.707092824166808
 31
0.0
  0
LINE
  5
F24
330
D97
100
AcDbEntity
  8
TITLEBLOCK
 62
   154
370
     0
100
AcDbLine
 10
0.6707150582932701
 20
-0.707092824166808
 30
0.0
 11
0.6588598042362739
 21
-0.701896000470589
 31
0.0
  0
LINE
  5
F25
330
D97
100
AcDbEntity
  8
TITLEBLOCK
 62
   154
370
     0
100
AcDbLine
 10
0.6588598042362739
 20
-0.701896000470589
 30
0.0
 11
0.6442437375906551
 21
-0.700109592325013
 31
0.0
  0
LINE
  5
F26
330
D97
100
AcDbEntity
  8
TITLEBLOCK
 62
   154
370
     0
100
AcDbLine
 10
0.789592400344281
 20
-0.6651934331160411
 30
0.0
 11
0.7413593804137491
 21
-0.6651934331160411
 31
0.0
  0
LINE
  5
F27
330
D97
100
AcDbEntity
  8
TITLEBLOCK
 62
   154
370
     0
100
AcDbLine
 10
0.7413593804137491
 20
-0.6651934331160411
 30
0.0
 11
0.7413593804137491
 21
-0.699947191584506
 31
0.0
  0
LINE
  5
F28
330
D97
100
AcDbEntity
  8
TITLEBLOCK
 62
   154
370
     0
100
AcDbLine
 10
0.7413593804137491
 20
-0.699947191584506
 30
0.0
 11
0.698160783438931
 21
-0.699947191584506
 31
0.0
  0
LINE
  5
F29
330
D97
100
AcDbEntity
  8
TITLEBLOCK
 62
   154
370
     0
100
AcDbLine
 10
0.698160783438931
 20
-0.699947191584506
 30
0.0
 11
0.698160783438931
 21
-0.7400601744896971
 31
0.0
  0
LINE
  5
F2A
330
D97
100
AcDbEntity
  8
TITLEBLOCK
 62
   154
370
     0
100
AcDbLine
 10
0.698160783438931
 20
-0.7400601744896971
 30
0.0
 11
0.7413593804137491
 21
-0.7400601744896971
 31
0.0
  0
LINE
  5
F2B
330
D97
100
AcDbEntity
  8
TITLEBLOCK
 62
   154
370
     0
100
AcDbLine
 10
0.7413593804137491
 20
-0.7400601744896971
 30
0.0
 11
0.7413593804137491
 21
-0.8452958543381329
 31
0.0
  0
LINE
  5
F2C
330
D97
100
AcDbEntity
  8
TITLEBLOCK
 62
   154
370
     0
100
AcDbLine
 10
0.7413593804137491
 20
-0.8452958543381329
 30
0.0
 11
0.789592400344281
 21
-0.8452958543381329
 31
0.0
  0
LINE
  5
F2D
330
D97
100
AcDbEntity
  8
TITLEBLOCK
 62
   154
370
     0
100
AcDbLine
 10
0.789592400344281
 20
-0.8452958543381329
 30
0.0
 11
0.789592400344281
 21
-0.7400601744896971
 31
0.0
  0
LINE
  5
F2E
330
D97
100
AcDbEntity
  8
TITLEBLOCK
 62
   154
370
     0
100
AcDbLine
 10
0.789592400344281
 20
-0.7400601744896971
 30
0.0
 11
0.8327909973191099
 21
-0.7400601744896971
 31
0.0
  0
LINE
  5
F2F
330
D97
100
AcDbEntity
  8
TITLEBLOCK
 62
   154
370
     0
100
AcDbLine
 10
0.8327909973191099
 20
-0.7400601744896971
 30
0.0
 11
0.8327909973191099
 21
-0.699947191584506
 31
0.0
  0
LINE
  5
F30
330
D97
100
AcDbEntity
  8
TITLEBLOCK
 62
   154
370
     0
100
AcDbLine
 10
0.8327909973191099
 20
-0.699947191584506
 30
0.0
 11
0.789592400344281
 21
-0.699947191584506
 31
0.0
  0
LINE
  5
F31
330
D97
100
AcDbEntity
  8
TITLEBLOCK
 62
   154
370
     0
100
AcDbLine
 10
0.789592400344281
 20
-0.699947191584506
 30
0.0
 11
0.789592400344281
 21
-0.6651934331160411
 31
0.0
  0
LINE
  5
F32
330
D97
100
AcDbEntity
  8
TITLEBLOCK
 62
   154
370
     0
100
AcDbLine
 10
0.956702762325831
 20
-0.741846582635273
 30
0.0
 11
0.9688828178638448
 21
-0.745256998185916
 31
0.0
  0
LINE
  5
F33
330
D97
100
AcDbEntity
  8
TITLEBLOCK
 62
   154
370
     0
100
AcDbLine
 10
0.9688828178638448
 20
-0.745256998185916
 30
0.0
 11
0.9739172408195509
 21
-0.7525650315087242
 31
0.0
  0
LINE
  5
F34
330
D97
100
AcDbEntity
  8
TITLEBLOCK
 62
   154
370
     0
100
AcDbLine
 10
0.9739172408195509
 20
-0.7525650315087242
 30
0.0
 11
0.8951528816737328
 21
-0.7525650315087242
 31
0.0
  0
LINE
  5
F35
330
D97
100
AcDbEntity
  8
TITLEBLOCK
 62
   154
370
     0
100
AcDbLine
 10
1.026047878522249
 20
-0.791054007008847
 30
0.0
 11
1.026047878522249
 21
-0.7402225752302042
 31
0.0
  0
LINE
  5
F36
330
D97
100
AcDbEntity
  8
TITLEBLOCK
 62
   154
370
     0
100
AcDbLine
 10
0.981387674882869
 20
-0.700921596027548
 30
0.0
 11
0.8914176646420749
 21
-0.700921596027548
 31
0.0
  0
LINE
  5
F37
330
D97
100
AcDbEntity
  8
TITLEBLOCK
 62
   154
370
     0
100
AcDbLine
 10
0.8914176646420749
 20
-0.700921596027548
 30
0.0
 11
0.883622429097746
 21
-0.701246397508561
 31
0.0
  0
LINE
  5
F38
330
D97
100
AcDbEntity
  8
TITLEBLOCK
 62
   154
370
     0
100
AcDbLine
 10
0.883622429097746
 20
-0.701246397508561
 30
0.0
 11
0.8681943587495958
 21
-0.7048192137997109
 31
0.0
  0
LINE
  5
F39
330
D97
100
AcDbEntity
  8
TITLEBLOCK
 62
   154
370
     0
100
AcDbLine
 10
0.8681943587495958
 20
-0.7048192137997109
 30
0.0
 11
0.8638095387559108
 21
-0.706605621945287
 31
0.0
  0
LINE
  5
F3A
330
D97
100
AcDbEntity
  8
TITLEBLOCK
 62
   154
370
     0
100
AcDbLine
 10
0.8638095387559108
 20
-0.706605621945287
 30
0.0
 11
0.8524414869204351
 21
-0.7144008574896149
 31
0.0
  0
LINE
  5
F3B
330
D97
100
AcDbEntity
  8
TITLEBLOCK
 62
   154
370
     0
100
AcDbLine
 10
0.8524414869204351
 20
-0.7144008574896149
 30
0.0
 11
0.845620655819145
 21
-0.7246321041415469
 31
0.0
  0
LINE
  5
F3C
330
D97
100
AcDbEntity
  8
TITLEBLOCK
 62
   154
370
     0
100
AcDbLine
 10
0.845620655819145
 20
-0.7246321041415469
 30
0.0
 11
0.8433470454520508
 21
-0.7374617626415871
 31
0.0
  0
LINE
  5
F3D
330
D97
100
AcDbEntity
  8
TITLEBLOCK
 62
   154
370
     0
100
AcDbLine
 10
0.8433470454520508
 20
-0.7374617626415871
 30
0.0
 11
0.8433470454520508
 21
-0.807618882540545
 31
0.0
  0
LINE
  5
F3E
330
D97
100
AcDbEntity
  8
TITLEBLOCK
 62
   154
370
     0
100
AcDbLine
 10
0.8433470454520508
 20
-0.807618882540545
 30
0.0
 11
0.8433470454520508
 21
-0.807943684021558
 31
0.0
  0
LINE
  5
F3F
330
D97
100
AcDbEntity
  8
TITLEBLOCK
 62
   154
370
     0
100
AcDbLine
 10
0.8433470454520508
 20
-0.807943684021558
 30
0.0
 11
0.8457830565596518
 21
-0.820610941781093
 31
0.0
  0
LINE
  5
F40
330
D97
100
AcDbEntity
  8
TITLEBLOCK
 62
   154
370
     0
100
AcDbLine
 10
0.8457830565596518
 20
-0.820610941781093
 30
0.0
 11
0.850492678034351
 21
-0.8293805817684621
 31
0.0
  0
LINE
  5
F41
330
D97
100
AcDbEntity
  8
TITLEBLOCK
 62
   154
370
     0
100
AcDbLine
 10
0.850492678034351
 20
-0.8293805817684621
 30
0.0
 11
0.859587119502739
 21
-0.8386374239773529
 31
0.0
  0
LINE
  5
F42
330
D97
100
AcDbEntity
  8
TITLEBLOCK
 62
   154
370
     0
100
AcDbLine
 10
0.859587119502739
 20
-0.8386374239773529
 30
0.0
 11
0.8716047743002398
 21
-0.844321449895092
 31
0.0
  0
LINE
  5
F43
330
D97
100
AcDbEntity
  8
TITLEBLOCK
 62
   154
370
     0
100
AcDbLine
 10
0.8716047743002398
 20
-0.844321449895092
 30
0.0
 11
0.8867080431673759
 21
-0.8461078580406679
 31
0.0
  0
LINE
  5
F44
330
D97
100
AcDbEntity
  8
TITLEBLOCK
 62
   154
370
     0
100
AcDbLine
 10
0.8867080431673759
 20
-0.8461078580406679
 30
0.0
 11
0.9791140645157749
 21
-0.8461078580406679
 31
0.0
  0
LINE
  5
F45
330
D97
100
AcDbEntity
  8
TITLEBLOCK
 62
   154
370
     0
100
AcDbLine
 10
0.9791140645157749
 20
-0.8461078580406679
 30
0.0
 11
0.994054932642404
 21
-0.8436718469330649
 31
0.0
  0
LINE
  5
F46
330
D97
100
AcDbEntity
  8
TITLEBLOCK
 62
   154
370
     0
100
AcDbLine
 10
0.994054932642404
 20
-0.8436718469330649
 30
0.0
 11
1.008021396325989
 21
-0.8386374239773529
 31
0.0
  0
LINE
  5
F47
330
D97
100
AcDbEntity
  8
TITLEBLOCK
 62
   154
370
     0
100
AcDbLine
 10
1.008021396325989
 20
-0.8386374239773529
 30
0.0
 11
1.017927841496909
 21
-0.8314917913950509
 31
0.0
  0
LINE
  5
F48
330
D97
100
AcDbEntity
  8
TITLEBLOCK
 62
   154
370
     0
100
AcDbLine
 10
1.017927841496909
 20
-0.8314917913950509
 30
0.0
 11
1.023936668895669
 21
-0.822072548445654
 31
0.0
  0
LINE
  5
F49
330
D97
100
AcDbEntity
  8
TITLEBLOCK
 62
   154
370
     0
100
AcDbLine
 10
1.023936668895669
 20
-0.822072548445654
 30
0.0
 11
1.026047878522249
 21
-0.810542095869669
 31
0.0
  0
LINE
  5
F4A
330
D97
100
AcDbEntity
  8
TITLEBLOCK
 62
   154
370
     0
100
AcDbLine
 10
1.026047878522249
 20
-0.810542095869669
 30
0.0
 11
1.020526253345019
 21
-0.8051828714329419
 31
0.0
  0
LINE
  5
F4B
330
D97
100
AcDbEntity
  8
TITLEBLOCK
 62
   154
370
     0
100
AcDbLine
 10
1.020526253345019
 20
-0.8051828714329419
 30
0.0
 11
0.9157777757181101
 21
-0.8051828714329419
 31
0.0
  0
LINE
  5
F4C
330
D97
100
AcDbEntity
  8
TITLEBLOCK
 62
   154
370
     0
100
AcDbLine
 10
0.9157777757181101
 20
-0.8051828714329419
 30
0.0
 11
0.9008369075914741
 21
-0.8025844595848329
 31
0.0
  0
LINE
  5
F4D
330
D97
100
AcDbEntity
  8
TITLEBLOCK
 62
   154
370
     0
100
AcDbLine
 10
0.9008369075914741
 20
-0.8025844595848329
 30
0.0
 11
0.8945032787117048
 21
-0.7954388270025321
 31
0.0
  0
LINE
  5
F4E
330
D97
100
AcDbEntity
  8
TITLEBLOCK
 62
   154
370
     0
100
AcDbLine
 10
0.8945032787117048
 20
-0.7954388270025321
 30
0.0
 11
1.020526253345019
 21
-0.7954388270025321
 31
0.0
  0
LINE
  5
F4F
330
D97
100
AcDbEntity
  8
TITLEBLOCK
 62
   154
370
     0
100
AcDbLine
 10
1.020526253345019
 20
-0.7954388270025321
 30
0.0
 11
1.026047878522249
 21
-0.791054007008847
 31
0.0
  0
LINE
  5
F50
330
D97
100
AcDbEntity
  8
TITLEBLOCK
 62
   154
370
     0
100
AcDbLine
 10
0.8951528816737328
 20
-0.7525650315087242
 30
0.0
 11
0.8977512935218442
 21
-0.7467186048504781
 31
0.0
  0
LINE
  5
F51
330
D97
100
AcDbEntity
  8
TITLEBLOCK
 62
   154
370
     0
100
AcDbLine
 10
0.8977512935218442
 20
-0.7467186048504781
 30
0.0
 11
0.909768948319348
 21
-0.741846582635273
 31
0.0
  0
LINE
  5
F52
330
D97
100
AcDbEntity
  8
TITLEBLOCK
 62
   154
370
     0
100
AcDbLine
 10
0.909768948319348
 20
-0.741846582635273
 30
0.0
 11
0.956702762325831
 21
-0.741846582635273
 31
0.0
  0
LINE
  5
F53
330
D97
100
AcDbEntity
  8
TITLEBLOCK
 62
   154
370
     0
100
AcDbLine
 10
1.026047878522249
 20
-0.7402225752302042
 30
0.0
 11
1.025885477781749
 21
-0.7398977737491909
 31
0.0
  0
LINE
  5
F54
330
D97
100
AcDbEntity
  8
TITLEBLOCK
 62
   154
370
     0
100
AcDbLine
 10
1.025885477781749
 20
-0.7398977737491909
 30
0.0
 11
1.022475062231099
 21
-0.725768909325095
 31
0.0
  0
LINE
  5
F55
330
D97
100
AcDbEntity
  8
TITLEBLOCK
 62
   154
370
     0
100
AcDbLine
 10
1.022475062231099
 20
-0.725768909325095
 30
0.0
 11
1.016303834091849
 21
-0.7148880597111359
 31
0.0
  0
LINE
  5
F56
330
D97
100
AcDbEntity
  8
TITLEBLOCK
 62
   154
370
     0
100
AcDbLine
 10
1.016303834091849
 20
-0.7148880597111359
 30
0.0
 11
1.007371793363959
 21
-0.707092824166808
 31
0.0
  0
LINE
  5
F57
330
D97
100
AcDbEntity
  8
TITLEBLOCK
 62
   154
370
     0
100
AcDbLine
 10
1.007371793363959
 20
-0.707092824166808
 30
0.0
 11
0.9956789400474709
 21
-0.7023832026921091
 31
0.0
  0
LINE
  5
F58
330
D97
100
AcDbEntity
  8
TITLEBLOCK
 62
   154
370
     0
100
AcDbLine
 10
0.9956789400474709
 20
-0.7023832026921091
 30
0.0
 11
0.981387674882869
 21
-0.700921596027548
 31
0.0
  0
HATCH
  5
F59
330
D97
100
AcDbEntity
  8
TITLEBLOCK
 62
   154
100
AcDbHatch
 10
0.0
 20
0.0
 30
0.0
210
0.0
220
0.0
230
1.0
  2
SOLID
 70
     1
 71
     0
 91
        7
 92
        7
 72
     0
 73
     1
 93
       30
 10
1.91222339719631
 20
-0.164955638809798
 10
1.91222339719631
 20
-0.0549101119097615
 10
1.92731657486079
 20
-0.0454845311090084
 10
1.92731657486079
 20
-0.0206116978882962
 10
1.835853342098739
 20
-0.0206116978882962
 10
1.835853342098739
 20
-0.0454845311090084
 10
1.85094651976323
 20
-0.0549101119097615
 10
1.85094651976323
 20
-0.199420219273007
 10
1.59819386604289
 20
-0.199420219273007
 10
1.59819386604289
 20
-0.0549101119097615
 10
1.61328704370738
 20
-0.0454845311090084
 10
1.61328704370738
 20
-0.0206116978882962
 10
1.521823810945329
 20
-0.0206116978882962
 10
1.521823810945329
 20
-0.0454845311090084
 10
1.53691698860981
 20
-0.0549101119097615
 10
1.53691698860981
 20
-0.284042280584726
 10
1.53691698860981
 20
-0.3940878074847629
 10
1.521823810945329
 20
-0.403513388285516
 10
1.521823810945329
 20
-0.428386221506228
 10
1.61328704370738
 20
-0.428386221506228
 10
1.61328704370738
 20
-0.403513388285516
 10
1.59819386604289
 20
-0.3940878074847629
 10
1.59819386604289
 20
-0.24829250464089
 10
1.85094651976323
 20
-0.24829250464089
 10
1.85094651976323
 20
-0.3940878074847629
 10
1.835853342098739
 20
-0.403513388285516
 10
1.835853342098739
 20
-0.428386221506228
 10
1.92731657486079
 20
-0.428386221506228
 10
1.92731657486079
 20
-0.403513388285516
 10
1.91222339719631
 20
-0.3940878074847629
 97
        0
 92
        7
 72
     0
 73
     1
 93
       28
 10
2.23489576879314
 20
-0.222878564752087
 10
2.21538931164114
 20
-0.222878564752087
 10
2.20799732350729
 20
-0.23471535153015
 10
2.075526498212029
 20
-0.234696524635574
 10
2.075526498212029
 20
-0.139151076228322
 10
2.281922212860339
 20
-0.139151076228322
 10
2.289314200994189
 20
-0.150987863006384
 10
2.308820658146189
 20
-0.150987863006384
 10
2.308820658146189
 20
-0.0792580518093722
 10
2.289314200994189
 20
-0.0792580518093722
 10
2.281922212860339
 20
-0.0910948385874349
 10
2.007599520912259
 20
-0.0910948385874349
 10
2.007599520912259
 20
-0.11145576657913
 10
2.019954812360789
 20
-0.119171557147139
 10
2.019954812360789
 20
-0.400309502946524
 10
2.007599520912259
 20
-0.408025293514533
 10
2.007599520912259
 20
-0.428386221506228
 10
2.281922212860339
 20
-0.428386221506228
 10
2.289314200994189
 20
-0.44022300828429
 10
2.308820658146189
 20
-0.44022300828429
 10
2.308820658146189
 20
-0.3684931970872789
 10
2.289314200994189
 20
-0.3684931970872789
 10
2.281922212860339
 20
-0.380329983865341
 10
2.075526498212029
 20
-0.380329983865341
 10
2.075526498212029
 20
-0.28275276227646
 10
2.20799732350729
 20
-0.282771589171036
 10
2.21538931164114
 20
-0.294608375949099
 10
2.23489576879314
 20
-0.294608375949099
 97
        0
 92
        7
 72
     0
 73
     1
 93
       33
 10
2.554074457839039
 20
-0.128527950178354
 10
2.554074457839039
 20
-0.118222395366621
 10
2.56438840843618
 20
-0.118222395366621
 10
2.571264375500939
 20
-0.111352005143564
 10
2.571264375500939
 20
-0.102191545891863
 10
2.562669416669999
 20
-0.0910948385874349
 10
2.468536958509059
 20
-0.0910948385874349
 10
2.459941999678119
 20
-0.102191545891863
 10
2.459941999678119
 20
-0.111352005143564
 10
2.46681796674287
 20
-0.118222395366621
 10
2.477131917340009
 20
-0.118222395366621
 10
2.477131917340009
 20
-0.128527950178354
 10
2.353590656565569
 20
-0.395099823381676
 10
2.335818481744609
 20
-0.412781898456348
 10
2.327562323710859
 20
-0.412781898456348
 10
2.327562323710859
 20
-0.428386221506228
 10
2.421347465685749
 20
-0.428386221506228
 10
2.421347465685749
 20
-0.414280570809421
 10
2.41201501834573
 20
-0.40769843846218
 10
2.40240826380897
 20
-0.40769843846218
 10
2.43125717394199
 20
-0.342811602825988
 10
2.59073111269397
 20
-0.342811602825988
 10
2.62258955535242
 20
-0.40079190917463
 10
2.618748417018939
 20
-0.404629926393177
 10
2.618748417018939
 20
-0.40769843846218
 10
2.616257037609249
 20
-0.40769843846218
 10
2.614286392051839
 20
-0.4090883257442321
 10
2.6077981854026
 20
-0.4155712604045721
 10
2.6077981854026
 20
-0.428386221506228
 10
2.7036440514682
 20
-0.428386221506228
 10
2.7036440514682
 20
-0.412781898456348
 10
2.69538789343445
 20
-0.412781898456348
 10
2.67761571861349
 20
-0.395099823381675
 97
        0
 92
       23
 72
     0
 73
     1
 93
        3
 10
2.5133608484032
 20
-0.156365041326573
 10
2.577077594123569
 20
-0.298473732273324
 10
2.45078181446571
 20
-0.298473732273324
 97
        0
 92
        5
 93
       23
 72
     4
 94
        3
 73
     0
 74
     0
 95
       15
 96
       11
 40
0.0
 40
0.0
 40
0.0
 40
0.0
 40
0.0851553307409796
 40
0.171033711273708
 40
0.263077495763238
 40
0.3581969501234401
 40
0.436073267657124
 40
0.5087496361452061
 40
0.5922095367760951
 40
0.6960680638153721
 40
0.6960680638153721
 40
0.6960680638153721
 40
0.6960680638153721
 10
2.967416037091039
 20
-0.283610198999596
 10
2.97953252471093
 20
-0.280291613869344
 10
3.003868380460649
 20
-0.273626265663122
 10
3.037128886351709
 20
-0.25233707195604
 10
3.05909087526337
 20
-0.215645409395326
 10
3.055541120156919
 20
-0.176057944558128
 10
3.048897467324799
 20
-0.139110121530125
 10
3.021206385390859
 20
-0.116105266187001
 10
2.987709094306589
 20
-0.0973603445896689
 10
2.96015147156989
 20
-0.0933296522085787
 10
2.94487217341575
 20
-0.0910948385874349
 72
     1
 10
2.94487217341575
 20
-0.0910948385874349
 11
2.73256957086793
 21
-0.0910948385874349
 72
     1
 10
2.73256957086793
 20
-0.0910948385874349
 11
2.73256957086793
 21
-0.113922335059077
 72
     1
 10
2.73256957086793
 20
-0.113922335059077
 11
2.750362824766109
 21
-0.12608673195435
 72
     1
 10
2.750362824766109
 20
-0.12608673195435
 11
2.750362824766109
 21
-0.406104046424803
 72
     1
 10
2.750362824766109
 20
-0.406104046424803
 11
2.739943478782949
 21
-0.406104046424803
 72
     1
 10
2.739943478782949
 20
-0.406104046424803
 11
2.732313550817659
 21
-0.4137277407960111
 72
     1
 10
2.732313550817659
 20
-0.41372774079601
 11
2.732313550817659
 21
-0.428386221506228
 72
     1
 10
2.732313550817659
 20
-0.428386221506228
 11
2.827869754067339
 21
-0.428386221506228
 72
     1
 10
2.827869754067339
 20
-0.428386221506228
 11
2.827869754067339
 21
-0.410097413049993
 72
     1
 10
2.827869754067339
 20
-0.410097413049993
 11
2.816606547013319
 21
-0.410097413049993
 72
     1
 10
2.816606547013319
 20
-0.410097413049993
 11
2.80534320036277
 21
-0.4002954854037581
 72
     1
 10
2.805343200362759
 20
-0.4002954854037571
 11
2.805343200362759
 21
-0.286773527010337
 72
     1
 10
2.805343200362759
 20
-0.286773527010337
 11
2.913169660089999
 21
-0.286773527010337
 72
     1
 10
2.913169660089999
 20
-0.286773527010337
 11
2.99178931339388
 21
-0.402460715941069
 72
     1
 10
2.99178931339388
 20
-0.402460715941069
 11
2.99178931339388
 21
-0.4114749707004771
 72
     1
 10
2.99178931339388
 20
-0.4114749707004771
 11
2.979384625450429
 21
-0.4114749707004771
 72
     1
 10
2.979384625450439
 20
-0.4114749707004771
 11
2.979384625450439
 21
-0.428386221506228
 72
     1
 10
2.979384625450439
 20
-0.428386221506228
 11
3.07354765525311
 21
-0.428386221506228
 72
     1
 10
3.07354765525311
 20
-0.428386221506228
 11
3.07354765525311
 21
-0.413446808406239
 72
     1
 10
3.07354765525311
 20
-0.413446808406239
 11
3.062834458557919
 21
-0.413446808406239
 72
     1
 10
3.062834458557919
 20
-0.413446808406239
 11
3.052403246869059
 21
-0.4078128991816011
 72
     1
 10
3.052403246869059
 20
-0.4078128991816011
 11
2.967416037091039
 21
-0.283610198999597
 97
        0
 92
       21
 93
        4
 72
     1
 10
2.805343200362759
 20
-0.139197398509298
 11
2.941638280021609
 21
-0.139197398509298
 72
     4
 94
        3
 73
     0
 74
     0
 95
       14
 96
       10
 40
0.0
 40
0.0
 40
0.0
 40
0.0
 40
0.0718864475841751
 40
0.134441872909996
 40
0.182153615110412
 40
0.238854870766989
 40
0.297641220596256
 40
0.333419735005583
 40
0.381476131873447
 40
0.381476131873447
 40
0.381476131873447
 40
0.381476131873447
 10
2.941638280021609
 20
-0.139197398509298
 10
2.9522049408792
 20
-0.140326011035256
 10
2.97196668629629
 20
-0.142436739647931
 10
2.996452802055349
 20
-0.155515431185657
 10
3.0106334355816
 20
-0.177156473374681
 10
3.00911359100968
 20
-0.202082818858014
 10
3.00054477262714
 20
-0.223767980843913
 10
2.98251474458416
 20
-0.235850262171754
 10
2.970447984624379
 20
-0.238628409842333
 10
2.963530997456359
 20
-0.240220917843844
 72
     1
 10
2.963530997456359
 20
-0.240220917843844
 11
2.80534320036277
 21
-0.240220917843844
 72
     1
 10
2.805343200362759
 20
-0.240220917843844
 11
2.805343200362759
 21
-0.139197398509298
 97
        0
 92
        7
 72
     0
 73
     1
 93
       29
 10
3.181744464595109
 20
-0.155063312031826
 10
3.392895814495839
 20
-0.4046669081545071
 10
3.382207884774
 20
-0.413873090648253
 10
3.373731303807089
 20
-0.413873090648253
 10
3.373731303807089
 20
-0.428386221506228
 10
3.467590013157459
 20
-0.428386221506228
 10
3.467590013157459
 20
-0.408025293514533
 10
3.45523472170893
 20
-0.400309502946524
 10
3.45523472170893
 20
-0.119171557147139
 10
3.467590013157459
 20
-0.11145576657913
 10
3.467590013157459
 20
-0.0910948385874349
 10
3.395439661524279
 20
-0.0910948385874349
 10
3.395439661524279
 20
-0.11145576657913
 10
3.40779495297281
 20
-0.119171557147139
 10
3.40779495297281
 20
-0.3503956785268359
 10
3.220268083546249
 20
-0.136872594467669
 10
3.220268083546249
 20
-0.122939397921476
 10
3.238503300083019
 20
-0.108202290327712
 10
3.238503300083019
 20
-0.101235692054623
 10
3.228044867069269
 20
-0.0910948385874349
 10
3.12194940441046
 20
-0.0910948385874349
 10
3.12194940441046
 20
-0.11145576657913
 10
3.134304695858989
 20
-0.119171557147139
 10
3.134304695858989
 20
-0.400309502946524
 10
3.12194940441046
 20
-0.408025293514533
 10
3.12194940441046
 20
-0.428386221506228
 10
3.19409975604364
 20
-0.428386221506228
 10
3.19409975604364
 20
-0.408025293514533
 10
3.181744464595109
 20
-0.400309502946524
 97
        0
 75
     1
 76
     1
 47
0.0
 98
        1
 10
0.0
 20
0.0
1001
GradientColor1ACI
1070
     5
1001
GradientColor2ACI
1070
     2
1001
ACAD
1010
0.0
1020
0.0
1030
0.0
  0
HATCH
  5
F5A
330
D97
100
AcDbEntity
  8
TITLEBLOCK
 62
   154
100
AcDbHatch
 10
0.0
 20
0.0
 30
0.0
210
0.0
220
0.0
230
1.0
  2
SOLID
 70
     1
 71
     0
 91
       14
 92
        5
 93
        4
 72
     1
 10
2.875696863191159
 20
-0.5816482716463741
 11
2.875696863191159
 21
-0.6212577454860671
 72
     1
 10
2.875696863191159
 20
-0.6212577454860671
 11
2.95803002911009
 21
-0.6212577454860671
 72
     4
 94
        3
 73
     0
 74
     0
 95
       12
 96
        8
 40
0.0
 40
0.0
 40
0.0
 40
0.0
 40
0.0095359067847786
 40
0.0304032332031397
 40
0.0610092011482905
 40
0.089785101535176
 40
0.109350424257626
 40
0.109350424257626
 40
0.109350424257626
 40
0.109350424257626
 10
2.95803002911009
 20
-0.6212577454860671
 10
2.95935398169095
 20
-0.62073957644824
 10
2.96357512604295
 20
-0.619087503451803
 10
2.96877980421618
 20
-0.61122684035047
 10
2.97313498144511
 20
-0.599838165258027
 10
2.968730456194529
 20
-0.5878500576336601
 10
2.96310295653549
 20
-0.5834351383292621
 10
2.96082531770331
 20
-0.5816482716463741
 72
     1
 10
2.96082531770331
 20
-0.5816482716463741
 11
2.875696863191159
 21
-0.5816482716463741
 97
        0
 92
        7
 72
     0
 73
     1
 93
        4
 10
3.73916665251535
 20
-0.484136894086101
 10
1.23937121462386
 20
-0.484136894086101
 10
1.23937121462386
 20
-0.7934086418628629
 10
3.73916665251535
 20
-0.7934086418628629
 97
        0
 92
       21
 93
       16
 72
     4
 94
        3
 73
     0
 74
     0
 95
       20
 96
       16
 40
0.0
 40
0.0
 40
0.0
 40
0.0
 40
0.0381734241584024
 40
0.0816475976489086
 40
0.179409039507798
 40
0.288751144724337
 40
0.366062521971206
 40
0.4521610852648961
 40
0.542669537683521
 40
0.643121548958673
 40
0.729335954477966
 40
0.833157645872356
 40
0.9625907656562057
 40
1.0449798923101
 40
1.113042397856699
 40
1.113042397856699
 40
1.113042397856699
 40
1.113042397856699
 10
3.593180612263179
 20
-0.7026735539428099
 10
3.588695792591759
 20
-0.7060999274369661
 10
3.57910339263988
 20
-0.713428459540475
 10
3.55396869470018
 20
-0.7223131125054309
 10
3.51782218188574
 20
-0.7296209260952243
 10
3.47607262554089
 20
-0.7328794102427571
 10
3.435344074306459
 20
-0.7256935538426271
 10
3.4065401171295
 20
-0.700249675128844
 10
3.383196375233529
 20
-0.66505816615397
 10
3.38567695956889
 20
-0.6223188191076491
 10
3.400249848105469
 20
-0.5814387193799381
 10
3.439734112825089
 20
-0.5500698933863181
 10
3.48756993539452
 20
-0.547930942175504
 10
3.52879467748054
 20
-0.54976371658547
 10
3.54984376971556
 20
-0.5569510025054571
 10
3.55936612541249
 20
-0.560202444052746
 72
     1
 10
3.55936612541249
 20
-0.560202444052746
 11
3.579883468409319
 21
-0.560202444052746
 72
     1
 10
3.579883468409319
 20
-0.560202444052746
 11
3.554893121044359
 21
-0.6054566003288951
 72
     1
 10
3.554893121044369
 20
-0.6054566003288951
 11
3.550534331329209
 21
-0.594133041190608
 72
     4
 94
        3
 73
     0
 74
     0
 95
       19
 96
       15
 40
0.0
 40
0.0
 40
0.0
 40
0.0
 40
0.0460326516190259
 40
0.103996703403937
 40
0.153883985561322
 40
0.211812021331028
 40
0.269536930726395
 40
0.335426703822029
 40
0.407336652221211
 40
0.468339698552081
 40
0.5335528218577151
 40
0.598010359727911
 40
0.666122862249115
 40
0.7239168728792232
 40
0.7239168728792232
 40
0.7239168728792232
 40
0.7239168728792232
 10
3.550534331329209
 20
-0.594133041190608
 10
3.544481156038069
 20
-0.591108309116888
 10
3.53080585702175
 20
-0.5842748517060401
 10
3.509058322119769
 20
-0.577241764281024
 10
3.484193672366499
 20
-0.577039429315395
 10
3.46112058673402
 20
-0.585508659879491
 10
3.438228761272209
 20
-0.601232415399574
 10
3.428227519225919
 20
-0.62919081986421
 10
3.425635517830509
 20
-0.6600463924809139
 10
3.444659355745069
 20
-0.684131553418095
 10
3.469377318660209
 20
-0.6995193506126381
 10
3.498992282114399
 20
-0.698901305799987
 10
3.527685317673289
 20
-0.6991632218047701
 10
3.54373017126931
 20
-0.6892125531467409
 10
3.551095131318439
 20
-0.68464496537225
 72
     1
 10
3.551095131318439
 20
-0.6846449653722491
 11
3.551095131318439
 21
-0.659503312317039
 72
     1
 10
3.551095131318439
 20
-0.659503312317039
 11
3.504110808657439
 21
-0.659503312317039
 72
     1
 10
3.504110808657439
 20
-0.659503312317039
 11
3.49097300129477
 21
-0.673742821717871
 72
     1
 10
3.49097300129477
 20
-0.673742821717871
 11
3.49097300129477
 21
-0.61967717069774
 72
     1
 10
3.49097300129477
 20
-0.61967717069774
 11
3.504110808657439
 21
-0.6339166800985721
 72
     1
 10
3.504110808657439
 20
-0.6339166800985721
 11
3.59496201840714
 21
-0.6339166800985721
 72
     1
 10
3.59496201840714
 20
-0.6339166800985721
 11
3.59496201840714
 21
-0.6385890273790231
 72
     1
 10
3.59496201840714
 20
-0.6385890273790231
 11
3.584273682261799
 21
-0.646153761242684
 72
     1
 10
3.584273682261799
 20
-0.646153761242684
 11
3.584273682261799
 21
-0.697327025679606
 72
     1
 10
3.584273682261799
 20
-0.697327025679606
 11
3.593180612263179
 21
-0.697327025679606
 72
     1
 10
3.593180612263179
 20
-0.697327025679606
 11
3.593180612263179
 21
-0.7026735539428111
 97
        0
 92
       23
 72
     0
 73
     1
 93
       30
 10
3.35557187099849
 20
-0.7241676860813679
 10
3.355427642265639
 20
-0.7308250173843659
 10
3.29073029647908
 20
-0.7308250173843659
 10
3.29073029647908
 20
-0.72481977764815
 10
3.2975100224249
 20
-0.72481977764815
 10
3.2975100224249
 20
-0.710618607876445
 10
3.20169782713941
 20
-0.614147746091827
 10
3.193851755995649
 20
-0.614147746091827
 10
3.193851755995649
 20
-0.715518670614145
 10
3.20275193786498
 20
-0.7241676860813679
 10
3.20260770913212
 20
-0.7308250173843659
 10
3.144981403203229
 20
-0.7308250173843659
 10
3.144837174470379
 20
-0.7241676860813679
 10
3.1537373563397
 20
-0.715518670614145
 10
3.1537373563397
 20
-0.5558077077458621
 10
3.14326989562116
 20
-0.5558077077458621
 10
3.14326989562116
 20
-0.548666001820495
 10
3.21444959540377
 20
-0.548666001820495
 10
3.214251280896089
 20
-0.553424560901879
 10
3.208501368793849
 20
-0.5561980720261581
 10
3.208501368793849
 20
-0.571452537364616
 10
3.30790266329316
 20
-0.66055610227438
 10
3.30790266329316
 20
-0.5554497600412509
 10
3.29720062944694
 20
-0.5554497600412509
 10
3.29720062944694
 20
-0.548666001820495
 10
3.35713914984771
 20
-0.548666001820495
 10
3.35713914984771
 20
-0.5558077077458621
 10
3.35454414055845
 20
-0.5558077077458621
 10
3.34667168912917
 20
-0.560716616749143
 10
3.34667168912917
 20
-0.715518670614145
 97
        0
 92
       23
 72
     0
 73
     1
 93
       12
 10
3.11099449783014
 20
-0.7254347073214971
 10
3.11099449783014
 20
-0.7308250173843659
 10
3.04532036733837
 20
-0.7308250173843659
 10
3.04532036733837
 20
-0.7254347073214971
 10
3.056264628909819
 20
-0.7164680886922281
 10
3.056264628909819
 20
-0.555164309189328
 10
3.045466106847069
 20
-0.555164309189328
 10
3.045466106847069
 20
-0.548666001820495
 10
3.11084875832145
 20
-0.548666001820495
 10
3.11084875832145
 20
-0.555164309189328
 10
3.100050236258689
 20
-0.555164309189328
 10
3.100050236258689
 20
-0.7164680886922281
 97
        0
 92
       21
 93
       21
 72
     1
 10
3.02314178489381
 20
-0.7196468996134841
 11
3.02314178489381
 21
-0.7308250173843659
 72
     1
 10
3.02314178489381
 20
-0.7308250173843659
 11
2.951748787561269
 21
-0.7308250173843659
 72
     1
 10
2.951748787561269
 20
-0.7308250173843659
 11
2.951748787561269
 21
-0.7242280191117031
 72
     1
 10
2.951748787561269
 20
-0.7242280191117031
 11
2.95862606879157
 21
-0.7242280191117031
 72
     1
 10
2.95862606879157
 20
-0.7242280191117031
 11
2.95862606879157
 21
-0.7127752203661501
 72
     1
 10
2.95862606879157
 20
-0.7127752203661501
 11
2.91736221233644
 21
-0.6535478580237611
 72
     1
 10
2.91736221233644
 20
-0.6535478580237611
 11
2.875114067583529
 21
-0.6535478580237611
 72
     1
 10
2.875114067583529
 20
-0.6535478580237611
 11
2.875114067583529
 21
-0.7174415387007591
 72
     1
 10
2.875114067583529
 20
-0.7174415387007591
 11
2.88526810176023
 21
-0.724555234891486
 72
     1
 10
2.88526810176023
 20
-0.724555234891486
 11
2.885313564861549
 21
-0.7308250173843659
 72
     1
 10
2.885313564861549
 20
-0.7308250173843659
 11
2.82136191245625
 21
-0.7308250173843659
 72
     1
 10
2.82136191245625
 20
-0.7308250173843659
 11
2.82140737555758
 21
-0.724555234891486
 72
     1
 10
2.82140737555758
 20
-0.724555234891486
 11
2.831561409734269
 21
-0.7174415387007591
 72
     1
 10
2.831561409734269
 20
-0.7174415387007591
 11
2.831561409734269
 21
-0.554899878851583
 72
     1
 10
2.831561409734269
 20
-0.554899878851583
 11
2.82145826661587
 21
-0.554899878851583
 72
     1
 10
2.82145826661587
 20
-0.554899878851583
 11
2.82145826661587
 21
-0.548666001820495
 72
     1
 10
2.82145826661587
 20
-0.548666001820495
 11
2.975223204006979
 21
-0.548666001820495
 72
     4
 94
        3
 73
     0
 74
     0
 95
       15
 96
       11
 40
0.0
 40
0.0
 40
0.0
 40
0.0
 40
0.0407248746380169
 40
0.0823943087110891
 40
0.115414026687751
 40
0.161461129390573
 40
0.211192022661371
 40
0.259417396822929
 40
0.3059893801444
 40
0.331703142333405
 40
0.331703142333405
 40
0.331703142333405
 40
0.331703142333405
 10
2.975223204006979
 20
-0.548666001820495
 10
2.980348577057539
 20
-0.5517415684578641
 10
2.990718199386419
 20
-0.5579640354202162
 10
3.00565174236066
 20
-0.5663259372689791
 10
3.01577122437618
 20
-0.582546439309835
 10
3.01114774588585
 20
-0.601594400475817
 10
3.017352520906509
 20
-0.624467002208235
 10
2.998456312419529
 20
-0.638946790951673
 10
2.983457189703879
 20
-0.64879876513201
 10
2.97262984429037
 20
-0.6486812876427641
 10
2.96877829951989
 20
-0.648639498100446
 72
     1
 10
2.96877829951989
 20
-0.648639498100446
 11
2.96877829951989
 21
-0.663691769004866
 72
     1
 10
2.96877829951989
 20
-0.663691769004866
 11
3.0146270289145
 21
-0.719646899613483
 72
     1
 10
3.0146270289145
 20
-0.7196468996134841
 11
3.02314178489381
 21
-0.7196468996134841
 97
        0
 92
        5
 93
        4
 72
     4
 94
        3
 73
     0
 74
     0
 95
       12
 96
        8
 40
0.0
 40
0.0
 40
0.0
 40
0.0
 40
0.0095359067847786
 40
0.0304032332031397
 40
0.0610092011482905
 40
0.089785101535176
 40
0.109350424257626
 40
0.109350424257626
 40
0.109350424257626
 40
0.109350424257626
 10
2.95803002911009
 20
-0.6212577454860671
 10
2.95935398169095
 20
-0.62073957644824
 10
2.96357512604295
 20
-0.619087503451803
 10
2.96877980421618
 20
-0.61122684035047
 10
2.97313498144511
 20
-0.599838165258027
 10
2.968730456194529
 20
-0.5878500576336601
 10
2.96310295653549
 20
-0.5834351383292621
 10
2.96082531770331
 20
-0.5816482716463741
 72
     1
 10
2.960651676209729
 20
-0.6212577454860671
 11
2.875696863191149
 21
-0.6212577454860671
 72
     1
 10
2.875696863191159
 20
-0.6212577454860671
 11
2.875696863191159
 21
-0.5816482716463741
 72
     1
 10
2.875696863191159
 20
-0.5816482716463741
 11
2.96082531770331
 21
-0.5816482716463741
 97
        0
 92
       23
 72
     0
 73
     1
 93
       22
 10
2.793174356129509
 20
-0.74120761189099
 10
2.781879600257939
 20
-0.7308250173843659
 10
2.61381514053174
 20
-0.7308250173843659
 10
2.61381514053174
 20
-0.7249566315606201
 10
2.62385492352869
 20
-0.7218259630084911
 10
2.62385492352869
 20
-0.55766505619637
 10
2.61381514053174
 20
-0.554534387644241
 10
2.61381514053174
 20
-0.548666001820495
 10
2.781879600257939
 20
-0.548666001820495
 10
2.793174356129509
 20
-0.538283407313871
 10
2.793174356129509
 20
-0.593356228251852
 10
2.781879600257939
 20
-0.582973633745228
 10
2.667678072612289
 20
-0.582973633745228
 10
2.667678072612289
 20
-0.6211195321386852
 10
2.74170014604722
 20
-0.6211195321386852
 10
2.752994901918789
 20
-0.6107369376320611
 10
2.752994901918789
 20
-0.665809758570043
 10
2.74170014604722
 20
-0.655427164063418
 10
2.667678072612289
 20
-0.655427164063418
 10
2.667678072612289
 20
-0.6965173854596328
 10
2.781879600257939
 20
-0.6965173854596328
 10
2.793174356129509
 20
-0.686134790953009
 97
        0
 92
       23
 72
     0
 73
     1
 93
       22
 10
2.585058726576249
 20
-0.74120761189099
 10
2.57376397070468
 20
-0.7308250173843659
 10
2.405699510978479
 20
-0.7308250173843659
 10
2.405699510978479
 20
-0.7249566315606201
 10
2.415739293975419
 20
-0.7218259630084911
 10
2.415739293975419
 20
-0.55766505619637
 10
2.405699510978479
 20
-0.554534387644241
 10
2.405699510978479
 20
-0.548666001820495
 10
2.57376397070468
 20
-0.548666001820495
 10
2.585058726576249
 20
-0.538283407313871
 10
2.585058726576249
 20
-0.593356228251852
 10
2.57376397070468
 20
-0.582973633745228
 10
2.459562443059029
 20
-0.582973633745228
 10
2.459562443059029
 20
-0.6211195321386852
 10
2.53358451649395
 20
-0.6211195321386852
 10
2.544879272365519
 20
-0.6107369376320611
 10
2.544879272365519
 20
-0.665809758570043
 10
2.53358451649395
 20
-0.655427164063418
 10
2.459562443059029
 20
-0.655427164063418
 10
2.459562443059029
 20
-0.6965173854596328
 10
2.57376397070468
 20
-0.6965173854596328
 10
2.585058726576249
 20
-0.686134790953009
 97
        0
 92
       23
 72
     0
 73
     1
 93
       30
 10
2.36926962864535
 20
-0.7241676860813679
 10
2.36912539991249
 20
-0.7308250173843659
 10
2.30442805412593
 20
-0.7308250173843659
 10
2.30442805412593
 20
-0.72481977764815
 10
2.311207780071759
 20
-0.72481977764815
 10
2.311207780071759
 20
-0.710618607876445
 10
2.21539558478627
 20
-0.614147746091827
 10
2.207549513642499
 20
-0.614147746091827
 10
2.207549513642499
 20
-0.715518670614145
 10
2.21644969551183
 20
-0.7241676860813679
 10
2.21630546677897
 20
-0.7308250173843659
 10
2.158679160850089
 20
-0.7308250173843659
 10
2.15853493211723
 20
-0.7241676860813679
 10
2.167435113986559
 20
-0.715518670614145
 10
2.167435113986559
 20
-0.5558077077458621
 10
2.156967653268019
 20
-0.5558077077458621
 10
2.156967653268019
 20
-0.548666001820495
 10
2.228147353050629
 20
-0.548666001820495
 10
2.22794903854294
 20
-0.553424560901879
 10
2.222199126440709
 20
-0.5561980720261581
 10
2.222199126440709
 20
-0.571452537364616
 10
2.32160042094002
 20
-0.66055610227438
 10
2.32160042094002
 20
-0.5554497600412509
 10
2.310898387093799
 20
-0.5554497600412509
 10
2.310898387093799
 20
-0.548666001820495
 10
2.370836907494569
 20
-0.548666001820495
 10
2.370836907494569
 20
-0.5558077077458621
 10
2.368241898205309
 20
-0.5558077077458621
 10
2.36036944677602
 20
-0.560716616749143
 10
2.36036944677602
 20
-0.715518670614145
 97
        0
 92
       23
 72
     0
 73
     1
 93
       12
 10
2.129021278309469
 20
-0.7254347073214971
 10
2.129021278309469
 20
-0.7308250173843659
 10
2.0633471478177
 20
-0.7308250173843659
 10
2.0633471478177
 20
-0.7254347073214971
 10
2.074291409389149
 20
-0.7164680886922281
 10
2.074291409389149
 20
-0.555164309189328
 10
2.0634928873264
 20
-0.555164309189328
 10
2.0634928873264
 20
-0.548666001820495
 10
2.12887553880077
 20
-0.548666001820495
 10
2.12887553880077
 20
-0.555164309189328
 10
2.11807701673803
 20
-0.555164309189328
 10
2.11807701673803
 20
-0.7164680886922281
 97
        0
 92
       21
 93
       16
 72
     4
 94
        3
 73
     0
 74
     0
 95
       20
 96
       16
 40
0.0
 40
0.0
 40
0.0
 40
0.0
 40
0.0381734241584024
 40
0.0816475976489086
 40
0.179409039507798
 40
0.288751144724337
 40
0.366062521971206
 40
0.4521610852648961
 40
0.542669537683521
 40
0.643121548958673
 40
0.729335954477966
 40
0.833157645872356
 40
0.9625907656562057
 40
1.0449798923101
 40
1.113042397856699
 40
1.113042397856699
 40
1.113042397856699
 40
1.113042397856699
 10
2.03462558701864
 20
-0.7026735539428099
 10
2.03014076734723
 20
-0.7060999274369661
 10
2.020548367395349
 20
-0.713428459540475
 10
1.99541366945564
 20
-0.7223131125054309
 10
1.959267156641199
 20
-0.7296209260952243
 10
1.91751760029635
 20
-0.7328794102427571
 10
1.876789049061929
 20
-0.7256935538426271
 10
1.84798509188497
 20
-0.700249675128844
 10
1.824641349989
 20
-0.66505816615397
 10
1.82712193432435
 20
-0.6223188191076491
 10
1.84169482286093
 20
-0.5814387193799381
 10
1.88117908758055
 20
-0.5500698933863181
 10
1.929014910149989
 20
-0.547930942175504
 10
1.970239652235999
 20
-0.54976371658547
 10
1.99128874447102
 20
-0.5569510025054571
 10
2.000811100167959
 20
-0.560202444052746
 72
     1
 10
2.000811100167959
 20
-0.560202444052746
 11
2.021328443164779
 21
-0.560202444052746
 72
     1
 10
2.021328443164779
 20
-0.560202444052746
 11
1.99633809579983
 21
-0.6054566003288951
 72
     1
 10
1.99633809579983
 20
-0.6054566003288951
 11
1.991979306084669
 21
-0.594133041190608
 72
     4
 94
        3
 73
     0
 74
     0
 95
       19
 96
       15
 40
0.0
 40
0.0
 40
0.0
 40
0.0
 40
0.0460326516190259
 40
0.103996703403937
 40
0.153883985561322
 40
0.211812021331028
 40
0.269536930726395
 40
0.335426703822029
 40
0.407336652221211
 40
0.468339698552081
 40
0.5335528218577151
 40
0.598010359727911
 40
0.666122862249115
 40
0.7239168728792232
 40
0.7239168728792232
 40
0.7239168728792232
 40
0.7239168728792232
 10
1.991979306084669
 20
-0.594133041190608
 10
1.98592613079354
 20
-0.591108309116888
 10
1.972250831777209
 20
-0.5842748517060401
 10
1.950503296875239
 20
-0.577241764281024
 10
1.925638647121959
 20
-0.577039429315395
 10
1.90256556148949
 20
-0.585508659879491
 10
1.87967373602768
 20
-0.601232415399574
 10
1.86967249398139
 20
-0.62919081986421
 10
1.867080492585969
 20
-0.6600463924809139
 10
1.886104330500529
 20
-0.684131553418095
 10
1.910822293415679
 20
-0.6995193506126381
 10
1.94043725686985
 20
-0.698901305799987
 10
1.969130292428759
 20
-0.6991632218047701
 10
1.98517514602477
 20
-0.6892125531467409
 10
1.99254010607391
 20
-0.68464496537225
 72
     1
 10
1.992540106073899
 20
-0.6846449653722491
 11
1.992540106073899
 21
-0.659503312317039
 72
     1
 10
1.992540106073899
 20
-0.659503312317039
 11
1.945555783412899
 21
-0.659503312317039
 72
     1
 10
1.945555783412899
 20
-0.659503312317039
 11
1.93241797605023
 21
-0.673742821717871
 72
     1
 10
1.93241797605023
 20
-0.673742821717871
 11
1.93241797605023
 21
-0.61967717069774
 72
     1
 10
1.93241797605023
 20
-0.61967717069774
 11
1.945555783412899
 21
-0.6339166800985721
 72
     1
 10
1.945555783412899
 20
-0.6339166800985721
 11
2.0364069931626
 21
-0.6339166800985721
 72
     1
 10
2.0364069931626
 20
-0.6339166800985721
 11
2.0364069931626
 21
-0.6385890273790231
 72
     1
 10
2.0364069931626
 20
-0.6385890273790231
 11
2.02571865701726
 21
-0.646153761242684
 72
     1
 10
2.02571865701726
 20
-0.646153761242684
 11
2.02571865701726
 21
-0.697327025679606
 72
     1
 10
2.02571865701726
 20
-0.697327025679606
 11
2.03462558701864
 21
-0.697327025679606
 72
     1
 10
2.03462558701864
 20
-0.697327025679606
 11
2.03462558701864
 21
-0.7026735539428099
 97
        0
 92
       23
 72
     0
 73
     1
 93
       30
 10
1.79933373291611
 20
-0.7241676860813679
 10
1.799189504183249
 20
-0.7308250173843659
 10
1.734492158396689
 20
-0.7308250173843659
 10
1.734492158396689
 20
-0.72481977764815
 10
1.74127188434251
 20
-0.72481977764815
 10
1.74127188434251
 20
-0.710618607876445
 10
1.645459689057019
 20
-0.614147746091827
 10
1.637613617913259
 20
-0.614147746091827
 10
1.637613617913259
 20
-0.715518670614145
 10
1.64651379978259
 20
-0.7241676860813679
 10
1.646369571049729
 20
-0.7308250173843659
 10
1.58874326512085
 20
-0.7308250173843659
 10
1.58859903638799
 20
-0.7241676860813679
 10
1.597499218257319
 20
-0.715518670614145
 10
1.597499218257319
 20
-0.5558077077458621
 10
1.58703175753877
 20
-0.5558077077458621
 10
1.58703175753877
 20
-0.548666001820495
 10
1.658211457321379
 20
-0.548666001820495
 10
1.658013142813699
 20
-0.553424560901879
 10
1.652263230711459
 20
-0.5561980720261581
 10
1.652263230711459
 20
-0.571452537364616
 10
1.751664525210779
 20
-0.66055610227438
 10
1.751664525210779
 20
-0.5554497600412509
 10
1.74096249136456
 20
-0.5554497600412509
 10
1.74096249136456
 20
-0.548666001820495
 10
1.80090101176533
 20
-0.548666001820495
 10
1.80090101176533
 20
-0.5558077077458621
 10
1.798306002476059
 20
-0.5558077077458621
 10
1.79043355104678
 20
-0.560716616749143
 10
1.79043355104678
 20
-0.715518670614145
 97
        0
 92
       23
 72
     0
 73
     1
 93
       22
 10
1.558850815415
 20
-0.74120761189099
 10
1.547556059543429
 20
-0.7308250173843659
 10
1.37949159981723
 20
-0.7308250173843659
 10
1.37949159981723
 20
-0.7249566315606201
 10
1.389531382814169
 20
-0.7218259630084911
 10
1.389531382814169
 20
-0.55766505619637
 10
1.37949159981723
 20
-0.554534387644241
 10
1.37949159981723
 20
-0.548666001820495
 10
1.547556059543429
 20
-0.548666001820495
 10
1.558850815415
 20
-0.538283407313871
 10
1.558850815415
 20
-0.593356228251852
 10
1.547556059543429
 20
-0.582973633745228
 10
1.43335453189777
 20
-0.582973633745228
 10
1.43335453189777
 20
-0.6211195321386852
 10
1.5073766053327
 20
-0.6211195321386852
 10
1.51867136120427
 20
-0.6107369376320611
 10
1.51867136120427
 20
-0.665809758570043
 10
1.5073766053327
 20
-0.655427164063418
 10
1.43335453189777
 20
-0.655427164063418
 10
1.43335453189777
 20
-0.6965173854596328
 10
1.547556059543429
 20
-0.6965173854596328
 10
1.558850815415
 20
-0.686134790953009
 97
        0
 75
     1
 76
     1
 47
0.0
 98
        1
 10
0.0
 20
0.0
1001
GradientColor1ACI
1070
     5
1001
GradientColor2ACI
1070
     2
1001
ACAD
1010
0.0
1020
0.0
1030
0.0
  0
HATCH
  5
F5B
330
D97
100
AcDbEntity
  8
TITLEBLOCK
 62
   154
100
AcDbHatch
 10
0.0
 20
0.0
 30
0.0
210
0.0
220
0.0
230
1.0
  2
SOLID
 70
     1
 71
     0
 91
        1
 92
        5
 93
        4
 72
     1
 10
2.875696863191159
 20
-0.5816482716463741
 11
2.875696863191159
 21
-0.6212577454860671
 72
     1
 10
2.875696863191159
 20
-0.6212577454860671
 11
2.95803002911009
 21
-0.6212577454860671
 72
     4
 94
        3
 73
     0
 74
     0
 95
       12
 96
        8
 40
0.0
 40
0.0
 40
0.0
 40
0.0
 40
0.0095359067847786
 40
0.0304032332031397
 40
0.0610092011482905
 40
0.089785101535176
 40
0.109350424257626
 40
0.109350424257626
 40
0.109350424257626
 40
0.109350424257626
 10
2.95803002911009
 20
-0.6212577454860671
 10
2.95935398169095
 20
-0.62073957644824
 10
2.96357512604295
 20
-0.619087503451803
 10
2.96877980421618
 20
-0.61122684035047
 10
2.97313498144511
 20
-0.599838165258027
 10
2.968730456194529
 20
-0.5878500576336601
 10
2.96310295653549
 20
-0.5834351383292621
 10
2.96082531770331
 20
-0.5816482716463741
 72
     1
 10
2.96082531770331
 20
-0.5816482716463741
 11
2.875696863191159
 21
-0.5816482716463741
 97
        0
 75
     1
 76
     1
 47
0.0
 98
        1
 10
0.0
 20
0.0
1001
GradientColor1ACI
1070
     5
1001
GradientColor2ACI
1070
     2
1001
ACAD
1010
0.0
1020
0.0
1030
0.0
  0
ENDBLK
  5
F5F
330
D97
100
AcDbEntity
  8
0
100
AcDbBlockEnd
  0
BLOCK
  5
10FA
330
10F8
100
AcDbEntity
  8
0
100
AcDbBlockBegin
  2
*D1
 70
     1
 10
0.0
 20
0.0
 30
0.0
  3
*D1
  1

  0
LINE
  5
1254
330
10F8
100
AcDbEntity
  8
Dimension
  6
ByBlock
 62
     0
370
    -2
100
AcDbLine
 10
4.470470428466799
 20
10.247540473938
 30
0.0
 11
4.470470428466799
 21
10.6650404858589
 31
0.0
  0
LINE
  5
1255
330
10F8
100
AcDbEntity
  8
Dimension
  6
ByBlock
 62
     0
370
    -2
100
AcDbLine
 10
14.0295295715332
 20
10.247540473938
 30
0.0
 11
14.0295295715332
 21
10.6650404858589
 31
0.0
  0
LINE
  5
1256
330
10F8
100
AcDbEntity
  8
Dimension
  6
ByBlock
 62
     0
370
    -2
100
AcDbLine
 10
4.650470428466799
 20
10.4850404858589
 30
0.0
 11
13.8495295715332
 21
10.4850404858589
 31
0.0
  0
SOLID
  5
1257
330
10F8
100
AcDbEntity
  8
Dimension
 62
     0
100
AcDbTrace
 10
4.650470428466799
 20
10.5150404858589
 30
0.0
 11
4.650470428466799
 21
10.4550404858589
 31
0.0
 12
4.470470428466799
 22
10.4850404858589
 32
0.0
 13
4.470470428466799
 23
10.4850404858589
 33
0.0
  0
SOLID
  5
1258
330
10F8
100
AcDbEntity
  8
Dimension
 62
     0
100
AcDbTrace
 10
13.8495295715332
 20
10.5150404858589
 30
0.0
 11
13.8495295715332
 21
10.4550404858589
 31
0.0
 12
14.0295295715332
 22
10.4850404858589
 32
0.0
 13
14.0295295715332
 23
10.4850404858589
 33
0.0
  0
MTEXT
  5
1259
330
10F8
100
AcDbEntity
  8
Dimension
 62
     0
100
AcDbMText
 10
9.249999999999998
 20
10.71218334300175
 30
0.0
 40
0.18
 41
0.0
 71
     5
 72
     1
  1
\A1;9.56 [242.8]
 73
     1
 44
1.0
1001
ACAD
1000
MTEXTBEGIN
1070
    73
1070
     1
1070
    44
1040
1.0
1070
    74
1070
     0
1000
MTEXTEND
  0
POINT
  5
125A
330
10F8
100
AcDbEntity
  8
Defpoints
 62
     0
100
AcDbPoint
 10
4.470470428466799
 20
10.185040473938
 30
0.0
  0
POINT
  5
125B
330
10F8
100
AcDbEntity
  8
Defpoints
 62
     0
100
AcDbPoint
 10
14.0295295715332
 20
10.185040473938
 30
0.0
  0
POINT
  5
125C
330
10F8
100
AcDbEntity
  8
Defpoints
 62
     0
100
AcDbPoint
 10
14.0295295715332
 20
10.4850404858589
 30
0.0
  0
ENDBLK
  5
10F9
330
10F8
100
AcDbEntity
  8
0
100
AcDbBlockEnd
  0
BLOCK
  5
1108
330
1106
100
AcDbEntity
  8
0
100
AcDbBlockBegin
  2
*D2
 70
     1
 10
0.0
 20
0.0
 30
0.0
  3
*D2
  1

  0
LINE
  5
125D
330
1106
100
AcDbEntity
  8
Dimension
  6
ByBlock
 62
     0
370
    -2
100
AcDbLine
 10
4.407970428466801
 20
10.185040473938
 30
0.0
 11
3.990470416545872
 21
10.185040473938
 31
0.0
  0
LINE
  5
125E
330
1106
100
AcDbEntity
  8
Dimension
  6
ByBlock
 62
     0
370
    -2
100
AcDbLine
 10
4.407970428466801
 20
2.814959287643431
 30
0.0
 11
3.990470416545874
 21
2.814959287643431
 31
0.0
  0
LINE
  5
125F
330
1106
100
AcDbEntity
  8
Dimension
  6
ByBlock
 62
     0
370
    -2
100
AcDbLine
 10
4.170470416545872
 20
10.005040473938
 30
0.0
 11
4.170470416545874
 21
2.994959287643431
 31
0.0
  0
SOLID
  5
1260
330
1106
100
AcDbEntity
  8
Dimension
 62
     0
100
AcDbTrace
 10
4.140470416545872
 20
10.005040473938
 30
0.0
 11
4.200470416545872
 21
10.005040473938
 31
0.0
 12
4.170470416545872
 22
10.185040473938
 32
0.0
 13
4.170470416545872
 23
10.185040473938
 33
0.0
  0
SOLID
  5
1261
330
1106
100
AcDbEntity
  8
Dimension
 62
     0
100
AcDbTrace
 10
4.140470416545873
 20
2.994959287643431
 30
0.0
 11
4.200470416545874
 21
2.994959287643431
 31
0.0
 12
4.170470416545874
 22
2.814959287643431
 32
0.0
 13
4.170470416545874
 23
2.814959287643431
 33
0.0
  0
MTEXT
  5
1262
330
1106
100
AcDbEntity
  8
Dimension
 62
     0
100
AcDbMText
 10
3.943327559403017
 20
6.499999880790715
 30
0.0
 40
0.18
 41
0.0
 71
     5
 72
     1
  1
\A1;7.37 [187.2]
 11
0.0000000000000001
 21
1.0
 31
0.0
 73
     1
 44
1.0
1001
ACAD
1000
MTEXTBEGIN
1070
    73
1070
     1
1070
    44
1040
1.0
1070
    74
1070
     0
1000
MTEXTEND
  0
POINT
  5
1263
330
1106
100
AcDbEntity
  8
Defpoints
 62
     0
100
AcDbPoint
 10
4.470470428466801
 20
10.185040473938
 30
0.0
  0
POINT
  5
1264
330
1106
100
AcDbEntity
  8
Defpoints
 62
     0
100
AcDbPoint
 10
4.470470428466801
 20
2.814959287643431
 30
0.0
  0
POINT
  5
1265
330
1106
100
AcDbEntity
  8
Defpoints
 62
     0
100
AcDbPoint
 10
4.170470416545874
 20
2.814959287643431
 30
0.0
  0
ENDBLK
  5
1107
330
1106
100
AcDbEntity
  8
0
100
AcDbBlockEnd
  0
BLOCK
  5
1115
330
1113
100
AcDbEntity
  8
0
100
AcDbBlockBegin
  2
*D3
 70
     1
 10
0.0
 20
0.0
 30
0.0
  3
*D3
  1

  0
LINE
  5
124B
330
1113
100
AcDbEntity
  8
Dimension
  6
ByBlock
 62
     0
370
    -2
100
AcDbLine
 10
5.720470428466799
 20
8.87254047393799
 30
0.0
 11
5.720470428466799
 21
8.295733834437154
 31
0.0
  0
LINE
  5
124C
330
1113
100
AcDbEntity
  8
Dimension
  6
ByBlock
 62
     0
370
    -2
100
AcDbLine
 10
12.7795295715332
 20
8.87254047393799
 30
0.0
 11
12.7795295715332
 21
8.295733834437154
 31
0.0
  0
LINE
  5
124D
330
1113
100
AcDbEntity
  8
Dimension
  6
ByBlock
 62
     0
370
    -2
100
AcDbLine
 10
5.900470428466799
 20
8.475733834437154
 30
0.0
 11
12.5995295715332
 21
8.475733834437154
 31
0.0
  0
SOLID
  5
124E
330
1113
100
AcDbEntity
  8
Dimension
 62
     0
100
AcDbTrace
 10
5.900470428466799
 20
8.505733834437153
 30
0.0
 11
5.900470428466799
 21
8.445733834437154
 31
0.0
 12
5.720470428466799
 22
8.475733834437154
 32
0.0
 13
5.720470428466799
 23
8.475733834437154
 33
0.0
  0
SOLID
  5
124F
330
1113
100
AcDbEntity
  8
Dimension
 62
     0
100
AcDbTrace
 10
12.5995295715332
 20
8.505733834437153
 30
0.0
 11
12.5995295715332
 21
8.445733834437154
 31
0.0
 12
12.7795295715332
 22
8.475733834437154
 32
0.0
 13
12.7795295715332
 23
8.475733834437154
 33
0.0
  0
MTEXT
  5
1250
330
1113
100
AcDbEntity
  8
Dimension
 62
     0
100
AcDbMText
 10
9.25
 20
8.70287669158001
 30
0.0
 40
0.18
 41
0.0
 71
     5
 72
     1
  1
\A1;7.06 [179.3]
 73
     1
 44
1.0
1001
ACAD
1000
MTEXTBEGIN
1070
    73
1070
     1
1070
    44
1040
1.0
1070
    74
1070
     0
1000
MTEXTEND
  0
POINT
  5
1251
330
1113
100
AcDbEntity
  8
Defpoints
 62
     0
100
AcDbPoint
 10
5.720470428466799
 20
8.93504047393799
 30
0.0
  0
POINT
  5
1252
330
1113
100
AcDbEntity
  8
Defpoints
 62
     0
100
AcDbPoint
 10
12.7795295715332
 20
8.93504047393799
 30
0.0
  0
POINT
  5
1253
330
1113
100
AcDbEntity
  8
Defpoints
 62
     0
100
AcDbPoint
 10
12.7795295715332
 20
8.475733834437154
 30
0.0
  0
ENDBLK
  5
1114
330
1113
100
AcDbEntity
  8
0
100
AcDbBlockEnd
  0
BLOCK
  5
1122
330
1120
100
AcDbEntity
  8
0
100
AcDbBlockBegin
  2
*D4
 70
     1
 10
0.0
 20
0.0
 30
0.0
  3
*D4
  1

  0
LINE
  5
1242
330
1120
100
AcDbEntity
  8
Dimension
  6
ByBlock
 62
     0
370
    -2
100
AcDbLine
 10
5.782970428466801
 20
4.064959526062011
 30
0.0
 11
6.327237143939258
 21
4.064959526062012
 31
0.0
  0
LINE
  5
1243
330
1120
100
AcDbEntity
  8
Dimension
  6
ByBlock
 62
     0
370
    -2
100
AcDbLine
 10
5.782970428466801
 20
8.935040473937993
 30
0.0
 11
6.327237143939257
 21
8.935040473937993
 31
0.0
  0
LINE
  5
1244
330
1120
100
AcDbEntity
  8
Dimension
  6
ByBlock
 62
     0
370
    -2
100
AcDbLine
 10
6.147237143939258
 20
4.244959526062012
 30
0.0
 11
6.147237143939257
 21
8.755040473937993
 31
0.0
  0
SOLID
  5
1245
330
1120
100
AcDbEntity
  8
Dimension
 62
     0
100
AcDbTrace
 10
6.117237143939258
 20
4.244959526062012
 30
0.0
 11
6.177237143939258
 21
4.244959526062012
 31
0.0
 12
6.147237143939258
 22
4.064959526062012
 32
0.0
 13
6.147237143939258
 23
4.064959526062012
 33
0.0
  0
SOLID
  5
1246
330
1120
100
AcDbEntity
  8
Dimension
 62
     0
100
AcDbTrace
 10
6.117237143939257
 20
8.755040473937993
 30
0.0
 11
6.177237143939257
 21
8.755040473937993
 31
0.0
 12
6.147237143939257
 22
8.935040473937993
 32
0.0
 13
6.147237143939257
 23
8.935040473937993
 33
0.0
  0
MTEXT
  5
1247
330
1120
100
AcDbEntity
  8
Dimension
 62
     0
100
AcDbMText
 10
5.9200942867964
 20
6.5
 30
0.0
 40
0.18
 41
0.0
 71
     5
 72
     1
  1
\A1;4.87 [123.7]
 11
0.0000000000000001
 21
1.0
 31
0.0
 73
     1
 44
1.0
1001
ACAD
1000
MTEXTBEGIN
1070
    73
1070
     1
1070
    44
1040
1.0
1070
    74
1070
     0
1000
MTEXTEND
  0
POINT
  5
1248
330
1120
100
AcDbEntity
  8
Defpoints
 62
     0
100
AcDbPoint
 10
5.720470428466801
 20
4.064959526062011
 30
0.0
  0
POINT
  5
1249
330
1120
100
AcDbEntity
  8
Defpoints
 62
     0
100
AcDbPoint
 10
5.720470428466801
 20
8.935040473937993
 30
0.0
  0
POINT
  5
124A
330
1120
100
AcDbEntity
  8
Defpoints
 62
     0
100
AcDbPoint
 10
6.147237143939257
 20
8.935040473937993
 30
0.0
  0
ENDBLK
  5
1121
330
1120
100
AcDbEntity
  8
0
100
AcDbBlockEnd
  0
ENDSEC
  0
SECTION
  2
ENTITIES
  0
LINE
  5
127
330
1A
100
AcDbEntity
  8
TITLEBLOCK
100
AcDbLine
 10
15.2476840886203
 20
0.405400798947697
 30
0.0
 11
18.4986085328878
 21
0.405400798947697
 31
0.0
  0
LINE
  5
128
330
1A
100
AcDbEntity
  8
TITLEBLOCK
100
AcDbLine
 10
15.2476840886203
 20
-0.0000000000000067
 30
0.0
 11
15.2476840886203
 21
0.8108015978954
 31
0.0
  0
TEXT
  5
12B
330
1A
100
AcDbEntity
  8
TITLEBLOCK
100
AcDbText
 10
15.2870668972779
 20
0.340154470370751
 30
0.0
 40
0.0354772834646045
  1
INFORMATION
100
AcDbText
  0
TEXT
  5
12C
330
1A
100
AcDbEntity
  8
TITLEBLOCK
100
AcDbText
 10
15.2870668972779
 20
0.7455552693184531
 30
0.0
 40
0.0354772834646045
  1
DRAWING NAME
100
AcDbText
  0
TEXT
  5
12D
330
1A
100
AcDbEntity
  8
TITLEBLOCK
100
AcDbText
 10
10.94258599312539
 20
0.1020982271269747
 30
0.0
 40
0.1
  1
www.hmiadapterplate.com
 72
     1
 11
11.8973478978873
 21
0.0687648937936414
 31
0.0
100
AcDbText
 73
     1
  0
LINE
  5
12E
330
1A
100
AcDbEntity
  8
TITLEBLOCK
100
AcDbLine
 10
13.1193298941448
 20
0.709451398158473
 30
0.0
 11
15.2476840886203
 21
0.709451398158473
 31
0.0
  0
LINE
  5
12F
330
1A
100
AcDbEntity
  8
TITLEBLOCK
100
AcDbLine
 10
13.5247306930925
 20
-0.0000000000000067
 30
0.0
 11
13.5247306930925
 21
0.709451398158473
 31
0.0
  0
TEXT
  5
130
330
1A
100
AcDbEntity
  8
TITLEBLOCK
100
AcDbText
 10
13.99790622472569
 20
0.734817302573736
 30
0.0
 40
0.0506183909064019
  1
REVISIONS
 72
     1
 11
14.1835069913825
 21
0.7601264980269371
 31
0.0
100
AcDbText
 73
     2
  0
LINE
  5
131
330
1A
100
AcDbEntity
  8
TITLEBLOCK
100
AcDbLine
 10
13.1193298941448
 20
-0.0000000000000067
 30
0.0
 11
13.1193298941448
 21
0.8108015978954
 31
0.0
  0
LINE
  5
132
330
1A
100
AcDbEntity
  8
TITLEBLOCK
100
AcDbLine
 10
13.1193298941448
 20
0.608101198421548
 30
0.0
 11
15.2476840886203
 21
0.608101198421548
 31
0.0
  0
LINE
  5
133
330
1A
100
AcDbEntity
  8
TITLEBLOCK
100
AcDbLine
 10
13.1193298941448
 20
0.506750998684622
 30
0.0
 11
15.2476840886203
 21
0.506750998684622
 31
0.0
  0
LINE
  5
134
330
1A
100
AcDbEntity
  8
TITLEBLOCK
100
AcDbLine
 10
13.1193298941448
 20
0.405400798947697
 30
0.0
 11
15.2476840886203
 21
0.405400798947697
 31
0.0
  0
LINE
  5
135
330
1A
100
AcDbEntity
  8
TITLEBLOCK
100
AcDbLine
 10
13.1193298941448
 20
0.304050599210771
 30
0.0
 11
15.2476840886203
 21
0.304050599210771
 31
0.0
  0
LINE
  5
136
330
1A
100
AcDbEntity
  8
TITLEBLOCK
100
AcDbLine
 10
13.1193298941448
 20
0.202700399473845
 30
0.0
 11
15.2476840886203
 21
0.202700399473845
 31
0.0
  0
LINE
  5
137
330
1A
100
AcDbEntity
  8
TITLEBLOCK
100
AcDbLine
 10
13.1193298941448
 20
0.101350199736919
 30
0.0
 11
15.2476840886203
 21
0.101350199736919
 31
0.0
  0
LINE
  5
138
330
1A
100
AcDbEntity
  8
TITLEBLOCK
100
AcDbLine
 10
14.8422832896725
 20
0.709451398158473
 30
0.0
 11
14.8422832896725
 21
-0.0000000000000067
 31
0.0
  0
TEXT
  5
13A
330
1A
100
AcDbEntity
  8
TITLEBLOCK
100
AcDbText
 10
14.96641315335034
 20
0.6364792543478864
 30
0.0
 40
0.0445940878842474
  1
DATE
 72
     1
 11
15.0449836891464
 21
0.6587762982900101
 31
0.0
100
AcDbText
 73
     2
  0
TEXT
  5
13C
330
1A
100
AcDbEntity
  8
TITLEBLOCK
100
AcDbText
 10
13.97858653991441
 20
0.6364792543478864
 30
0.0
 40
0.0445940878842474
  1
DESCRIPTION
 72
     1
 11
14.1835069913825
 21
0.6587762982900101
 31
0.0
100
AcDbText
 73
     2
  0
LINE
  5
142
330
1A
100
AcDbEntity
  8
TITLEBLOCK
100
AcDbLine
 10
18.5
 20
0.8108015978954
 30
0.0
 11
10.6251251349718
 21
0.8108015978954
 31
0.0
  0
LINE
  5
143
330
1A
100
AcDbEntity
  8
TITLEBLOCK
100
AcDbLine
 10
10.6251251349718
 20
0.8108015978954
 30
0.0
 11
10.6251251349718
 21
-0.0000000000000067
 31
0.0
  0
LINE
  5
144
330
1A
100
AcDbEntity
  8
TITLEBLOCK
100
AcDbLine
 10
0.0
 20
12.5
 30
0.0
 11
18.5
 21
12.5
 31
0.0
  0
LINE
  5
145
330
1A
100
AcDbEntity
  8
TITLEBLOCK
100
AcDbLine
 10
18.5
 20
12.5
 30
0.0
 11
18.5
 21
-0.0000000000000067
 31
0.0
  0
LINE
  5
146
330
1A
100
AcDbEntity
  8
TITLEBLOCK
100
AcDbLine
 10
18.5
 20
0.0
 30
0.0
 11
0.0
 21
0.0
 31
0.0
  0
LINE
  5
147
330
1A
100
AcDbEntity
  8
TITLEBLOCK
100
AcDbLine
 10
0.0
 20
0.0
 30
0.0
 11
0.0
 21
12.5
 31
0.0
  0
MTEXT
  5
5D2
330
1A
100
AcDbEntity
  8
0
100
AcDbMText
 10
4.618036763358779
 20
0.0976460229007634
 30
0.0
 40
0.05
 41
6.659291358545449
 71
     1
 72
     5
  1
{THIS DRAWING IS PROPERTY OF HEARN ENGINEERING, LLC.  THIS DRAWING MAY ONLY BE USED FOR MATERIAL SUPPLIED BY HEARN ENGINEERING, LLC.}
 73
     1
 44
1.0
1001
ACAD
1000
MTEXTBEGIN
1070
    73
1070
     1
1070
    44
1040
1.0
1070
    74
1070
     0
1000
MTEXTEND
  0
INSERT
  5
F60
330
1A
100
AcDbEntity
  8
0
100
AcDbBlockReference
  2
A$C3473086C
 10
11.1887461119508
 20
0.7293243347085859
 30
0.0
 41
0.5
 42
0.5
 43
0.5
  0
TEXT
  5
FDB
330
1A
100
AcDbEntity
  8
TITLEBLOCK
100
AcDbText
 10
17.7422661557847
 20
0.340154470370751
 30
0.0
 40
0.0354772834646045
  1
UNITS
100
AcDbText
  0
LINE
  5
FDC
330
1A
100
AcDbEntity
  8
TITLEBLOCK
100
AcDbLine
 10
17.702883347127
 20
-0.0000000000000066
 30
0.0
 11
17.702883347127
 21
0.405400798947697
 31
0.0
  0
MTEXT
  5
1004
330
1A
100
AcDbEntity
  8
Text
100
AcDbMText
 10
17.8301992585067
 20
0.199999988079063
 30
0.0
 40
0.075000002980232
 41
2.75
 71
     1
 72
     5
  1
{INCHES}
 73
     1
 44
1.0
1001
ACAD
1000
MTEXTBEGIN
1070
    73
1070
     1
1070
    44
1040
1.0
1070
    74
1070
     0
1000
MTEXTEND
  0
LINE
  5
10C8
330
1A
100
AcDbEntity
  8
Plate
100
AcDbLine
 10
4.470470428466799
 20
2.81495928764343
 30
0.0
 11
4.470470428466799
 21
10.185040473938
 31
0.0
  0
LINE
  5
10C9
330
1A
100
AcDbEntity
  8
Plate
100
AcDbLine
 10
4.470470428466799
 20
10.185040473938
 30
0.0
 11
14.0295295715332
 21
10.185040473938
 31
0.0
  0
LINE
  5
10CA
330
1A
100
AcDbEntity
  8
Plate
100
AcDbLine
 10
14.0295295715332
 20
10.185040473938
 30
0.0
 11
14.0295295715332
 21
2.81495928764343
 31
0.0
  0
LINE
  5
10CB
330
1A
100
AcDbEntity
  8
Plate
100
AcDbLine
 10
14.0295295715332
 20
2.81495928764343
 30
0.0
 11
4.470470428466799
 21
2.81495928764343
 31
0.0
  0
LINE
  5
10CC
330
1A
100
AcDbEntity
  8
Plate
100
AcDbLine
 10
5.720470428466799
 20
4.064959526062009
 30
0.0
 11
5.720470428466799
 21
8.93504047393799
 31
0.0
  0
LINE
  5
10CD
330
1A
100
AcDbEntity
  8
Plate
100
AcDbLine
 10
5.720470428466799
 20
8.93504047393799
 30
0.0
 11
12.7795295715332
 21
8.93504047393799
 31
0.0
  0
LINE
  5
10CE
330
1A
100
AcDbEntity
  8
Plate
100
AcDbLine
 10
12.7795295715332
 20
8.93504047393799
 30
0.0
 11
12.7795295715332
 21
4.064959526062009
 31
0.0
  0
LINE
  5
10CF
330
1A
100
AcDbEntity
  8
Plate
100
AcDbLine
 10
12.7795295715332
 20
4.064959526062009
 30
0.0
 11
5.720470428466799
 21
4.064959526062009
 31
0.0
  0
HATCH
  5
10D0
330
1A
100
AcDbEntity
  8
Plate
 62
     9
100
AcDbHatch
 10
0.0
 20
0.0
 30
0.0
210
0.0
220
0.0
230
1.0
  2
DOTS
 70
     0
 71
     0
 91
        3
 92
        5
 93
        0
 97
        0
 92
        5
 93
        4
 72
     1
 10
4.470470428466799
 20
2.81495928764343
 11
4.470470428466799
 21
10.185040473938
 72
     1
 10
4.470470428466799
 20
10.185040473938
 11
14.0295295715332
 21
10.185040473938
 72
     1
 10
14.0295295715332
 20
10.185040473938
 11
14.0295295715332
 21
2.81495928764343
 72
     1
 10
14.0295295715332
 20
2.81495928764343
 11
4.470470428466798
 21
2.81495928764343
 97
        0
 92
        5
 93
        4
 72
     1
 10
5.720470428466799
 20
4.064959526062009
 11
5.720470428466799
 21
8.93504047393799
 72
     1
 10
5.720470428466799
 20
8.93504047393799
 11
12.7795295715332
 21
8.93504047393799
 72
     1
 10
12.7795295715332
 20
8.93504047393799
 11
12.7795295715332
 21
4.064959526062009
 72
     1
 10
12.7795295715332
 20
4.064959526062009
 11
5.720470428466799
 21
4.064959526062009
 97
        0
 75
     0
 76
     1
 52
0.0
 41
5.0
 77
     0
 78
     1
 53
0.0
 43
0.0
 44
0.0
 45
0.15625
 46
0.3125
 79
     2
 49
0.0
 49
-0.3125
 47
0.0
 98
        1
 10
0.0
 20
0.0
1001
ACAD
1010
0.0
1020
0.0
1030
0.0
  0
LINE
  5
10D1
330
1A
100
AcDbEntity
  8
Gasket
100
AcDbLine
 10
4.482970237731929
 20
2.827459335327149
 30
0.0
 11
4.482970237731929
 21
10.1725406646729
 31
0.0
  0
LINE
  5
10D2
330
1A
100
AcDbEntity
  8
Gasket
100
AcDbLine
 10
4.482970237731929
 20
10.1725406646729
 30
0.0
 11
14.0170297622681
 21
10.1725406646729
 31
0.0
  0
LINE
  5
10D3
330
1A
100
AcDbEntity
  8
Gasket
100
AcDbLine
 10
14.0170297622681
 20
10.1725406646729
 30
0.0
 11
14.0170297622681
 21
2.827459335327149
 31
0.0
  0
LINE
  5
10D4
330
1A
100
AcDbEntity
  8
Gasket
100
AcDbLine
 10
14.0170297622681
 20
2.827459335327149
 30
0.0
 11
4.482970237731929
 21
2.827459335327149
 31
0.0
  0
LINE
  5
10D5
330
1A
100
AcDbEntity
  8
Gasket
100
AcDbLine
 10
4.982970237731929
 20
3.327459335327149
 30
0.0
 11
4.982970237731929
 21
9.672540664672849
 31
0.0
  0
LINE
  5
10D6
330
1A
100
AcDbEntity
  8
Gasket
100
AcDbLine
 10
4.982970237731929
 20
9.672540664672849
 30
0.0
 11
13.5170297622681
 21
9.672540664672849
 31
0.0
  0
LINE
  5
10D7
330
1A
100
AcDbEntity
  8
Gasket
100
AcDbLine
 10
13.5170297622681
 20
9.672540664672849
 30
0.0
 11
13.5170297622681
 21
3.327459335327149
 31
0.0
  0
LINE
  5
10D8
330
1A
100
AcDbEntity
  8
Gasket
100
AcDbLine
 10
13.5170297622681
 20
3.327459335327149
 30
0.0
 11
4.982970237731929
 21
3.327459335327149
 31
0.0
  0
HATCH
  5
10D9
330
1A
100
AcDbEntity
  8
Gasket
100
AcDbHatch
 10
0.0
 20
0.0
 30
0.0
210
0.0
220
0.0
230
1.0
  2
LINE
 70
     0
 71
     0
 91
        3
 92
        5
 93
        0
 97
        0
 92
        5
 93
        4
 72
     1
 10
4.482970237731929
 20
2.827459335327149
 11
4.482970237731929
 21
10.1725406646729
 72
     1
 10
4.482970237731929
 20
10.1725406646729
 11
14.0170297622681
 21
10.1725406646729
 72
     1
 10
14.0170297622681
 20
10.1725406646729
 11
14.0170297622681
 21
2.82745933532715
 72
     1
 10
14.0170297622681
 20
2.827459335327149
 11
4.482970237731928
 21
2.827459335327149
 97
        0
 92
        5
 93
        4
 72
     1
 10
4.982970237731929
 20
3.327459335327149
 11
4.982970237731929
 21
9.672540664672849
 72
     1
 10
4.982970237731929
 20
9.672540664672849
 11
13.5170297622681
 21
9.672540664672849
 72
     1
 10
13.5170297622681
 20
9.672540664672849
 11
13.5170297622681
 21
3.32745933532715
 72
     1
 10
13.5170297622681
 20
3.327459335327149
 11
4.982970237731928
 21
3.327459335327149
 97
        0
 75
     0
 76
     1
 52
45.0
 41
1.0
 77
     0
 78
     1
 53
45.0
 43
0.0
 44
0.0
 45
-0.0883883476483184
 46
0.0883883476483184
 79
     0
 47
0.0
 98
        1
 10
0.0
 20
0.0
1001
ACAD
1010
0.0
1020
0.0
1030
0.0
  0
CIRCLE
  5
10DA
330
1A
100
AcDbEntity
  8
Stud
100
AcDbCircle
 10
5.095470428466799
 20
3.43995928764343
 30
0.0
 40
0.0949999988079071
  0
POINT
  5
10DB
330
1A
100
AcDbEntity
  8
Stud
100
AcDbPoint
 10
5.095470428466799
 20
3.43995928764343
 30
0.0
 50
360.0
  0
CIRCLE
  5
10DC
330
1A
100
AcDbEntity
  8
Stud
100
AcDbCircle
 10
13.4045295715332
 20
3.43995928764343
 30
0.0
 40
0.0949999988079071
  0
POINT
  5
10DD
330
1A
100
AcDbEntity
  8
Stud
100
AcDbPoint
 10
13.4045295715332
 20
3.43995928764343
 30
0.0
 50
360.0
  0
CIRCLE
  5
10DE
330
1A
100
AcDbEntity
  8
Stud
100
AcDbCircle
 10
13.4045295715332
 20
9.56004047393799
 30
0.0
 40
0.0949999988079071
  0
POINT
  5
10DF
330
1A
100
AcDbEntity
  8
Stud
100
AcDbPoint
 10
13.4045295715332
 20
9.56004047393799
 30
0.0
 50
360.0
  0
CIRCLE
  5
10E0
330
1A
100
AcDbEntity
  8
Stud
100
AcDbCircle
 10
5.095470428466799
 20
9.56004047393799
 30
0.0
 40
0.0949999988079071
  0
POINT
  5
10E1
330
1A
100
AcDbEntity
  8
Stud
100
AcDbPoint
 10
5.095470428466799
 20
9.56004047393799
 30
0.0
 50
360.0
  0
CIRCLE
  5
10E2
330
1A
100
AcDbEntity
  8
Stud
100
AcDbCircle
 10
9.25
 20
3.43995928764343
 30
0.0
 40
0.0949999988079071
  0
POINT
  5
10E3
330
1A
100
AcDbEntity
  8
Stud
100
AcDbPoint
 10
9.25
 20
3.43995928764343
 30
0.0
 50
360.0
  0
CIRCLE
  5
10E4
330
1A
100
AcDbEntity
  8
Stud
100
AcDbCircle
 10
9.25
 20
9.56004047393799
 30
0.0
 40
0.0949999988079071
  0
POINT
  5
10E5
330
1A
100
AcDbEntity
  8
Stud
100
AcDbPoint
 10
9.25
 20
9.56004047393799
 30
0.0
 50
360.0
  0
CIRCLE
  5
10E6
330
1A
100
AcDbEntity
  8
Stud
100
AcDbCircle
 10
5.095470428466799
 20
6.5
 30
0.0
 40
0.0949999988079071
  0
POINT
  5
10E7
330
1A
100
AcDbEntity
  8
Stud
100
AcDbPoint
 10
5.095470428466799
 20
6.5
 30
0.0
 50
360.0
  0
CIRCLE
  5
10E8
330
1A
100
AcDbEntity
  8
Stud
100
AcDbCircle
 10
13.4045295715332
 20
6.5
 30
0.0
 40
0.0949999988079071
  0
POINT
  5
10E9
330
1A
100
AcDbEntity
  8
Stud
100
AcDbPoint
 10
13.4045295715332
 20
6.5
 30
0.0
 50
360.0
  0
HATCH
  5
10EA
330
1A
100
AcDbEntity
  8
BackPlate
100
AcDbHatch
 10
0.0
 20
0.0
 30
0.0
210
0.0
220
0.0
230
1.0
  2
LINE
 70
     0
 71
     0
 91
        1
 92
        5
 93
        0
 97
        0
 75
     0
 76
     1
 52
315.0
 41
1.0
 77
     0
 78
     1
 53
315.0
 43
0.0
 44
0.0
 45
0.0883883476483185
 46
0.0883883476483184
 79
     0
 47
0.0
 98
        1
 10
0.0
 20
0.0
1001
ACAD
1010
0.0
1020
0.0
1030
0.0
  0
LINE
  5
10EB
330
1A
100
AcDbEntity
  8
PrevBezel
100
AcDbLine
 10
5.401572704315189
 20
3.746061563491819
 30
0.0
 11
5.401572704315189
 21
9.253938674926759
 31
0.0
  0
LINE
  5
10EC
330
1A
100
AcDbEntity
  8
PrevBezel
100
AcDbLine
 10
5.401572704315189
 20
9.253938674926759
 30
0.0
 11
13.0984268188477
 21
9.253938674926759
 31
0.0
  0
LINE
  5
10ED
330
1A
100
AcDbEntity
  8
PrevBezel
100
AcDbLine
 10
13.0984268188477
 20
9.253938674926759
 30
0.0
 11
13.0984268188477
 21
3.746061563491819
 31
0.0
  0
LINE
  5
10EE
330
1A
100
AcDbEntity
  8
PrevBezel
100
AcDbLine
 10
13.0984268188477
 20
3.746061563491819
 30
0.0
 11
5.401572704315189
 21
3.746061563491819
 31
0.0
  0
LINE
  5
10EF
330
1A
100
AcDbEntity
  8
PrevCutout
100
AcDbLine
 10
5.720470428466799
 20
4.064959526062009
 30
0.0
 11
5.720470428466799
 21
8.93504047393799
 31
0.0
  0
LINE
  5
10F0
330
1A
100
AcDbEntity
  8
PrevCutout
100
AcDbLine
 10
5.720470428466799
 20
8.93504047393799
 30
0.0
 11
12.7795295715332
 21
8.93504047393799
 31
0.0
  0
LINE
  5
10F1
330
1A
100
AcDbEntity
  8
PrevCutout
100
AcDbLine
 10
12.7795295715332
 20
8.93504047393799
 30
0.0
 11
12.7795295715332
 21
4.064959526062009
 31
0.0
  0
LINE
  5
10F2
330
1A
100
AcDbEntity
  8
PrevCutout
100
AcDbLine
 10
12.7795295715332
 20
4.064959526062009
 30
0.0
 11
5.720470428466799
 21
4.064959526062009
 31
0.0
  0
LINE
  5
10F3
330
1A
100
AcDbEntity
  8
NewBezel
100
AcDbLine
 10
5.401572704315189
 20
3.746061563491819
 30
0.0
 11
5.401572704315189
 21
9.253938674926759
 31
0.0
  0
LINE
  5
10F4
330
1A
100
AcDbEntity
  8
NewBezel
100
AcDbLine
 10
5.401572704315189
 20
9.253938674926759
 30
0.0
 11
13.0984268188477
 21
9.253938674926759
 31
0.0
  0
LINE
  5
10F5
330
1A
100
AcDbEntity
  8
NewBezel
100
AcDbLine
 10
13.0984268188477
 20
9.253938674926759
 30
0.0
 11
13.0984268188477
 21
3.746061563491819
 31
0.0
  0
LINE
  5
10F6
330
1A
100
AcDbEntity
  8
NewBezel
100
AcDbLine
 10
13.0984268188477
 20
3.746061563491819
 30
0.0
 11
5.401572704315189
 21
3.746061563491819
 31
0.0
  0
DIMENSION
  5
10F7
330
1A
100
AcDbEntity
  8
Dimension
100
AcDbDimension
  2
*D1
 10
14.0295295715332
 20
10.4850404858589
 30
0.0
 11
9.249999999999998
 21
10.71218334300175
 31
0.0
 70
    32
 71
     5
 42
9.559059143066399
  3
DimStyle
100
AcDbAlignedDimension
 13
4.470470428466799
 23
10.185040473938
 33
0.0
 14
14.0295295715332
 24
10.185040473938
 34
0.0
100
AcDbRotatedDimension
1001
ACAD
1000
DSTYLE
1002
{
1070
   171
1070
     1
1070
   170
1070
     1
1002
}
  0
DIMENSION
  5
1105
330
1A
100
AcDbEntity
  8
Dimension
100
AcDbDimension
  2
*D2
 10
4.170470416545874
 20
2.814959287643431
 30
0.0
 11
3.943327559403017
 21
6.499999880790715
 31
0.0
 70
    32
 71
     5
 42
7.37008118629457
  3
DimStyle
100
AcDbAlignedDimension
 13
4.470470428466799
 23
10.185040473938
 33
0.0
 14
4.470470428466799
 24
2.81495928764343
 34
0.0
 50
90.0
100
AcDbRotatedDimension
1001
ACAD
1000
DSTYLE
1002
{
1070
   171
1070
     1
1070
   170
1070
     1
1002
}
  0
DIMENSION
  5
1112
330
1A
100
AcDbEntity
  8
Dimension
100
AcDbDimension
  2
*D3
 10
12.7795295715332
 20
8.475733834437154
 30
0.0
 11
9.25
 21
8.475733834437154
 31
0.0
 70
   160
 71
     5
 42
7.059059143066398
  3
DimStyle
100
AcDbAlignedDimension
 13
5.720470428466799
 23
8.93504047393799
 33
0.0
 14
12.7795295715332
 24
8.93504047393799
 34
0.0
100
AcDbRotatedDimension
1001
ACAD
1000
DSTYLE
1002
{
1070
   171
1070
     1
1070
   170
1070
     1
1002
}
  0
DIMENSION
  5
111F
330
1A
100
AcDbEntity
  8
Dimension
100
AcDbDimension
  2
*D4
 10
6.147237143939257
 20
8.935040473937993
 30
0.0
 11
6.147237143939257
 21
6.5
 31
0.0
 70
   160
 71
     5
 42
4.87008094787598
  3
DimStyle
100
AcDbAlignedDimension
 13
5.720470428466799
 23
4.064959526062009
 33
0.0
 14
5.720470428466799
 24
8.93504047393799
 34
0.0
 50
90.0
100
AcDbRotatedDimension
1001
ACAD
1000
DSTYLE
1002
{
1070
   171
1070
     1
1070
   170
1070
     1
1002
}
  0
LINE
  5
112C
330
1A
100
AcDbEntity
  8
BackPlate
100
AcDbLine
 10
0.25
 20
0.875
 30
0.0
 11
2.0
 21
0.875
 31
0.0
  0
LINE
  5
112D
330
1A
100
AcDbEntity
  8
Gasket
100
AcDbLine
 10
0.25
 20
0.625
 30
0.0
 11
2.0
 21
0.625
 31
0.0
  0
LINE
  5
112E
330
1A
100
AcDbEntity
  8
NewBezel
100
AcDbLine
 10
0.25
 20
0.25
 30
0.0
 11
2.0
 21
0.25
 31
0.0
  0
LINE
  5
112F
330
1A
100
AcDbEntity
  8
Plate
100
AcDbLine
 10
0.25
 20
1.0
 30
0.0
 11
2.0
 21
1.0
 31
0.0
  0
LINE
  5
1130
330
1A
100
AcDbEntity
  8
PrevBezel
100
AcDbLine
 10
0.25
 20
0.5
 30
0.0
 11
2.0
 21
0.5
 31
0.0
  0
LINE
  5
1131
330
1A
100
AcDbEntity
  8
PrevCutout
100
AcDbLine
 10
0.25
 20
0.375
 30
0.0
 11
2.0
 21
0.375
 31
0.0
  0
LINE
  5
1132
330
1A
100
AcDbEntity
  8
Stud
100
AcDbLine
 10
0.25
 20
0.75
 30
0.0
 11
2.0
 21
0.75
 31
0.0
  0
MTEXT
  5
1133
330
1A
100
AcDbEntity
  8
Text
100
AcDbMText
 10
2.25
 20
1.049999952316279
 30
0.0
 40
0.0750000029802322
 41
2.25
 71
     1
 72
     5
  1
ADAPTER PLATE (11 GAUGE)
 73
     1
 44
1.0
1001
ACAD
1000
MTEXTBEGIN
1070
    73
1070
     1
1070
    44
1040
1.0
1070
    74
1070
     0
1000
MTEXTEND
  0
MTEXT
  5
1134
330
1A
100
AcDbEntity
  8
Text
100
AcDbMText
 10
2.25
 20
0.9250000119209291
 30
0.0
 40
0.0750000029802322
 41
2.25
 71
     1
 72
     5
  1
BACK PLATE (11 GAUGE)
 73
     1
 44
1.0
1001
ACAD
1000
MTEXTBEGIN
1070
    73
1070
     1
1070
    44
1040
1.0
1070
    74
1070
     0
1000
MTEXTEND
  0
MTEXT
  5
1135
330
1A
100
AcDbEntity
  8
Text
100
AcDbMText
 10
2.25
 20
0.550000011920929
 30
0.0
 40
0.0750000029802322
 41
2.25
 71
     1
 72
     5
  1
EXISTING HMI BEZEL
 73
     1
 44
1.0
1001
ACAD
1000
MTEXTBEGIN
1070
    73
1070
     1
1070
    44
1040
1.0
1070
    74
1070
     0
1000
MTEXTEND
  0
MTEXT
  5
1136
330
1A
100
AcDbEntity
  8
Text
100
AcDbMText
 10
2.25
 20
0.425000011920929
 30
0.0
 40
0.0750000029802322
 41
2.25
 71
     1
 72
     5
  1
EXISTING HMI CUTOUT
 73
     1
 44
1.0
1001
ACAD
1000
MTEXTBEGIN
1070
    73
1070
     1
1070
    44
1040
1.0
1070
    74
1070
     0
1000
MTEXTEND
  0
MTEXT
  5
1137
330
1A
100
AcDbEntity
  8
Text
100
AcDbMText
 10
1.75
 20
1.299999952316279
 30
0.0
 40
0.0750000029802322
 41
2.25
 71
     1
 72
     5
  1
LEGEND
 73
     1
 44
1.0
1001
ACAD
1000
MTEXTBEGIN
1070
    73
1070
     1
1070
    44
1040
1.0
1070
    74
1070
     0
1000
MTEXTEND
  0
MTEXT
  5
1138
330
1A
100
AcDbEntity
  8
Text
100
AcDbMText
 10
2.25
 20
0.8000000119209291
 30
0.0
 40
0.0750000029802322
 41
2.25
 71
     1
 72
     5
  1
MOUNTING STUD (10-32x3/4")
 73
     1
 44
1.0
1001
ACAD
1000
MTEXTBEGIN
1070
    73
1070
     1
1070
    44
1040
1.0
1070
    74
1070
     0
1000
MTEXTEND
  0
MTEXT
  5
1139
330
1A
100
AcDbEntity
  8
Text
100
AcDbMText
 10
2.25
 20
0.3000000119209289
 30
0.0
 40
0.0750000029802322
 41
2.25
 71
     1
 72
     5
  1
NEW HMI BEZEL
 73
     1
 44
1.0
1001
ACAD
1000
MTEXTBEGIN
1070
    73
1070
     1
1070
    44
1040
1.0
1070
    74
1070
     0
1000
MTEXTEND
  0
MTEXT
  5
113A
330
1A
100
AcDbEntity
  8
Text
100
AcDbMText
 10
2.25
 20
0.675000011920929
 30
0.0
 40
0.0750000029802322
 41
2.25
 71
     1
 72
     5
  1
SEALING GASKET
 73
     1
 44
1.0
1001
ACAD
1000
MTEXTBEGIN
1070
    73
1070
     1
1070
    44
1040
1.0
1070
    74
1070
     0
1000
MTEXTEND
  0
MTEXT
  5
113B
330
1A
100
AcDbEntity
  8
Text
100
AcDbMText
 10
14.8649997711182
 20
0.579999983310699
 30
0.0
 40
0.0399999991059303
 41
0.379999995231628
 71
     1
 72
     5
  1
01/15/2020
 73
     1
 44
1.0
1001
ACAD
1000
MTEXTBEGIN
1070
    73
1070
     1
1070
    44
1040
1.0
1070
    74
1070
     0
1000
MTEXTEND
  0
MTEXT
  5
113C
330
1A
100
AcDbEntity
  8
Text
100
AcDbMText
 10
13.3050003051758
 20
0.579999983310699
 30
0.0
 40
0.0399999991059303
 41
0.100000001490116
 71
     1
 72
     5
  1
1
 73
     1
 44
1.0
1001
ACAD
1000
MTEXTBEGIN
1070
    73
1070
     1
1070
    44
1040
1.0
1070
    74
1070
     0
1000
MTEXTEND
  0
MTEXT
  5
113D
330
1A
100
AcDbEntity
  8
Text
100
AcDbMText
 10
15.375
 20
0.6499999761581421
 30
0.0
 40
0.0750000029802322
 41
3.0
 71
     1
 72
     5
  1
AP1072-1072-SM-XX-XX-XX
 73
     1
 44
1.0
1001
ACAD
1000
MTEXTBEGIN
1070
    73
1070
     1
1070
    44
1040
1.0
1070
    74
1070
     0
1000
MTEXTEND
  0
MTEXT
  5
113E
330
1A
100
AcDbEntity
  8
Text
100
AcDbMText
 10
10.875
 20
1.149999976158139
 30
0.0
 40
0.0750000029802322
 41
7.5
 71
     1
 72
     5
  1
Existing HMI: Red Lion    #G07    Bezel Size:7.697"W x 5.508"H    Cutout:7.059"W x 4.87"H
 73
     1
 44
1.0
1001
ACAD
1000
MTEXTBEGIN
1070
    73
1070
     1
1070
    44
1040
1.0
1070
    74
1070
     0
1000
MTEXTEND
  0
MTEXT
  5
113F
330
1A
100
AcDbEntity
  8
Text
100
AcDbMText
 10
13.5450000762939
 20
0.579999983310699
 30
0.0
 40
0.0399999991059303
 41
1.25
 71
     1
 72
     5
  1
INITIAL ISSUE
 73
     1
 44
1.0
1001
ACAD
1000
MTEXTBEGIN
1070
    73
1070
     1
1070
    44
1040
1.0
1070
    74
1070
     0
1000
MTEXTEND
  0
MTEXT
  5
1140
330
1A
100
AcDbEntity
  8
Text
100
AcDbMText
 10
15.375
 20
0.200000002980232
 30
0.0
 40
0.0750000029802322
 41
2.25
 71
     1
 72
     5
  1
Jan 15 2020  7:32PM
 73
     1
 44
1.0
1001
ACAD
1000
MTEXTBEGIN
1070
    73
1070
     1
1070
    44
1040
1.0
1070
    74
1070
     0
1000
MTEXTEND
  0
MTEXT
  5
1141
330
1A
100
AcDbEntity
  8
Text
100
AcDbMText
 10
10.875
 20
1.0
 30
0.0
 40
0.0750000029802322
 41
7.5
 71
     1
 72
     5
  1
New HMI: Red Lion    #G07    Bezel Size:7.697"W x 5.508"H    Cutout:7.059"W x 4.87"H
 73
     1
 44
1.0
1001
ACAD
1000
MTEXTBEGIN
1070
    73
1070
     1
1070
    44
1040
1.0
1070
    74
1070
     0
1000
MTEXTEND
  0
VIEWPORT
  5
10BD
102
{ACAD_XDICTIONARY
360
1281
102
}
330
56C
100
AcDbEntity
 67
     1
  8
0
100
AcDbViewport
 10
0.0
 20
0.0
 30
0.0
 40
297.0
 41
210.0
 68
     1
 69
     1
 12
50.0
 22
100.0
 13
0.0
 23
0.0
 14
10.0
 24
10.0
 15
10.0
 25
10.0
 16
0.0
 26
0.0
 36
1.0
 17
0.0
 27
0.0
 37
0.0
 42
50.0
 43
0.0
 44
0.0
 45
250.0
 50
0.0
 51
0.0
 72
  1000
 90
   819232
  1

281
     0
 71
     1
 74
     0
110
0.0
120
0.0
130
0.0
111
1.0
121
0.0
131
0.0
112
0.0
122
1.0
132
0.0
 79
     0
146
0.0
  0
ENDSEC
  0
SECTION
  2
OBJECTS
  0
DICTIONARY
  5
1142
330
0
100
AcDbDictionary
281
     1
  3
ACAD_2007HEADERVARS_RT
350
1279
  3
ACAD_CIP_PREVIOUS_PRODUCT_INFO
350
119F
  3
ACAD_COLOR
350
1183
  3
ACAD_DETAILVIEWSTYLE
350
119C
  3
ACAD_GROUP
350
1143
  3
ACAD_LAYOUT
350
1144
  3
ACAD_MATERIAL
350
1151
  3
ACAD_MLEADERSTYLE
350
1198
  3
ACAD_MLINESTYLE
350
1148
  3
ACAD_PLOTSETTINGS
350
119E
  3
ACAD_PLOTSTYLENAME
350
114F
  3
ACAD_SCALELIST
350
1186
  3
ACAD_SECTIONVIEWSTYLE
350
119A
  3
ACAD_TABLESTYLE
350
1184
  3
ACAD_VISUALSTYLE
350
116A
  3
ACDB_RECOMPOSE_DATA
350
1277
  3
AcDbVariableDictionary
350
1266
  3
DWGPROPS
350
1278
  0
DICTIONARY
  5
1281
330
10BD
100
AcDbDictionary
280
     1
281
     1
  3
ACAD_XREC_ROUNDTRIP
360
1282
  0
DICTIONARY
  5
1279
102
{ACAD_REACTORS
330
1142
102
}
330
1142
100
AcDbDictionary
281
     1
  3
DIMLTEX1
350
127B
  3
DIMLTEX2
350
127C
  3
DIMLTYPE
350
127A
  0
XRECORD
  5
119F
102
{ACAD_REACTORS
330
1142
102
}
330
1142
100
AcDbXrecord
280
     1
300
ACDLT
300
2020
300

  0
DICTIONARY
  5
1183
102
{ACAD_REACTORS
330
1142
102
}
330
1142
100
AcDbDictionary
281
     1
  0
DICTIONARY
  5
119C
102
{ACAD_REACTORS
330
1142
102
}
330
1142
100
AcDbDictionary
281
     1
  3
Imperial24
350
119D
  0
DICTIONARY
  5
1143
330
1142
100
AcDbDictionary
281
     1
  0
DICTIONARY
  5
1144
330
1142
100
AcDbDictionary
281
     1
  3
Model
350
1E
  3
Sheet1
350
56D
  0
DICTIONARY
  5
1151
102
{ACAD_REACTORS
330
1142
102
}
330
1142
100
AcDbDictionary
281
     1
  3
ByBlock
350
115A
  3
ByLayer
350
1152
  3
Global
350
1162
  0
DICTIONARY
  5
1198
102
{ACAD_REACTORS
330
1142
102
}
330
1142
100
AcDbDictionary
281
     1
  3
Standard
350
1199
  0
DICTIONARY
  5
1148
330
1142
100
AcDbDictionary
281
     1
  3
STANDARD
350
19
  0
DICTIONARY
  5
119E
102
{ACAD_REACTORS
330
1142
102
}
330
1142
100
AcDbDictionary
281
     1
  0
ACDBDICTIONARYWDFLT
  5
114F
102
{ACAD_REACTORS
330
1142
102
}
330
1142
100
AcDbDictionary
281
     1
  3
Normal
350
1150
100
AcDbDictionaryWithDefault
340
1150
  0
DICTIONARY
  5
1186
102
{ACAD_REACTORS
330
1142
102
}
330
1142
100
AcDbDictionary
281
     1
  3
A0
350
1187
  3
A1
350
1188
  3
A2
350
1189
  3
A3
350
118A
  3
A4
350
118B
  3
A5
350
118C
  3
A6
350
118D
  3
A7
350
118E
  3
A8
350
118F
  3
A9
350
1190
  3
B0
350
1191
  3
B1
350
1192
  3
B2
350
1193
  3
B3
350
1194
  3
B4
350
1195
  3
B5
350
1196
  3
B6
350
1197
  0
DICTIONARY
  5
119A
102
{ACAD_REACTORS
330
1142
102
}
330
1142
100
AcDbDictionary
281
     1
  3
Imperial24
350
119B
  0
DICTIONARY
  5
1184
102
{ACAD_REACTORS
330
1142
102
}
330
1142
100
AcDbDictionary
281
     1
  3
Standard
350
1185
  0
DICTIONARY
  5
116A
102
{ACAD_REACTORS
330
1142
102
}
330
1142
100
AcDbDictionary
281
     1
  3
2dWireframe
350
1170
  3
Basic
350
116F
  3
Brighten
350
1176
  3
ColorChange
350
117A
  3
Conceptual
350
1173
  3
Dim
350
1175
  3
EdgeColorOff
350
1182
  3
Facepattern
350
1179
  3
Flat
350
116B
  3
FlatWithEdges
350
116C
  3
Gouraud
350
116D
  3
GouraudWithEdges
350
116E
  3
Hidden
350
1172
  3
JitterOff
350
1180
  3
Linepattern
350
1178
  3
OverhangOff
350
1181
  3
Realistic
350
1174
  3
Shaded
350
117F
  3
Shaded with edges
350
117E
  3
Shades of Gray
350
117B
  3
Sketchy
350
117C
  3
Thicken
350
1177
  3
Wireframe
350
1171
  3
X-Ray
350
117D
  0
XRECORD
  5
1277
102
{ACAD_REACTORS
330
1142
102
}
330
1142
100
AcDbXrecord
280
     1
 90
        1
330
1185
  0
DICTIONARY
  5
1266
102
{ACAD_REACTORS
330
1142
102
}
330
1142
100
AcDbDictionary
281
     1
  3
CANNOSCALE
350
126C
  3
CMLEADERSTYLE
350
1268
  3
CTABLESTYLE
350
1267
  3
CVIEWDETAILSTYLE
350
1269
  3
CVIEWSECTIONSTYLE
350
126A
  3
DIMASSOC
350
1273
  3
HIDETEXT
350
1272
  3
INDEXCTL
350
1271
  3
LAYEREVAL
350
126E
  3
LAYERNOTIFY
350
126F
  3
LIGHTINGUNITS
350
126D
  3
MSLTSCALE
350
126B
  3
SORTENTS
350
1270
  3
XCLIPFRAME
350
1274
  0
XRECORD
  5
1278
102
{ACAD_REACTORS
330
1142
102
}
330
1142
100
AcDbXrecord
280
     1
  1
DWGPROPS COOKIE
  2

  3

  4

  6

  7

  8
shearn
  9

300
=
301
=
302
=
303
=
304
=
305
=
306
=
307
=
308
=
309
=
 40
0.030893900462963
 41
2457459.257291667
 42
2458866.536539352
  1

 90
        0
  0
XRECORD
  5
1282
102
{ACAD_REACTORS
330
1281
102
}
330
1281
100
AcDbXrecord
280
     1
102
SHADEPLOT
 70
     0
  0
XRECORD
  5
127B
102
{ACAD_REACTORS
330
1279
102
}
330
1279
100
AcDbXrecord
280
     1
340
15
  0
XRECORD
  5
127C
102
{ACAD_REACTORS
330
1279
102
}
330
1279
100
AcDbXrecord
280
     1
340
15
  0
XRECORD
  5
127A
102
{ACAD_REACTORS
330
1279
102
}
330
1279
100
AcDbXrecord
280
     1
340
15
  0
ACDBDETAILVIEWSTYLE
  5
119D
102
{ACAD_XDICTIONARY
360
12B9
102
}
102
{ACAD_REACTORS
330
119C
102
}
330
119C
100
AcDbModelDocViewStyle
 70
     0
  3
Imperial24
290
     0
100
AcDbDetailViewStyle
 70
     0
 71
     0
 90
        3
 71
     1
340
16
 40
0.24
340
0
 40
0.24
300

 40
0.36
280
     3
 71
     2
340
13
 90
       25
 71
     3
340
16
 40
0.24
 90
        1
 40
0.75
 90
        1
300
%<\AcVar ViewType \f "%tc1">% %<\AcVar ViewDetailId>%\PSCALE %<\AcVar ViewScale \f "%sn">%
 71
     4
340
13
 90
       25
340
13
 90
       25
280
     0
  0
LAYOUT
  5
1E
102
{ACAD_XDICTIONARY
360
127D
102
}
330
1144
100
AcDbPlotSettings
  1

  2
none_device
  4
ISO_A4_(210.00_x_297.00_MM)
  6

 40
7.5
 41
20.0
 42
7.5
 43
20.0
 44
210.0
 45
297.0
 46
0.0
 47
0.0
 48
0.0
 49
0.0
140
0.0
141
0.0
142
1.0
143
1.0
 70
 11952
 72
     1
 73
     1
 74
     5
  7

 75
    16
147
1.0
148
16.6633025568182
149
0.234999999999994
100
AcDbLayout
  1
Model
 70
     1
 71
     0
 10
-7.5
 20
-7.5
 11
277.0
 21
202.5
 12
0.0
 22
0.0
 32
0.0
 14
0.0
 24
-0.0000000000000071
 34
0.0
 15
18.5
 25
12.5
 35
0.0
146
0.0
 13
0.0
 23
0.0
 33
0.0
 16
1.0
 26
0.0
 36
0.0
 17
0.0
 27
1.0
 37
0.0
 76
     0
330
1A
331
10B8
  0
LAYOUT
  5
56D
102
{ACAD_XDICTIONARY
360
127F
102
}
330
1144
100
AcDbPlotSettings
  1

  2
none_device
  4

  6

 40
0.0
 41
0.0
 42
0.0
 43
0.0
 44
0.0
 45
0.0
 46
0.0
 47
0.0
 48
0.0
 49
0.0
140
0.0
141
0.0
142
1.0
143
1.0
 70
   688
 72
     0
 73
     0
 74
     5
  7

 75
    16
147
1.0
148
0.0
149
0.0
100
AcDbLayout
  1
Sheet1
 70
     1
 71
     1
 10
0.0
 20
0.0
 11
12.0
 21
9.0
 12
0.0
 22
0.0
 32
0.0
 14
1.000000000000000E+20
 24
1.000000000000000E+20
 34
1.000000000000000E+20
 15
-1.000000000000000E+20
 25
-1.000000000000000E+20
 35
-1.000000000000000E+20
146
0.0
 13
0.0
 23
0.0
 33
0.0
 16
1.0
 26
0.0
 36
0.0
 17
0.0
 27
1.0
 37
0.0
 76
     0
330
56C
331
10BD
  0
MATERIAL
  5
115A
102
{ACAD_XDICTIONARY
360
115B
102
}
102
{ACAD_REACTORS
330
1151
102
}
330
1151
100
AcDbMaterial
  1
ByBlock
 72
     0
 43
0.0208333333333333
 43
0.0
 43
0.0
 43
0.0
 43
0.0
 43
0.0208333333333333
 43
0.0
 43
0.0
 43
0.0
 43
0.0
 43
1.0
 43
0.0
 43
0.0
 43
0.0
 43
0.0
 43
1.0
 77
     0
 47
0.0208333333333333
 47
0.0
 47
0.0
 47
0.0
 47
0.0
 47
0.0208333333333333
 47
0.0
 47
0.0
 47
0.0
 47
0.0
 47
1.0
 47
0.0
 47
0.0
 47
0.0
 47
0.0
 47
1.0
171
     0
 49
0.0208333333333333
 49
0.0
 49
0.0
 49
0.0
 49
0.0
 49
0.0208333333333333
 49
0.0
 49
0.0
 49
0.0
 49
0.0
 49
1.0
 49
0.0
 49
0.0
 49
0.0
 49
0.0
 49
1.0
175
     0
142
0.0208333333333333
142
0.0
142
0.0
142
0.0
142
0.0
142
0.0208333333333333
142
0.0
142
0.0
142
0.0
142
0.0
142
1.0
142
0.0
142
0.0
142
0.0
142
0.0
142
1.0
179
     0
144
0.0208333333333333
144
0.0
144
0.0
144
0.0
144
0.0
144
0.0208333333333333
144
0.0
144
0.0
144
0.0
144
0.0
144
1.0
144
0.0
144
0.0
144
0.0
144
0.0
144
1.0
147
0.0208333333333333
147
0.0
147
0.0
147
0.0
147
0.0
147
0.0208333333333333
147
0.0
147
0.0
147
0.0
147
0.0
147
1.0
147
0.0
147
0.0
147
0.0
147
0.0
147
1.0
  0
MATERIAL
  5
1152
102
{ACAD_XDICTIONARY
360
1153
102
}
102
{ACAD_REACTORS
330
1151
102
}
330
1151
100
AcDbMaterial
  1
ByLayer
 72
     0
 43
0.0208333333333333
 43
0.0
 43
0.0
 43
0.0
 43
0.0
 43
0.0208333333333333
 43
0.0
 43
0.0
 43
0.0
 43
0.0
 43
1.0
 43
0.0
 43
0.0
 43
0.0
 43
0.0
 43
1.0
 77
     0
 47
0.0208333333333333
 47
0.0
 47
0.0
 47
0.0
 47
0.0
 47
0.0208333333333333
 47
0.0
 47
0.0
 47
0.0
 47
0.0
 47
1.0
 47
0.0
 47
0.0
 47
0.0
 47
0.0
 47
1.0
171
     0
 49
0.0208333333333333
 49
0.0
 49
0.0
 49
0.0
 49
0.0
 49
0.0208333333333333
 49
0.0
 49
0.0
 49
0.0
 49
0.0
 49
1.0
 49
0.0
 49
0.0
 49
0.0
 49
0.0
 49
1.0
175
     0
142
0.0208333333333333
142
0.0
142
0.0
142
0.0
142
0.0
142
0.0208333333333333
142
0.0
142
0.0
142
0.0
142
0.0
142
1.0
142
0.0
142
0.0
142
0.0
142
0.0
142
1.0
179
     0
144
0.0208333333333333
144
0.0
144
0.0
144
0.0
144
0.0
144
0.0208333333333333
144
0.0
144
0.0
144
0.0
144
0.0
144
1.0
144
0.0
144
0.0
144
0.0
144
0.0
144
1.0
147
0.0208333333333333
147
0.0
147
0.0
147
0.0
147
0.0
147
0.0208333333333333
147
0.0
147
0.0
147
0.0
147
0.0
147
1.0
147
0.0
147
0.0
147
0.0
147
0.0
147
1.0
  0
MATERIAL
  5
1162
102
{ACAD_XDICTIONARY
360
1163
102
}
102
{ACAD_REACTORS
330
1151
102
}
330
1151
100
AcDbMaterial
  1
Global
 72
     0
 43
0.0208333333333333
 43
0.0
 43
0.0
 43
0.0
 43
0.0
 43
0.0208333333333333
 43
0.0
 43
0.0
 43
0.0
 43
0.0
 43
1.0
 43
0.0
 43
0.0
 43
0.0
 43
0.0
 43
1.0
 77
     0
 47
0.0208333333333333
 47
0.0
 47
0.0
 47
0.0
 47
0.0
 47
0.0208333333333333
 47
0.0
 47
0.0
 47
0.0
 47
0.0
 47
1.0
 47
0.0
 47
0.0
 47
0.0
 47
0.0
 47
1.0
171
     0
 49
0.0208333333333333
 49
0.0
 49
0.0
 49
0.0
 49
0.0
 49
0.0208333333333333
 49
0.0
 49
0.0
 49
0.0
 49
0.0
 49
1.0
 49
0.0
 49
0.0
 49
0.0
 49
0.0
 49
1.0
175
     0
142
0.0208333333333333
142
0.0
142
0.0
142
0.0
142
0.0
142
0.0208333333333333
142
0.0
142
0.0
142
0.0
142
0.0
142
1.0
142
0.0
142
0.0
142
0.0
142
0.0
142
1.0
179
     0
144
0.0208333333333333
144
0.0
144
0.0
144
0.0
144
0.0
144
0.0208333333333333
144
0.0
144
0.0
144
0.0
144
0.0
144
1.0
144
0.0
144
0.0
144
0.0
144
0.0
144
1.0
147
0.0208333333333333
147
0.0
147
0.0
147
0.0
147
0.0
147
0.0208333333333333
147
0.0
147
0.0
147
0.0
147
0.0
147
1.0
147
0.0
147
0.0
147
0.0
147
0.0
147
1.0
  0
MLEADERSTYLE
  5
1199
102
{ACAD_REACTORS
330
1198
102
}
330
1198
100
AcDbMLeaderStyle
170
     2
171
     1
172
     0
 90
        2
 40
0.0
 41
0.0
173
     1
 91
-1056964608
340
15
 92
       -2
290
     1
 42
0.09
291
     1
 43
0.36
  3
Standard
 44
0.18
300

342
16
174
     1
178
     6
175
     1
176
     0
 93
-1056964608
 45
0.18
292
     0
297
     0
 46
0.18
 94
-1056964608
 47
1.0
 49
1.0
140
1.0
293
     1
141
0.0
294
     1
177
     0
142
1.0
295
     0
296
     0
143
0.125
1001
ACAD_MLEADERVER
1070
     2
  0
MLINESTYLE
  5
19
330
1148
100
AcDbMlineStyle
  2
STANDARD
 70
     0
  3

 62
   256
 51
90.0
 52
90.0
 71
     2
 49
0.5
 62
   256
  6
BYLAYER
 49
-0.5
 62
   256
  6
BYLAYER
  0
ACDBPLACEHOLDER
  5
1150
102
{ACAD_REACTORS
330
114F
102
}
330
114F
  0
SCALE
  5
1187
102
{ACAD_REACTORS
330
1186
102
}
330
1186
100
AcDbScale
 70
     0
300
1:1
140
1.0
141
1.0
290
     1
  0
SCALE
  5
1188
102
{ACAD_REACTORS
330
1186
102
}
330
1186
100
AcDbScale
 70
     0
300
1/128" = 1'-0"
140
0.0078125
141
12.0
290
     0
  0
SCALE
  5
1189
102
{ACAD_REACTORS
330
1186
102
}
330
1186
100
AcDbScale
 70
     0
300
1/64" = 1'-0"
140
0.015625
141
12.0
290
     0
  0
SCALE
  5
118A
102
{ACAD_REACTORS
330
1186
102
}
330
1186
100
AcDbScale
 70
     0
300
1/32" = 1'-0"
140
0.03125
141
12.0
290
     0
  0
SCALE
  5
118B
102
{ACAD_REACTORS
330
1186
102
}
330
1186
100
AcDbScale
 70
     0
300
1/16" = 1'-0"
140
0.0625
141
12.0
290
     0
  0
SCALE
  5
118C
102
{ACAD_REACTORS
330
1186
102
}
330
1186
100
AcDbScale
 70
     0
300
3/32" = 1'-0"
140
0.09375
141
12.0
290
     0
  0
SCALE
  5
118D
102
{ACAD_REACTORS
330
1186
102
}
330
1186
100
AcDbScale
 70
     0
300
1/8" = 1'-0"
140
0.125
141
12.0
290
     0
  0
SCALE
  5
118E
102
{ACAD_REACTORS
330
1186
102
}
330
1186
100
AcDbScale
 70
     0
300
3/16" = 1'-0"
140
0.1875
141
12.0
290
     0
  0
SCALE
  5
118F
102
{ACAD_REACTORS
330
1186
102
}
330
1186
100
AcDbScale
 70
     0
300
1/4" = 1'-0"
140
0.25
141
12.0
290
     0
  0
SCALE
  5
1190
102
{ACAD_REACTORS
330
1186
102
}
330
1186
100
AcDbScale
 70
     0
300
3/8" = 1'-0"
140
0.375
141
12.0
290
     0
  0
SCALE
  5
1191
102
{ACAD_REACTORS
330
1186
102
}
330
1186
100
AcDbScale
 70
     0
300
1/2" = 1'-0"
140
0.5
141
12.0
290
     0
  0
SCALE
  5
1192
102
{ACAD_REACTORS
330
1186
102
}
330
1186
100
AcDbScale
 70
     0
300
3/4" = 1'-0"
140
0.75
141
12.0
290
     0
  0
SCALE
  5
1193
102
{ACAD_REACTORS
330
1186
102
}
330
1186
100
AcDbScale
 70
     0
300
1" = 1'-0"
140
1.0
141
12.0
290
     0
  0
SCALE
  5
1194
102
{ACAD_REACTORS
330
1186
102
}
330
1186
100
AcDbScale
 70
     0
300
1-1/2" = 1'-0"
140
1.5
141
12.0
290
     0
  0
SCALE
  5
1195
102
{ACAD_REACTORS
330
1186
102
}
330
1186
100
AcDbScale
 70
     0
300
3" = 1'-0"
140
3.0
141
12.0
290
     0
  0
SCALE
  5
1196
102
{ACAD_REACTORS
330
1186
102
}
330
1186
100
AcDbScale
 70
     0
300
6" = 1'-0"
140
6.0
141
12.0
290
     0
  0
SCALE
  5
1197
102
{ACAD_REACTORS
330
1186
102
}
330
1186
100
AcDbScale
 70
     0
300
1'-0" = 1'-0"
140
12.0
141
12.0
290
     0
  0
ACDBSECTIONVIEWSTYLE
  5
119B
102
{ACAD_XDICTIONARY
360
12B7
102
}
102
{ACAD_REACTORS
330
119A
102
}
330
119A
100
AcDbModelDocViewStyle
 70
     0
  3
Imperial24
290
     0
100
AcDbSectionViewStyle
 70
     0
 71
     0
 90
       78
 71
     1
340
16
 40
0.24
340
0
340
0
 40
0.24
300
I, O, Q, S, X, Z
 40
0.48
 90
        3
 40
0.18
 90
        1
 71
     2
340
13
 90
       25
340
13
 90
       50
 40
0.24
 40
0.0
 40
0.24
 71
     3
340
16
 40
0.24
 90
        1
 40
0.75
 90
        1
300
%<\AcVar ViewType \f "%tc1">% %<\AcVar ViewSectionStartId>%-%<\AcVar ViewSectionEndId>%\PSCALE %<\AcVar ViewScale \f "%sn">%
 71
     4
300
ANSI31
 40
1.0
 90
        0
290
     0
290
     0
 90
        6
 40
0.0
 40
1.570796326794896
 40
0.2617993877991494
 40
1.308996938995747
 40
-0.2617993877991494
 40
1.832595714594046
  0
TABLESTYLE
  5
1185
102
{ACAD_XDICTIONARY
360
1275
102
}
102
{ACAD_REACTORS
330
1184
102
}
330
1184
100
AcDbTableStyle
  3
Standard
 70
     0
 71
     0
 40
0.06
 41
0.06
280
     0
281
     0
  7
Standard
140
0.18
170
     2
 62
     0
 63
     7
283
     0
274
    -2
284
     1
 64
     0
275
    -2
285
     1
 65
     0
276
    -2
286
     1
 66
     0
277
    -2
287
     1
 67
     0
278
    -2
288
     1
 68
     0
279
    -2
289
     1
 69
     0
  7
Standard
140
0.25
170
     5
 62
     0
 63
     7
283
     0
274
    -2
284
     1
 64
     0
275
    -2
285
     1
 65
     0
276
    -2
286
     1
 66
     0
277
    -2
287
     1
 67
     0
278
    -2
288
     1
 68
     0
279
    -2
289
     1
 69
     0
  7
Standard
140
0.18
170
     5
 62
     0
 63
     7
283
     0
274
    -2
284
     1
 64
     0
275
    -2
285
     1
 65
     0
276
    -2
286
     1
 66
     0
277
    -2
287
     1
 67
     0
278
    -2
288
     1
 68
     0
279
    -2
289
     1
 69
     0
  0
VISUALSTYLE
  5
1170
102
{ACAD_XDICTIONARY
360
1290
102
}
102
{ACAD_REACTORS
330
116A
102
}
330
116A
100
AcDbVisualStyle
  2
2dWireframe
 70
     4
 71
     0
 72
     2
 73
     0
 90
        0
 40
-0.6
 41
-30.0
 62
     5
 63
     7
 74
     1
 91
        4
 64
     7
 65
   257
 75
     1
175
     1
 42
1.0
 92
        0
 66
   257
 43
1.0
 76
     1
 77
     6
 78
     2
 67
     7
 79
     5
170
     0
171
     0
290
     0
174
     0
 93
        1
 44
0.0
173
     0
291
     0
 45
0.0
1001
ACAD
1000
AcDbSavedByObjectVersion
1070
     0
  0
VISUALSTYLE
  5
116F
102
{ACAD_XDICTIONARY
360
128E
102
}
102
{ACAD_REACTORS
330
116A
102
}
330
116A
100
AcDbVisualStyle
  2
Basic
 70
     7
 71
     1
 72
     0
 73
     1
 90
        0
 40
-0.6
 41
-30.0
 62
     5
 63
     7
 74
     0
 91
        4
 64
     7
 65
   257
 75
     1
175
     1
 42
1.0
 92
        8
 66
     7
 43
1.0
 76
     1
 77
     6
 78
     2
 67
     7
 79
     5
170
     0
171
     0
290
     0
174
     0
 93
        1
 44
0.0
173
     0
291
     1
 45
0.0
1001
ACAD
1000
AcDbSavedByObjectVersion
1070
     0
  0
VISUALSTYLE
  5
1176
102
{ACAD_XDICTIONARY
360
129C
102
}
102
{ACAD_REACTORS
330
116A
102
}
330
116A
100
AcDbVisualStyle
  2
Brighten
 70
    12
 71
     2
 72
     2
 73
     0
 90
        0
 40
-0.6
 41
-30.0
 62
     5
 63
     7
 74
     1
 91
        4
 64
     7
 65
   257
 75
     1
175
     1
 42
1.0
 92
        8
 66
     7
 43
1.0
 76
     1
 77
     6
 78
     2
 67
     7
 79
     5
170
     0
171
     0
290
     0
174
     0
 93
        1
 44
50.0
173
     0
291
     1
 45
0.0
1001
ACAD
1000
AcDbSavedByObjectVersion
1070
     0
  0
VISUALSTYLE
  5
117A
102
{ACAD_XDICTIONARY
360
12A4
102
}
102
{ACAD_REACTORS
330
116A
102
}
330
116A
100
AcDbVisualStyle
  2
ColorChange
 70
    16
 71
     2
 72
     2
 73
     3
 90
        0
 40
-0.6
 41
-30.0
 62
     5
 63
     8
 74
     1
 91
        4
 64
     7
 65
   257
 75
     1
175
     1
 42
1.0
 92
        8
 66
     8
 43
1.0
 76
     1
 77
     6
 78
     2
 67
     7
 79
     5
170
     0
171
     0
290
     0
174
     0
 93
        1
 44
0.0
173
     0
291
     1
 45
0.0
1001
ACAD
1000
AcDbSavedByObjectVersion
1070
     0
  0
VISUALSTYLE
  5
1173
102
{ACAD_XDICTIONARY
360
1296
102
}
102
{ACAD_REACTORS
330
116A
102
}
330
116A
100
AcDbVisualStyle
  2
Conceptual
 70
     9
 71
     3
 72
     2
 73
     0
 90
        0
 40
-0.6
 41
-30.0
 62
     5
 63
     7
 74
     2
 91
        2
 64
     7
 65
   257
 75
     1
175
     1
 42
179.0
 92
        8
 66
     7
 43
1.0
 76
     1
 77
     6
 78
     2
 67
     7
 79
     3
170
     0
171
     0
290
     0
174
     0
 93
        1
 44
0.0
173
     0
291
     0
 45
0.0
1001
ACAD
1000
AcDbSavedByObjectVersion
1070
     0
  0
VISUALSTYLE
  5
1175
102
{ACAD_XDICTIONARY
360
129A
102
}
102
{ACAD_REACTORS
330
116A
102
}
330
116A
100
AcDbVisualStyle
  2
Dim
 70
    11
 71
     2
 72
     2
 73
     0
 90
        0
 40
-0.6
 41
-30.0
 62
     5
 63
     7
 74
     1
 91
        4
 64
     7
 65
   257
 75
     1
175
     1
 42
1.0
 92
        8
 66
     7
 43
1.0
 76
     1
 77
     6
 78
     2
 67
     7
 79
     5
170
     0
171
     0
290
     0
174
     0
 93
        1
 44
-50.0
173
     0
291
     1
 45
0.0
1001
ACAD
1000
AcDbSavedByObjectVersion
1070
     0
  0
VISUALSTYLE
  5
1182
102
{ACAD_XDICTIONARY
360
12B4
102
}
102
{ACAD_REACTORS
330
116A
102
}
330
116A
100
AcDbVisualStyle
  2
EdgeColorOff
 70
    22
 71
     2
 72
     2
 73
     0
 90
        0
 40
-0.6
 41
-30.0
 62
     5
 63
     7
 74
     1
 91
        4
 64
     7
 65
   257
 75
     1
175
     1
 42
1.0
 92
        8
 66
     7
 43
1.0
 76
     1
 77
     6
 78
     2
 67
     7
 79
     5
170
     0
171
     0
290
     0
174
     0
 93
        1
 44
0.0
173
     0
291
     1
 45
0.0
1001
ACAD
1000
AcDbSavedByObjectVersion
1070
     0
  0
VISUALSTYLE
  5
1179
102
{ACAD_XDICTIONARY
360
12A2
102
}
102
{ACAD_REACTORS
330
116A
102
}
330
116A
100
AcDbVisualStyle
  2
Facepattern
 70
    15
 71
     2
 72
     2
 73
     0
 90
        0
 40
-0.6
 41
-30.0
 62
     5
 63
     7
 74
     1
 91
        4
 64
     7
 65
   257
 75
     1
175
     1
 42
1.0
 92
        8
 66
     7
 43
1.0
 76
     1
 77
     6
 78
     2
 67
     7
 79
     5
170
     0
171
     0
290
     0
174
     0
 93
        1
 44
0.0
173
     0
291
     1
 45
0.0
1001
ACAD
1000
AcDbSavedByObjectVersion
1070
     0
  0
VISUALSTYLE
  5
116B
102
{ACAD_XDICTIONARY
360
1286
102
}
102
{ACAD_REACTORS
330
116A
102
}
330
116A
100
AcDbVisualStyle
  2
Flat
 70
     0
 71
     2
 72
     1
 73
     1
 90
        2
 40
-0.6
 41
30.0
 62
     5
 63
     7
 74
     0
 91
        0
 64
     7
 65
   257
 75
     1
175
     1
 42
1.0
 92
        8
 66
     7
 43
1.0
 76
     1
 77
     6
 78
     2
 67
     7
 79
     5
170
     0
171
     0
290
     0
174
     0
 93
       13
 44
0.0
173
     0
291
     1
 45
0.0
1001
ACAD
1000
AcDbSavedByObjectVersion
1070
     0
  0
VISUALSTYLE
  5
116C
102
{ACAD_XDICTIONARY
360
1288
102
}
102
{ACAD_REACTORS
330
116A
102
}
330
116A
100
AcDbVisualStyle
  2
FlatWithEdges
 70
     1
 71
     2
 72
     1
 73
     1
 90
        2
 40
-0.6
 41
30.0
 62
     5
 63
     7
 74
     1
 91
        0
 64
     7
 65
   257
 75
     1
175
     1
 42
1.0
 92
        0
 66
   257
 43
1.0
 76
     1
 77
     6
 78
     2
 67
     7
 79
     5
170
     0
171
     0
290
     0
174
     0
 93
       13
 44
0.0
173
     0
291
     1
 45
0.0
1001
ACAD
1000
AcDbSavedByObjectVersion
1070
     0
  0
VISUALSTYLE
  5
116D
102
{ACAD_XDICTIONARY
360
128A
102
}
102
{ACAD_REACTORS
330
116A
102
}
330
116A
100
AcDbVisualStyle
  2
Gouraud
 70
     2
 71
     2
 72
     2
 73
     1
 90
        2
 40
-0.6
 41
30.0
 62
     5
 63
     7
 74
     0
 91
        0
 64
     7
 65
   257
 75
     1
175
     1
 42
1.0
 92
        0
 66
     7
 43
1.0
 76
     1
 77
     6
 78
     2
 67
     7
 79
     5
170
     0
171
     0
290
     0
174
     0
 93
       13
 44
0.0
173
     0
291
     1
 45
0.0
1001
ACAD
1000
AcDbSavedByObjectVersion
1070
     0
  0
VISUALSTYLE
  5
116E
102
{ACAD_XDICTIONARY
360
128C
102
}
102
{ACAD_REACTORS
330
116A
102
}
330
116A
100
AcDbVisualStyle
  2
GouraudWithEdges
 70
     3
 71
     2
 72
     2
 73
     1
 90
        2
 40
-0.6
 41
30.0
 62
     5
 63
     7
 74
     1
 91
        0
 64
     7
 65
   257
 75
     1
175
     1
 42
1.0
 92
        0
 66
   257
 43
1.0
 76
     1
 77
     6
 78
     2
 67
     7
 79
     5
170
     0
171
     0
290
     0
174
     0
 93
       13
 44
0.0
173
     0
291
     1
 45
0.0
1001
ACAD
1000
AcDbSavedByObjectVersion
1070
     0
  0
VISUALSTYLE
  5
1172
102
{ACAD_XDICTIONARY
360
1294
102
}
102
{ACAD_REACTORS
330
116A
102
}
330
116A
100
AcDbVisualStyle
  2
Hidden
 70
     6
 71
     1
 72
     2
 73
     2
 90
        0
 40
-0.6
 41
-30.0
 62
     5
 63
     7
 74
     2
 91
        2
 64
     7
 65
   257
 75
     2
175
     1
 42
40.0
 92
        0
 66
   257
 43
1.0
 76
     1
 77
     6
 78
     2
 67
     7
 79
     3
170
     0
171
     0
290
     0
174
     0
 93
        1
 44
0.0
173
     0
291
     0
 45
0.0
1001
ACAD
1000
AcDbSavedByObjectVersion
1070
     0
  0
VISUALSTYLE
  5
1180
102
{ACAD_XDICTIONARY
360
12B0
102
}
102
{ACAD_REACTORS
330
116A
102
}
330
116A
100
AcDbVisualStyle
  2
JitterOff
 70
    20
 71
     2
 72
     2
 73
     0
 90
        0
 40
-0.6
 41
-30.0
 62
     5
 63
     7
 74
     1
 91
        4
 64
     7
 65
   257
 75
     1
175
     1
 42
1.0
 92
       10
 66
     7
 43
1.0
 76
     1
 77
     6
 78
     2
 67
     7
 79
     5
170
     0
171
     0
290
     0
174
     0
 93
        1
 44
0.0
173
     0
291
     1
 45
0.0
1001
ACAD
1000
AcDbSavedByObjectVersion
1070
     0
  0
VISUALSTYLE
  5
1178
102
{ACAD_XDICTIONARY
360
12A0
102
}
102
{ACAD_REACTORS
330
116A
102
}
330
116A
100
AcDbVisualStyle
  2
Linepattern
 70
    14
 71
     2
 72
     2
 73
     0
 90
        0
 40
-0.6
 41
-30.0
 62
     5
 63
     7
 74
     1
 91
        4
 64
     7
 65
   257
 75
     7
175
     7
 42
1.0
 92
        8
 66
     7
 43
1.0
 76
     1
 77
     6
 78
     2
 67
     7
 79
     5
170
     0
171
     0
290
     0
174
     0
 93
        1
 44
0.0
173
     0
291
     1
 45
0.0
1001
ACAD
1000
AcDbSavedByObjectVersion
1070
     0
  0
VISUALSTYLE
  5
1181
102
{ACAD_XDICTIONARY
360
12B2
102
}
102
{ACAD_REACTORS
330
116A
102
}
330
116A
100
AcDbVisualStyle
  2
OverhangOff
 70
    21
 71
     2
 72
     2
 73
     0
 90
        0
 40
-0.6
 41
-30.0
 62
     5
 63
     7
 74
     1
 91
        4
 64
     7
 65
   257
 75
     1
175
     1
 42
1.0
 92
        9
 66
     7
 43
1.0
 76
     1
 77
     6
 78
     2
 67
     7
 79
     5
170
     0
171
     0
290
     0
174
     0
 93
        1
 44
0.0
173
     0
291
     1
 45
0.0
1001
ACAD
1000
AcDbSavedByObjectVersion
1070
     0
  0
VISUALSTYLE
  5
1174
102
{ACAD_XDICTIONARY
360
1298
102
}
102
{ACAD_REACTORS
330
116A
102
}
330
116A
100
AcDbVisualStyle
  2
Realistic
 70
     8
 71
     2
 72
     3
 73
     0
 90
        2
 40
-0.6
 41
30.0
 62
     5
 63
     7
 74
     0
 91
        0
 64
     7
 65
   257
 75
     1
175
     1
 42
1.0
 92
        8
 66
   257
 43
1.0
 76
     1
 77
     6
 78
     2
 67
     7
 79
     3
170
     0
171
     0
290
     0
174
     0
 93
       13
 44
0.0
173
     0
291
     0
 45
0.0
1001
ACAD
1000
AcDbSavedByObjectVersion
1070
     0
  0
VISUALSTYLE
  5
117F
102
{ACAD_XDICTIONARY
360
12AE
102
}
102
{ACAD_REACTORS
330
116A
102
}
330
116A
100
AcDbVisualStyle
  2
Shaded
 70
    27
 71
     2
 72
     2
 73
     1
 90
        2
 40
-0.6
 41
30.0
 62
     5
 63
     7
 74
     0
 91
        4
 64
     7
 65
   257
 75
     1
175
     1
 42
1.0
 92
        8
 66
   257
 43
1.0
 76
     1
 77
     6
 78
     2
 67
     8
 79
     3
170
     0
171
     0
290
     0
174
     0
 93
        5
 44
0.0
173
     0
291
     0
 45
0.0
1001
ACAD
1000
AcDbSavedByObjectVersion
1070
     0
  0
VISUALSTYLE
  5
117E
102
{ACAD_XDICTIONARY
360
12AC
102
}
102
{ACAD_REACTORS
330
116A
102
}
330
116A
100
AcDbVisualStyle
  2
Shaded with edges
 70
    26
 71
     2
 72
     2
 73
     1
 90
        2
 40
-0.6
 41
30.0
 62
     5
 63
     7
 74
     1
 91
        2
 64
     7
 65
   257
 75
     2
175
     1
 42
1.0
 92
        8
 66
   257
 43
1.0
 76
     1
 77
     6
 78
     2
 67
     7
 79
     3
170
     0
171
     0
290
     0
174
     0
 93
        5
 44
0.0
173
     0
291
     0
 45
0.0
1001
ACAD
1000
AcDbSavedByObjectVersion
1070
     0
  0
VISUALSTYLE
  5
117B
102
{ACAD_XDICTIONARY
360
12A6
102
}
102
{ACAD_REACTORS
330
116A
102
}
330
116A
100
AcDbVisualStyle
  2
Shades of Gray
 70
    23
 71
     2
 72
     2
 73
     3
 90
        0
 40
-0.6
 41
-30.0
 62
     5
 63
     7
 74
     2
 91
        2
 64
     7
 65
     7
 75
     1
175
     1
 42
40.0
 92
        8
 66
     7
 43
1.0
 76
     1
 77
     6
 78
     2
 67
     7
 79
     3
170
     0
171
     0
290
     0
174
     0
 93
        1
 44
0.0
173
     0
291
     0
 45
0.0
1001
ACAD
1000
AcDbSavedByObjectVersion
1070
     0
  0
VISUALSTYLE
  5
117C
102
{ACAD_XDICTIONARY
360
12A8
102
}
102
{ACAD_REACTORS
330
116A
102
}
330
116A
100
AcDbVisualStyle
  2
Sketchy
 70
    24
 71
     1
 72
     2
 73
     2
 90
        0
 40
-0.6
 41
-30.0
 62
     5
 63
     7
 74
     2
 91
        2
 64
     7
 65
     7
 75
     1
175
     1
 42
40.0
 92
       11
 66
     7
 43
1.0
 76
     1
 77
     6
 78
     2
 67
     7
 79
     6
170
     0
171
     0
290
     0
174
     0
 93
        1
 44
0.0
173
     0
291
     0
 45
0.0
1001
ACAD
1000
AcDbSavedByObjectVersion
1070
     0
  0
VISUALSTYLE
  5
1177
102
{ACAD_XDICTIONARY
360
129E
102
}
102
{ACAD_REACTORS
330
116A
102
}
330
116A
100
AcDbVisualStyle
  2
Thicken
 70
    13
 71
     2
 72
     2
 73
     0
 90
        0
 40
-0.6
 41
-30.0
 62
     5
 63
     7
 74
     1
 91
        4
 64
     7
 65
   257
 75
     1
175
     1
 42
1.0
 92
       12
 66
     7
 43
1.0
 76
     1
 77
     6
 78
     2
 67
     7
 79
     5
170
     0
171
     0
290
     0
174
     0
 93
        1
 44
0.0
173
     0
291
     1
 45
0.0
1001
ACAD
1000
AcDbSavedByObjectVersion
1070
     0
  0
VISUALSTYLE
  5
1171
102
{ACAD_XDICTIONARY
360
1292
102
}
102
{ACAD_REACTORS
330
116A
102
}
330
116A
100
AcDbVisualStyle
  2
Wireframe
 70
     5
 71
     0
 72
     2
 73
     0
 90
        0
 40
-0.6
 41
-30.0
 62
     5
 63
     7
 74
     1
 91
        4
 64
     7
 65
   257
 75
     1
175
     1
 42
1.0
 92
        0
 66
   257
 43
1.0
 76
     1
 77
     6
 78
     2
 67
     7
 79
     3
170
     0
171
     0
290
     0
174
     0
 93
        1
 44
0.0
173
     0
291
     0
 45
0.0
1001
ACAD
1000
AcDbSavedByObjectVersion
1070
     0
  0
VISUALSTYLE
  5
117D
102
{ACAD_XDICTIONARY
360
12AA
102
}
102
{ACAD_REACTORS
330
116A
102
}
330
116A
100
AcDbVisualStyle
  2
X-Ray
 70
    25
 71
     2
 72
     2
 73
     1
 90
        1
 40
0.5
 41
-30.0
 62
     5
 63
     7
 74
     1
 91
        0
 64
     7
 65
   257
 75
     1
175
     1
 42
1.0
 92
        8
 66
     7
 43
1.0
 76
     1
 77
     6
 78
     2
 67
     7
 79
     3
170
     0
171
     0
290
     0
174
     0
 93
       13
 44
0.0
173
     0
291
     0
 45
0.0
1001
ACAD
1000
AcDbSavedByObjectVersion
1070
     0
  0
DICTIONARYVAR
  5
126C
102
{ACAD_REACTORS
330
1266
102
}
330
1266
100
DictionaryVariables
280
     0
  1
1:1
  0
DICTIONARYVAR
  5
1268
102
{ACAD_REACTORS
330
1266
102
}
330
1266
100
DictionaryVariables
280
     0
  1
STANDARD
  0
DICTIONARYVAR
  5
1267
102
{ACAD_REACTORS
330
1266
102
}
330
1266
100
DictionaryVariables
280
     0
  1
STANDARD
  0
DICTIONARYVAR
  5
1269
102
{ACAD_REACTORS
330
1266
102
}
330
1266
100
DictionaryVariables
280
     0
  1
Imperial24
  0
DICTIONARYVAR
  5
126A
102
{ACAD_REACTORS
330
1266
102
}
330
1266
100
DictionaryVariables
280
     0
  1
Imperial24
  0
DICTIONARYVAR
  5
1273
102
{ACAD_REACTORS
330
1266
102
}
330
1266
100
DictionaryVariables
280
     0
  1
2
  0
DICTIONARYVAR
  5
1272
102
{ACAD_REACTORS
330
1266
102
}
330
1266
100
DictionaryVariables
280
     0
  1
1
  0
DICTIONARYVAR
  5
1271
102
{ACAD_REACTORS
330
1266
102
}
330
1266
100
DictionaryVariables
280
     0
  1
0
  0
DICTIONARYVAR
  5
126E
102
{ACAD_REACTORS
330
1266
102
}
330
1266
100
DictionaryVariables
280
     0
  1
0
  0
DICTIONARYVAR
  5
126F
102
{ACAD_REACTORS
330
1266
102
}
330
1266
100
DictionaryVariables
280
     0
  1
0
  0
DICTIONARYVAR
  5
126D
102
{ACAD_REACTORS
330
1266
102
}
330
1266
100
DictionaryVariables
280
     0
  1
2
  0
DICTIONARYVAR
  5
126B
102
{ACAD_REACTORS
330
1266
102
}
330
1266
100
DictionaryVariables
280
     0
  1
1
  0
DICTIONARYVAR
  5
1270
102
{ACAD_REACTORS
330
1266
102
}
330
1266
100
DictionaryVariables
280
     0
  1
127
  0
DICTIONARYVAR
  5
1274
102
{ACAD_REACTORS
330
1266
102
}
330
1266
100
DictionaryVariables
280
     0
  1
2
  0
DICTIONARY
  5
12B9
330
119D
100
AcDbDictionary
280
     1
281
     1
  3
ACAD_XREC_ROUNDTRIP
360
12BA
  0
DICTIONARY
  5
127D
330
1E
100
AcDbDictionary
280
     1
281
     1
  3
ACAD_XREC_ROUNDTRIP
360
127E
  0
DICTIONARY
  5
127F
330
56D
100
AcDbDictionary
280
     1
281
     1
  3
ACAD_XREC_ROUNDTRIP
360
1280
  0
DICTIONARY
  5
115B
330
115A
100
AcDbDictionary
280
     1
281
     1
  3
ACAD_XREC_ROUNDTRIP
360
1284
  3
BUMPTILE
360
115D
  3
DIFFUSETILE
360
115C
  3
OPACITYTILE
360
1160
  3
REFLECTIONTILE
360
115F
  3
REFRACTIONTILE
360
1161
  3
SPECULARTILE
360
115E
  0
DICTIONARY
  5
1153
330
1152
100
AcDbDictionary
280
     1
281
     1
  3
ACAD_XREC_ROUNDTRIP
360
1283
  3
BUMPTILE
360
1155
  3
DIFFUSETILE
360
1154
  3
OPACITYTILE
360
1158
  3
REFLECTIONTILE
360
1157
  3
REFRACTIONTILE
360
1159
  3
SPECULARTILE
360
1156
  0
DICTIONARY
  5
1163
330
1162
100
AcDbDictionary
280
     1
281
     1
  3
ACAD_XREC_ROUNDTRIP
360
1285
  3
BUMPTILE
360
1165
  3
DIFFUSETILE
360
1164
  3
OPACITYTILE
360
1168
  3
REFLECTIONTILE
360
1167
  3
REFRACTIONTILE
360
1169
  3
SPECULARTILE
360
1166
  0
DICTIONARY
  5
12B7
330
119B
100
AcDbDictionary
280
     1
281
     1
  3
ACAD_XREC_ROUNDTRIP
360
12B8
  0
DICTIONARY
  5
1275
330
1185
100
AcDbDictionary
280
     1
281
     1
  3
ACAD_ROUNDTRIP_2008_TABLESTYLE_CELLSTYLEMAP
360
1276
  3
ACAD_XREC_ROUNDTRIP
360
12B6
  0
DICTIONARY
  5
1290
330
1170
100
AcDbDictionary
280
     1
281
     1
  3
ACAD_XREC_ROUNDTRIP
360
1291
  0
DICTIONARY
  5
128E
330
116F
100
AcDbDictionary
280
     1
281
     1
  3
ACAD_XREC_ROUNDTRIP
360
128F
  0
DICTIONARY
  5
129C
330
1176
100
AcDbDictionary
280
     1
281
     1
  3
ACAD_XREC_ROUNDTRIP
360
129D
  0
DICTIONARY
  5
12A4
330
117A
100
AcDbDictionary
280
     1
281
     1
  3
ACAD_XREC_ROUNDTRIP
360
12A5
  0
DICTIONARY
  5
1296
330
1173
100
AcDbDictionary
280
     1
281
     1
  3
ACAD_XREC_ROUNDTRIP
360
1297
  0
DICTIONARY
  5
129A
330
1175
100
AcDbDictionary
280
     1
281
     1
  3
ACAD_XREC_ROUNDTRIP
360
129B
  0
DICTIONARY
  5
12B4
330
1182
100
AcDbDictionary
280
     1
281
     1
  3
ACAD_XREC_ROUNDTRIP
360
12B5
  0
DICTIONARY
  5
12A2
330
1179
100
AcDbDictionary
280
     1
281
     1
  3
ACAD_XREC_ROUNDTRIP
360
12A3
  0
DICTIONARY
  5
1286
330
116B
100
AcDbDictionary
280
     1
281
     1
  3
ACAD_XREC_ROUNDTRIP
360
1287
  0
DICTIONARY
  5
1288
330
116C
100
AcDbDictionary
280
     1
281
     1
  3
ACAD_XREC_ROUNDTRIP
360
1289
  0
DICTIONARY
  5
128A
330
116D
100
AcDbDictionary
280
     1
281
     1
  3
ACAD_XREC_ROUNDTRIP
360
128B
  0
DICTIONARY
  5
128C
330
116E
100
AcDbDictionary
280
     1
281
     1
  3
ACAD_XREC_ROUNDTRIP
360
128D
  0
DICTIONARY
  5
1294
330
1172
100
AcDbDictionary
280
     1
281
     1
  3
ACAD_XREC_ROUNDTRIP
360
1295
  0
DICTIONARY
  5
12B0
330
1180
100
AcDbDictionary
280
     1
281
     1
  3
ACAD_XREC_ROUNDTRIP
360
12B1
  0
DICTIONARY
  5
12A0
330
1178
100
AcDbDictionary
280
     1
281
     1
  3
ACAD_XREC_ROUNDTRIP
360
12A1
  0
DICTIONARY
  5
12B2
330
1181
100
AcDbDictionary
280
     1
281
     1
  3
ACAD_XREC_ROUNDTRIP
360
12B3
  0
DICTIONARY
  5
1298
330
1174
100
AcDbDictionary
280
     1
281
     1
  3
ACAD_XREC_ROUNDTRIP
360
1299
  0
DICTIONARY
  5
12AE
330
117F
100
AcDbDictionary
280
     1
281
     1
  3
ACAD_XREC_ROUNDTRIP
360
12AF
  0
DICTIONARY
  5
12AC
330
117E
100
AcDbDictionary
280
     1
281
     1
  3
ACAD_XREC_ROUNDTRIP
360
12AD
  0
DICTIONARY
  5
12A6
330
117B
100
AcDbDictionary
280
     1
281
     1
  3
ACAD_XREC_ROUNDTRIP
360
12A7
  0
DICTIONARY
  5
12A8
330
117C
100
AcDbDictionary
280
     1
281
     1
  3
ACAD_XREC_ROUNDTRIP
360
12A9
  0
DICTIONARY
  5
129E
330
1177
100
AcDbDictionary
280
     1
281
     1
  3
ACAD_XREC_ROUNDTRIP
360
129F
  0
DICTIONARY
  5
1292
330
1171
100
AcDbDictionary
280
     1
281
     1
  3
ACAD_XREC_ROUNDTRIP
360
1293
  0
DICTIONARY
  5
12AA
330
117D
100
AcDbDictionary
280
     1
281
     1
  3
ACAD_XREC_ROUNDTRIP
360
12AB
  0
XRECORD
  5
12BA
102
{ACAD_REACTORS
330
12B9
102
}
330
12B9
100
AcDbXrecord
280
     1
102
DISPLAYNAME
  1
Imperial24
102
FLAGS
 90
        0
  0
XRECORD
  5
127E
102
{ACAD_REACTORS
330
127D
102
}
330
127D
100
AcDbXrecord
280
     1
102
SHADEPLOT
 70
     0
102
SHADEPLOTRESLEVEL
 70
     2
102
SHADEPLOTCUSTOMDPI
 70
   300
  0
XRECORD
  5
1280
102
{ACAD_REACTORS
330
127F
102
}
330
127F
100
AcDbXrecord
280
     1
102
SHADEPLOT
 70
     0
102
SHADEPLOTRESLEVEL
 70
     2
102
SHADEPLOTCUSTOMDPI
 70
   300
  0
XRECORD
  5
1284
102
{ACAD_REACTORS
330
115B
102
}
330
115B
100
AcDbXrecord
280
     1
102
MATERIAL
148
0.0
149
0.0
149
0.0
 93
        0
 94
      127
282
     0
 72
     0
 77
     0
171
     0
175
     0
179
     0
273
     0
  0
XRECORD
  5
115D
102
{ACAD_REACTORS
330
115B
102
}
330
115B
100
AcDbXrecord
280
     1
270
     1
271
     1
  0
XRECORD
  5
115C
102
{ACAD_REACTORS
330
115B
102
}
330
115B
100
AcDbXrecord
280
     1
270
     1
271
     1
  0
XRECORD
  5
1160
102
{ACAD_REACTORS
330
115B
102
}
330
115B
100
AcDbXrecord
280
     1
270
     1
271
     1
  0
XRECORD
  5
115F
102
{ACAD_REACTORS
330
115B
102
}
330
115B
100
AcDbXrecord
280
     1
270
     1
271
     1
  0
XRECORD
  5
1161
102
{ACAD_REACTORS
330
115B
102
}
330
115B
100
AcDbXrecord
280
     1
270
     1
271
     1
  0
XRECORD
  5
115E
102
{ACAD_REACTORS
330
115B
102
}
330
115B
100
AcDbXrecord
280
     1
270
     1
271
     1
  0
XRECORD
  5
1283
102
{ACAD_REACTORS
330
1153
102
}
330
1153
100
AcDbXrecord
280
     1
102
MATERIAL
148
0.0
149
0.0
149
0.0
 93
        0
 94
      127
282
     0
 72
     0
 77
     0
171
     0
175
     0
179
     0
273
     0
  0
XRECORD
  5
1155
102
{ACAD_REACTORS
330
1153
102
}
330
1153
100
AcDbXrecord
280
     1
270
     1
271
     1
  0
XRECORD
  5
1154
102
{ACAD_REACTORS
330
1153
102
}
330
1153
100
AcDbXrecord
280
     1
270
     1
271
     1
  0
XRECORD
  5
1158
102
{ACAD_REACTORS
330
1153
102
}
330
1153
100
AcDbXrecord
280
     1
270
     1
271
     1
  0
XRECORD
  5
1157
102
{ACAD_REACTORS
330
1153
102
}
330
1153
100
AcDbXrecord
280
     1
270
     1
271
     1
  0
XRECORD
  5
1159
102
{ACAD_REACTORS
330
1153
102
}
330
1153
100
AcDbXrecord
280
     1
270
     1
271
     1
  0
XRECORD
  5
1156
102
{ACAD_REACTORS
330
1153
102
}
330
1153
100
AcDbXrecord
280
     1
270
     1
271
     1
  0
XRECORD
  5
1285
102
{ACAD_REACTORS
330
1163
102
}
330
1163
100
AcDbXrecord
280
     1
102
MATERIAL
148
0.0
149
0.0
149
0.0
 93
        0
 94
      127
282
     0
 72
     0
 77
     0
171
     0
175
     0
179
     0
273
     0
  0
XRECORD
  5
1165
102
{ACAD_REACTORS
330
1163
102
}
330
1163
100
AcDbXrecord
280
     1
270
     1
271
     1
  0
XRECORD
  5
1164
102
{ACAD_REACTORS
330
1163
102
}
330
1163
100
AcDbXrecord
280
     1
270
     1
271
     1
  0
XRECORD
  5
1168
102
{ACAD_REACTORS
330
1163
102
}
330
1163
100
AcDbXrecord
280
     1
270
     1
271
     1
  0
XRECORD
  5
1167
102
{ACAD_REACTORS
330
1163
102
}
330
1163
100
AcDbXrecord
280
     1
270
     1
271
     1
  0
XRECORD
  5
1169
102
{ACAD_REACTORS
330
1163
102
}
330
1163
100
AcDbXrecord
280
     1
270
     1
271
     1
  0
XRECORD
  5
1166
102
{ACAD_REACTORS
330
1163
102
}
330
1163
100
AcDbXrecord
280
     1
270
     1
271
     1
  0
XRECORD
  5
12B8
102
{ACAD_REACTORS
330
12B7
102
}
330
12B7
100
AcDbXrecord
280
     1
102
DISPLAYNAME
  1
Imperial24
102
FLAGS
 90
        0
  0
CELLSTYLEMAP
  5
1276
102
{ACAD_REACTORS
330
1275
102
}
330
1275
100
AcDbCellStyleMap
 90
        3
300
CELLSTYLE
  1
TABLEFORMAT_BEGIN
 90
        5
170
     1
 91
        0
 92
    32768
 62
   257
 93
        1
300
CONTENTFORMAT
  1
CONTENTFORMAT_BEGIN
 90
        0
 91
        0
 92
      512
 93
        0
300

 40
0.0
140
1.0
 94
        5
 62
     0
340
16
144
0.25
309
CONTENTFORMAT_END
171
     0
 94
        0
309
TABLEFORMAT_END
  1
CELLSTYLE_BEGIN
 90
        1
 91
        1
300
_TITLE
309
CELLSTYLE_END
300
CELLSTYLE
  1
TABLEFORMAT_BEGIN
 90
        5
170
     1
 91
        0
 92
        0
 62
   257
 93
        1
300
CONTENTFORMAT
  1
CONTENTFORMAT_BEGIN
 90
        0
 91
        0
 92
      512
 93
        0
300

 40
0.0
140
1.0
 94
        5
 62
     0
340
16
144
0.18
309
CONTENTFORMAT_END
171
     0
 94
        0
309
TABLEFORMAT_END
  1
CELLSTYLE_BEGIN
 90
        2
 91
        1
300
_HEADER
309
CELLSTYLE_END
300
CELLSTYLE
  1
TABLEFORMAT_BEGIN
 90
        5
170
     1
 91
        0
 92
        0
 62
   257
 93
        1
300
CONTENTFORMAT
  1
CONTENTFORMAT_BEGIN
 90
        0
 91
        0
 92
      512
 93
        0
300

 40
0.0
140
1.0
 94
        2
 62
     0
340
16
144
0.18
309
CONTENTFORMAT_END
171
     0
 94
        0
309
TABLEFORMAT_END
  1
CELLSTYLE_BEGIN
 90
        3
 91
        2
300
_DATA
309
CELLSTYLE_END
  0
XRECORD
  5
12B6
102
{ACAD_REACTORS
330
1275
102
}
330
1275
100
AcDbXrecord
280
     1
102
ACAD_ROUNDTRIP_PRE2007_TABLESTYLE
 90
      512
 91
        0
  1

 92
      512
 93
        0
  2

 94
      512
 95
        0
  3

  0
XRECORD
  5
1291
102
{ACAD_REACTORS
330
1290
102
}
330
1290
100
AcDbXrecord
280
     1
102
RTVSPost2010Prop28
280
     1
102
RTVSPost2010PropOp28
 70
     1
102
RTVSPost2010Prop29
280
     1
102
RTVSPost2010PropOp29
 70
     1
102
RTVSPost2010Prop30
280
     0
102
RTVSPost2010PropOp30
 70
     1
102
RTVSPost2010Prop31
280
     0
102
RTVSPost2010PropOp31
 70
     1
102
RTVSPost2010Prop32
280
     0
102
RTVSPost2010PropOp32
 70
     1
102
RTVSPost2010Prop33
280
     0
102
RTVSPost2010PropOp33
 70
     1
102
RTVSPost2010Prop34
280
     0
102
RTVSPost2010PropOp34
 70
     1
102
RTVSPost2010Prop35
280
     0
102
RTVSPost2010PropOp35
 70
     1
102
RTVSPost2010Prop36
280
     0
102
RTVSPost2010PropOp36
 70
     1
102
RTVSPost2010Prop37
 90
       50
102
RTVSPost2010PropOp37
 70
     1
102
RTVSPost2010Prop38
140
0.0
102
RTVSPost2010PropOp38
 70
     1
102
RTVSPost2010Prop39
140
1.0
102
RTVSPost2010PropOp39
 70
     1
102
RTVSPost2010Prop40
 90
        0
102
RTVSPost2010PropOp40
 70
     1
102
RTVSPost2010Prop41ColorIndex
 90
       18
102
RTVSPost2010Prop41ColorRGB
 90
        0
102
RTVSPost2010PropOp41
 70
     1
102
RTVSPost2010Prop42
 90
       50
102
RTVSPost2010PropOp42
 70
     1
102
RTVSPost2010Prop43
 90
        3
102
RTVSPost2010PropOp43
 70
     1
102
RTVSPost2010Prop44ColorIndex
 90
        5
102
RTVSPost2010Prop44ColorRGB
 90
      255
102
RTVSPost2010PropOp44
 70
     1
102
RTVSPost2010Prop45
280
     0
102
RTVSPost2010PropOp45
 70
     1
102
RTVSPost2010Prop46
 90
       50
102
RTVSPost2010PropOp46
 70
     1
102
RTVSPost2010Prop47
 90
       50
102
RTVSPost2010PropOp47
 70
     1
102
RTVSPost2010Prop48
 90
       50
102
RTVSPost2010PropOp48
 70
     1
102
RTVSPost2010Prop49
280
     0
102
RTVSPost2010PropOp49
 70
     1
102
RTVSPost2010Prop50
 90
       50
102
RTVSPost2010PropOp50
 70
     1
102
RTVSPost2010Prop51ColorIndex
 90
      256
102
RTVSPost2010Prop51ColorRGB
 90
-16777216
102
RTVSPost2010PropOp51
 70
     0
102
RTVSPost2010Prop52
140
1.0
102
RTVSPost2010PropOp52
 70
     0
102
RTVSPost2010Prop53
 90
        2
102
RTVSPost2010PropOp53
 70
     1
102
RTVSPost2010Prop54
  1
strokes_ogs.tif
102
RTVSPost2010PropOp54
 70
     1
102
RTVSPost2010Prop55
280
     0
102
RTVSPost2010PropOp55
 70
     1
102
RTVSPost2010Prop56
140
1.0
102
RTVSPost2010PropOp56
 70
     1
102
RTVSPost2010Prop57
140
1.0
102
RTVSPost2010PropOp57
 70
     1
102
RTVSPropertyOp0
 70
     1
102
RTVSPropertyOp1
 70
     1
102
RTVSPropertyOp2
 70
     1
102
RTVSPropertyOp3
 70
     1
102
RTVSPropertyOp4
 70
     1
102
RTVSPropertyOp5
 70
     1
102
RTVSPropertyOp6
 70
     1
102
RTVSPropertyOp7
 70
     1
102
RTVSPropertyOp8
 70
     1
102
RTVSPropertyOp9
 70
     1
102
RTVSPropertyOp10
 70
     1
102
RTVSPropertyOp11
 70
     1
102
RTVSPropertyOp12
 70
     1
102
RTVSPropertyOp13
 70
     1
102
RTVSPropertyOp14
 70
     1
102
RTVSPropertyOp15
 70
     1
102
RTVSPropertyOp16
 70
     1
102
RTVSPropertyOp17
 70
     1
102
RTVSPropertyOp18
 70
     1
102
RTVSPropertyOp19
 70
     1
102
RTVSPropertyOp20
 70
     1
102
RTVSPropertyOp21
 70
     1
102
RTVSPropertyOp22
 70
     1
102
RTVSPropertyOp23
 70
     1
102
RTVSPropertyOp24
 70
     1
102
RTVSPropertyOp25
 70
     1
102
RTVSPropertyOp26
 70
     1
102
RTVSPropertyOp27
 70
     1
102
RTVSPropertyOp28
 70
     1
102
RTVSPropertyOp29
 70
     1
102
RTVSPropertyOp30
 70
     1
102
RTVSPropertyOp31
 70
     1
102
RTVSPropertyOp32
 70
     1
102
RTVSPropertyOp33
 70
     1
102
RTVSPropertyOp34
 70
     1
102
RTVSPropertyOp35
 70
     1
102
RTVSPropertyOp36
 70
     1
102
RTVSPropertyOp37
 70
     1
102
RTVSPropertyOp38
 70
     1
102
RTVSPropertyOp39
 70
     1
102
RTVSPropertyOp40
 70
     1
102
RTVSPropertyOp41
 70
     1
102
RTVSPropertyOp42
 70
     1
102
RTVSPropertyOp43
 70
     1
102
RTVSPropertyOp44
 70
     1
102
RTVSPropertyOp45
 70
     1
102
RTVSPropertyOp46
 70
     1
102
RTVSPropertyOp47
 70
     1
102
RTVSPropertyOp48
 70
     1
102
RTVSPropertyOp49
 70
     1
102
RTVSPropertyOp50
 70
     1
102
RTVSPropertyOp51
 70
     0
102
RTVSPropertyOp52
 70
     0
102
RTVSPropertyOp53
 70
     1
102
RTVSPropertyOp54
 70
     1
102
RTVSPropertyOp55
 70
     1
102
RTVSPropertyOp56
 70
     1
102
RTVSPropertyOp57
 70
     1
102
RTVSPropertyOp58
 70
     1
102
RTVSPropertyOp59
 70
     1
102
RTVSPropertyOp60
 70
     1
102
RTVSPropertyOp61
 70
     1
102
RTVSPropertyOp62
 70
     1
  0
XRECORD
  5
128F
102
{ACAD_REACTORS
330
128E
102
}
330
128E
100
AcDbXrecord
280
     1
102
RTVSPost2010Prop28
280
     0
102
RTVSPost2010PropOp28
 70
     1
102
RTVSPost2010Prop29
280
     1
102
RTVSPost2010PropOp29
 70
     1
102
RTVSPost2010Prop30
280
     1
102
RTVSPost2010PropOp30
 70
     1
102
RTVSPost2010Prop31
280
     0
102
RTVSPost2010PropOp31
 70
     1
102
RTVSPost2010Prop32
280
     0
102
RTVSPost2010PropOp32
 70
     1
102
RTVSPost2010Prop33
280
     0
102
RTVSPost2010PropOp33
 70
     1
102
RTVSPost2010Prop34
280
     0
102
RTVSPost2010PropOp34
 70
     1
102
RTVSPost2010Prop35
280
     0
102
RTVSPost2010PropOp35
 70
     1
102
RTVSPost2010Prop36
280
     0
102
RTVSPost2010PropOp36
 70
     1
102
RTVSPost2010Prop37
 90
       50
102
RTVSPost2010PropOp37
 70
     1
102
RTVSPost2010Prop38
140
0.0
102
RTVSPost2010PropOp38
 70
     1
102
RTVSPost2010Prop39
140
1.0
102
RTVSPost2010PropOp39
 70
     1
102
RTVSPost2010Prop40
 90
        0
102
RTVSPost2010PropOp40
 70
     1
102
RTVSPost2010Prop41ColorIndex
 90
       18
102
RTVSPost2010Prop41ColorRGB
 90
        0
102
RTVSPost2010PropOp41
 70
     1
102
RTVSPost2010Prop42
 90
       50
102
RTVSPost2010PropOp42
 70
     1
102
RTVSPost2010Prop43
 90
        3
102
RTVSPost2010PropOp43
 70
     1
102
RTVSPost2010Prop44ColorIndex
 90
        5
102
RTVSPost2010Prop44ColorRGB
 90
      255
102
RTVSPost2010PropOp44
 70
     1
102
RTVSPost2010Prop45
280
     0
102
RTVSPost2010PropOp45
 70
     1
102
RTVSPost2010Prop46
 90
       50
102
RTVSPost2010PropOp46
 70
     1
102
RTVSPost2010Prop47
 90
       50
102
RTVSPost2010PropOp47
 70
     1
102
RTVSPost2010Prop48
 90
       50
102
RTVSPost2010PropOp48
 70
     1
102
RTVSPost2010Prop49
280
     0
102
RTVSPost2010PropOp49
 70
     1
102
RTVSPost2010Prop50
 90
       50
102
RTVSPost2010PropOp50
 70
     1
102
RTVSPost2010Prop51ColorIndex
 90
      256
102
RTVSPost2010Prop51ColorRGB
 90
-16777216
102
RTVSPost2010PropOp51
 70
     0
102
RTVSPost2010Prop52
140
1.0
102
RTVSPost2010PropOp52
 70
     0
102
RTVSPost2010Prop53
 90
        2
102
RTVSPost2010PropOp53
 70
     1
102
RTVSPost2010Prop54
  1
strokes_ogs.tif
102
RTVSPost2010PropOp54
 70
     1
102
RTVSPost2010Prop55
280
     0
102
RTVSPost2010PropOp55
 70
     1
102
RTVSPost2010Prop56
140
1.0
102
RTVSPost2010PropOp56
 70
     1
102
RTVSPost2010Prop57
140
1.0
102
RTVSPost2010PropOp57
 70
     1
102
RTVSPropertyOp0
 70
     1
102
RTVSPropertyOp1
 70
     1
102
RTVSPropertyOp2
 70
     1
102
RTVSPropertyOp3
 70
     1
102
RTVSPropertyOp4
 70
     1
102
RTVSPropertyOp5
 70
     1
102
RTVSPropertyOp6
 70
     1
102
RTVSPropertyOp7
 70
     1
102
RTVSPropertyOp8
 70
     1
102
RTVSPropertyOp9
 70
     1
102
RTVSPropertyOp10
 70
     1
102
RTVSPropertyOp11
 70
     1
102
RTVSPropertyOp12
 70
     1
102
RTVSPropertyOp13
 70
     1
102
RTVSPropertyOp14
 70
     1
102
RTVSPropertyOp15
 70
     1
102
RTVSPropertyOp16
 70
     1
102
RTVSPropertyOp17
 70
     1
102
RTVSPropertyOp18
 70
     1
102
RTVSPropertyOp19
 70
     1
102
RTVSPropertyOp20
 70
     1
102
RTVSPropertyOp21
 70
     1
102
RTVSPropertyOp22
 70
     1
102
RTVSPropertyOp23
 70
     1
102
RTVSPropertyOp24
 70
     1
102
RTVSPropertyOp25
 70
     1
102
RTVSPropertyOp26
 70
     1
102
RTVSPropertyOp27
 70
     1
102
RTVSPropertyOp28
 70
     1
102
RTVSPropertyOp29
 70
     1
102
RTVSPropertyOp30
 70
     1
102
RTVSPropertyOp31
 70
     1
102
RTVSPropertyOp32
 70
     1
102
RTVSPropertyOp33
 70
     1
102
RTVSPropertyOp34
 70
     1
102
RTVSPropertyOp35
 70
     1
102
RTVSPropertyOp36
 70
     1
102
RTVSPropertyOp37
 70
     1
102
RTVSPropertyOp38
 70
     1
102
RTVSPropertyOp39
 70
     1
102
RTVSPropertyOp40
 70
     1
102
RTVSPropertyOp41
 70
     1
102
RTVSPropertyOp42
 70
     1
102
RTVSPropertyOp43
 70
     1
102
RTVSPropertyOp44
 70
     1
102
RTVSPropertyOp45
 70
     1
102
RTVSPropertyOp46
 70
     1
102
RTVSPropertyOp47
 70
     1
102
RTVSPropertyOp48
 70
     1
102
RTVSPropertyOp49
 70
     1
102
RTVSPropertyOp50
 70
     1
102
RTVSPropertyOp51
 70
     0
102
RTVSPropertyOp52
 70
     0
102
RTVSPropertyOp53
 70
     1
102
RTVSPropertyOp54
 70
     1
102
RTVSPropertyOp55
 70
     1
102
RTVSPropertyOp56
 70
     1
102
RTVSPropertyOp57
 70
     1
102
RTVSPropertyOp58
 70
     1
102
RTVSPropertyOp59
 70
     1
102
RTVSPropertyOp60
 70
     1
102
RTVSPropertyOp61
 70
     1
102
RTVSPropertyOp62
 70
     1
  0
XRECORD
  5
129D
102
{ACAD_REACTORS
330
129C
102
}
330
129C
100
AcDbXrecord
280
     1
102
RTVSPost2010Prop28
280
     0
102
RTVSPost2010PropOp28
 70
     1
102
RTVSPost2010Prop29
280
     1
102
RTVSPost2010PropOp29
 70
     1
102
RTVSPost2010Prop30
280
     1
102
RTVSPost2010PropOp30
 70
     1
102
RTVSPost2010Prop31
280
     0
102
RTVSPost2010PropOp31
 70
     1
102
RTVSPost2010Prop32
280
     0
102
RTVSPost2010PropOp32
 70
     1
102
RTVSPost2010Prop33
280
     0
102
RTVSPost2010PropOp33
 70
     1
102
RTVSPost2010Prop34
280
     0
102
RTVSPost2010PropOp34
 70
     1
102
RTVSPost2010Prop35
280
     0
102
RTVSPost2010PropOp35
 70
     1
102
RTVSPost2010Prop36
280
     0
102
RTVSPost2010PropOp36
 70
     1
102
RTVSPost2010Prop37
 90
       50
102
RTVSPost2010PropOp37
 70
     1
102
RTVSPost2010Prop38
140
0.0
102
RTVSPost2010PropOp38
 70
     1
102
RTVSPost2010Prop39
140
1.0
102
RTVSPost2010PropOp39
 70
     1
102
RTVSPost2010Prop40
 90
        0
102
RTVSPost2010PropOp40
 70
     1
102
RTVSPost2010Prop41ColorIndex
 90
       18
102
RTVSPost2010Prop41ColorRGB
 90
        0
102
RTVSPost2010PropOp41
 70
     1
102
RTVSPost2010Prop42
 90
       50
102
RTVSPost2010PropOp42
 70
     1
102
RTVSPost2010Prop43
 90
        3
102
RTVSPost2010PropOp43
 70
     1
102
RTVSPost2010Prop44ColorIndex
 90
        5
102
RTVSPost2010Prop44ColorRGB
 90
      255
102
RTVSPost2010PropOp44
 70
     1
102
RTVSPost2010Prop45
280
     0
102
RTVSPost2010PropOp45
 70
     1
102
RTVSPost2010Prop46
 90
       50
102
RTVSPost2010PropOp46
 70
     1
102
RTVSPost2010Prop47
 90
       50
102
RTVSPost2010PropOp47
 70
     1
102
RTVSPost2010Prop48
 90
       50
102
RTVSPost2010PropOp48
 70
     1
102
RTVSPost2010Prop49
280
     0
102
RTVSPost2010PropOp49
 70
     1
102
RTVSPost2010Prop50
 90
       50
102
RTVSPost2010PropOp50
 70
     1
102
RTVSPost2010Prop51ColorIndex
 90
      256
102
RTVSPost2010Prop51ColorRGB
 90
-16777216
102
RTVSPost2010PropOp51
 70
     0
102
RTVSPost2010Prop52
140
1.0
102
RTVSPost2010PropOp52
 70
     0
102
RTVSPost2010Prop53
 90
        2
102
RTVSPost2010PropOp53
 70
     1
102
RTVSPost2010Prop54
  1
strokes_ogs.tif
102
RTVSPost2010PropOp54
 70
     1
102
RTVSPost2010Prop55
280
     0
102
RTVSPost2010PropOp55
 70
     1
102
RTVSPost2010Prop56
140
1.0
102
RTVSPost2010PropOp56
 70
     1
102
RTVSPost2010Prop57
140
1.0
102
RTVSPost2010PropOp57
 70
     1
102
RTVSPropertyOp0
 70
     1
102
RTVSPropertyOp1
 70
     1
102
RTVSPropertyOp2
 70
     1
102
RTVSPropertyOp3
 70
     1
102
RTVSPropertyOp4
 70
     1
102
RTVSPropertyOp5
 70
     1
102
RTVSPropertyOp6
 70
     1
102
RTVSPropertyOp7
 70
     1
102
RTVSPropertyOp8
 70
     1
102
RTVSPropertyOp9
 70
     1
102
RTVSPropertyOp10
 70
     1
102
RTVSPropertyOp11
 70
     1
102
RTVSPropertyOp12
 70
     1
102
RTVSPropertyOp13
 70
     1
102
RTVSPropertyOp14
 70
     1
102
RTVSPropertyOp15
 70
     1
102
RTVSPropertyOp16
 70
     1
102
RTVSPropertyOp17
 70
     1
102
RTVSPropertyOp18
 70
     1
102
RTVSPropertyOp19
 70
     1
102
RTVSPropertyOp20
 70
     1
102
RTVSPropertyOp21
 70
     1
102
RTVSPropertyOp22
 70
     1
102
RTVSPropertyOp23
 70
     1
102
RTVSPropertyOp24
 70
     1
102
RTVSPropertyOp25
 70
     1
102
RTVSPropertyOp26
 70
     1
102
RTVSPropertyOp27
 70
     1
102
RTVSPropertyOp28
 70
     1
102
RTVSPropertyOp29
 70
     1
102
RTVSPropertyOp30
 70
     1
102
RTVSPropertyOp31
 70
     1
102
RTVSPropertyOp32
 70
     1
102
RTVSPropertyOp33
 70
     1
102
RTVSPropertyOp34
 70
     1
102
RTVSPropertyOp35
 70
     1
102
RTVSPropertyOp36
 70
     1
102
RTVSPropertyOp37
 70
     1
102
RTVSPropertyOp38
 70
     1
102
RTVSPropertyOp39
 70
     1
102
RTVSPropertyOp40
 70
     1
102
RTVSPropertyOp41
 70
     1
102
RTVSPropertyOp42
 70
     1
102
RTVSPropertyOp43
 70
     1
102
RTVSPropertyOp44
 70
     1
102
RTVSPropertyOp45
 70
     1
102
RTVSPropertyOp46
 70
     1
102
RTVSPropertyOp47
 70
     1
102
RTVSPropertyOp48
 70
     1
102
RTVSPropertyOp49
 70
     1
102
RTVSPropertyOp50
 70
     1
102
RTVSPropertyOp51
 70
     0
102
RTVSPropertyOp52
 70
     0
102
RTVSPropertyOp53
 70
     1
102
RTVSPropertyOp54
 70
     1
102
RTVSPropertyOp55
 70
     1
102
RTVSPropertyOp56
 70
     1
102
RTVSPropertyOp57
 70
     1
102
RTVSPropertyOp58
 70
     1
102
RTVSPropertyOp59
 70
     1
102
RTVSPropertyOp60
 70
     1
102
RTVSPropertyOp61
 70
     1
102
RTVSPropertyOp62
 70
     1
  0
XRECORD
  5
12A5
102
{ACAD_REACTORS
330
12A4
102
}
330
12A4
100
AcDbXrecord
280
     1
102
RTVSPost2010Prop28
280
     0
102
RTVSPost2010PropOp28
 70
     1
102
RTVSPost2010Prop29
280
     1
102
RTVSPost2010PropOp29
 70
     1
102
RTVSPost2010Prop30
280
     1
102
RTVSPost2010PropOp30
 70
     1
102
RTVSPost2010Prop31
280
     0
102
RTVSPost2010PropOp31
 70
     1
102
RTVSPost2010Prop32
280
     0
102
RTVSPost2010PropOp32
 70
     1
102
RTVSPost2010Prop33
280
     0
102
RTVSPost2010PropOp33
 70
     1
102
RTVSPost2010Prop34
280
     0
102
RTVSPost2010PropOp34
 70
     1
102
RTVSPost2010Prop35
280
     0
102
RTVSPost2010PropOp35
 70
     1
102
RTVSPost2010Prop36
280
     0
102
RTVSPost2010PropOp36
 70
     1
102
RTVSPost2010Prop37
 90
       50
102
RTVSPost2010PropOp37
 70
     1
102
RTVSPost2010Prop38
140
0.0
102
RTVSPost2010PropOp38
 70
     1
102
RTVSPost2010Prop39
140
1.0
102
RTVSPost2010PropOp39
 70
     1
102
RTVSPost2010Prop40
 90
        0
102
RTVSPost2010PropOp40
 70
     1
102
RTVSPost2010Prop41ColorIndex
 90
       18
102
RTVSPost2010Prop41ColorRGB
 90
        0
102
RTVSPost2010PropOp41
 70
     1
102
RTVSPost2010Prop42
 90
       50
102
RTVSPost2010PropOp42
 70
     1
102
RTVSPost2010Prop43
 90
        3
102
RTVSPost2010PropOp43
 70
     1
102
RTVSPost2010Prop44ColorIndex
 90
        5
102
RTVSPost2010Prop44ColorRGB
 90
      255
102
RTVSPost2010PropOp44
 70
     1
102
RTVSPost2010Prop45
280
     0
102
RTVSPost2010PropOp45
 70
     1
102
RTVSPost2010Prop46
 90
       50
102
RTVSPost2010PropOp46
 70
     1
102
RTVSPost2010Prop47
 90
       50
102
RTVSPost2010PropOp47
 70
     1
102
RTVSPost2010Prop48
 90
       50
102
RTVSPost2010PropOp48
 70
     1
102
RTVSPost2010Prop49
280
     0
102
RTVSPost2010PropOp49
 70
     1
102
RTVSPost2010Prop50
 90
       50
102
RTVSPost2010PropOp50
 70
     1
102
RTVSPost2010Prop51ColorIndex
 90
      256
102
RTVSPost2010Prop51ColorRGB
 90
-16777216
102
RTVSPost2010PropOp51
 70
     0
102
RTVSPost2010Prop52
140
1.0
102
RTVSPost2010PropOp52
 70
     0
102
RTVSPost2010Prop53
 90
        2
102
RTVSPost2010PropOp53
 70
     1
102
RTVSPost2010Prop54
  1
strokes_ogs.tif
102
RTVSPost2010PropOp54
 70
     1
102
RTVSPost2010Prop55
280
     0
102
RTVSPost2010PropOp55
 70
     1
102
RTVSPost2010Prop56
140
1.0
102
RTVSPost2010PropOp56
 70
     1
102
RTVSPost2010Prop57
140
1.0
102
RTVSPost2010PropOp57
 70
     1
102
RTVSPropertyOp0
 70
     1
102
RTVSPropertyOp1
 70
     1
102
RTVSPropertyOp2
 70
     1
102
RTVSPropertyOp3
 70
     1
102
RTVSPropertyOp4
 70
     1
102
RTVSPropertyOp5
 70
     1
102
RTVSPropertyOp6
 70
     1
102
RTVSPropertyOp7
 70
     1
102
RTVSPropertyOp8
 70
     1
102
RTVSPropertyOp9
 70
     1
102
RTVSPropertyOp10
 70
     1
102
RTVSPropertyOp11
 70
     1
102
RTVSPropertyOp12
 70
     1
102
RTVSPropertyOp13
 70
     1
102
RTVSPropertyOp14
 70
     1
102
RTVSPropertyOp15
 70
     1
102
RTVSPropertyOp16
 70
     1
102
RTVSPropertyOp17
 70
     1
102
RTVSPropertyOp18
 70
     1
102
RTVSPropertyOp19
 70
     1
102
RTVSPropertyOp20
 70
     1
102
RTVSPropertyOp21
 70
     1
102
RTVSPropertyOp22
 70
     1
102
RTVSPropertyOp23
 70
     1
102
RTVSPropertyOp24
 70
     1
102
RTVSPropertyOp25
 70
     1
102
RTVSPropertyOp26
 70
     1
102
RTVSPropertyOp27
 70
     1
102
RTVSPropertyOp28
 70
     1
102
RTVSPropertyOp29
 70
     1
102
RTVSPropertyOp30
 70
     1
102
RTVSPropertyOp31
 70
     1
102
RTVSPropertyOp32
 70
     1
102
RTVSPropertyOp33
 70
     1
102
RTVSPropertyOp34
 70
     1
102
RTVSPropertyOp35
 70
     1
102
RTVSPropertyOp36
 70
     1
102
RTVSPropertyOp37
 70
     1
102
RTVSPropertyOp38
 70
     1
102
RTVSPropertyOp39
 70
     1
102
RTVSPropertyOp40
 70
     1
102
RTVSPropertyOp41
 70
     1
102
RTVSPropertyOp42
 70
     1
102
RTVSPropertyOp43
 70
     1
102
RTVSPropertyOp44
 70
     1
102
RTVSPropertyOp45
 70
     1
102
RTVSPropertyOp46
 70
     1
102
RTVSPropertyOp47
 70
     1
102
RTVSPropertyOp48
 70
     1
102
RTVSPropertyOp49
 70
     1
102
RTVSPropertyOp50
 70
     1
102
RTVSPropertyOp51
 70
     0
102
RTVSPropertyOp52
 70
     0
102
RTVSPropertyOp53
 70
     1
102
RTVSPropertyOp54
 70
     1
102
RTVSPropertyOp55
 70
     1
102
RTVSPropertyOp56
 70
     1
102
RTVSPropertyOp57
 70
     1
102
RTVSPropertyOp58
 70
     1
102
RTVSPropertyOp59
 70
     1
102
RTVSPropertyOp60
 70
     1
102
RTVSPropertyOp61
 70
     1
102
RTVSPropertyOp62
 70
     1
  0
XRECORD
  5
1297
102
{ACAD_REACTORS
330
1296
102
}
330
1296
100
AcDbXrecord
280
     1
102
RTVSPost2010Prop28
280
     0
102
RTVSPost2010PropOp28
 70
     1
102
RTVSPost2010Prop29
280
     1
102
RTVSPost2010PropOp29
 70
     1
102
RTVSPost2010Prop30
280
     1
102
RTVSPost2010PropOp30
 70
     1
102
RTVSPost2010Prop31
280
     0
102
RTVSPost2010PropOp31
 70
     1
102
RTVSPost2010Prop32
280
     0
102
RTVSPost2010PropOp32
 70
     1
102
RTVSPost2010Prop33
280
     0
102
RTVSPost2010PropOp33
 70
     1
102
RTVSPost2010Prop34
280
     0
102
RTVSPost2010PropOp34
 70
     1
102
RTVSPost2010Prop35
280
     0
102
RTVSPost2010PropOp35
 70
     1
102
RTVSPost2010Prop36
280
     0
102
RTVSPost2010PropOp36
 70
     1
102
RTVSPost2010Prop37
 90
       50
102
RTVSPost2010PropOp37
 70
     1
102
RTVSPost2010Prop38
140
0.0
102
RTVSPost2010PropOp38
 70
     1
102
RTVSPost2010Prop39
140
1.0
102
RTVSPost2010PropOp39
 70
     1
102
RTVSPost2010Prop40
 90
        0
102
RTVSPost2010PropOp40
 70
     1
102
RTVSPost2010Prop41ColorIndex
 90
       18
102
RTVSPost2010Prop41ColorRGB
 90
        0
102
RTVSPost2010PropOp41
 70
     1
102
RTVSPost2010Prop42
 90
       50
102
RTVSPost2010PropOp42
 70
     1
102
RTVSPost2010Prop43
 90
        3
102
RTVSPost2010PropOp43
 70
     1
102
RTVSPost2010Prop44ColorIndex
 90
        5
102
RTVSPost2010Prop44ColorRGB
 90
      255
102
RTVSPost2010PropOp44
 70
     1
102
RTVSPost2010Prop45
280
     0
102
RTVSPost2010PropOp45
 70
     1
102
RTVSPost2010Prop46
 90
       50
102
RTVSPost2010PropOp46
 70
     1
102
RTVSPost2010Prop47
 90
       50
102
RTVSPost2010PropOp47
 70
     1
102
RTVSPost2010Prop48
 90
       50
102
RTVSPost2010PropOp48
 70
     1
102
RTVSPost2010Prop49
280
     0
102
RTVSPost2010PropOp49
 70
     1
102
RTVSPost2010Prop50
 90
       50
102
RTVSPost2010PropOp50
 70
     1
102
RTVSPost2010Prop51ColorIndex
 90
      256
102
RTVSPost2010Prop51ColorRGB
 90
-16777216
102
RTVSPost2010PropOp51
 70
     0
102
RTVSPost2010Prop52
140
1.0
102
RTVSPost2010PropOp52
 70
     0
102
RTVSPost2010Prop53
 90
        2
102
RTVSPost2010PropOp53
 70
     1
102
RTVSPost2010Prop54
  1
strokes_ogs.tif
102
RTVSPost2010PropOp54
 70
     1
102
RTVSPost2010Prop55
280
     0
102
RTVSPost2010PropOp55
 70
     1
102
RTVSPost2010Prop56
140
1.0
102
RTVSPost2010PropOp56
 70
     1
102
RTVSPost2010Prop57
140
1.0
102
RTVSPost2010PropOp57
 70
     1
102
RTVSPropertyOp0
 70
     1
102
RTVSPropertyOp1
 70
     1
102
RTVSPropertyOp2
 70
     1
102
RTVSPropertyOp3
 70
     1
102
RTVSPropertyOp4
 70
     1
102
RTVSPropertyOp5
 70
     1
102
RTVSPropertyOp6
 70
     1
102
RTVSPropertyOp7
 70
     1
102
RTVSPropertyOp8
 70
     1
102
RTVSPropertyOp9
 70
     1
102
RTVSPropertyOp10
 70
     1
102
RTVSPropertyOp11
 70
     1
102
RTVSPropertyOp12
 70
     1
102
RTVSPropertyOp13
 70
     1
102
RTVSPropertyOp14
 70
     1
102
RTVSPropertyOp15
 70
     1
102
RTVSPropertyOp16
 70
     1
102
RTVSPropertyOp17
 70
     1
102
RTVSPropertyOp18
 70
     1
102
RTVSPropertyOp19
 70
     1
102
RTVSPropertyOp20
 70
     1
102
RTVSPropertyOp21
 70
     1
102
RTVSPropertyOp22
 70
     1
102
RTVSPropertyOp23
 70
     1
102
RTVSPropertyOp24
 70
     1
102
RTVSPropertyOp25
 70
     1
102
RTVSPropertyOp26
 70
     1
102
RTVSPropertyOp27
 70
     1
102
RTVSPropertyOp28
 70
     1
102
RTVSPropertyOp29
 70
     1
102
RTVSPropertyOp30
 70
     1
102
RTVSPropertyOp31
 70
     1
102
RTVSPropertyOp32
 70
     1
102
RTVSPropertyOp33
 70
     1
102
RTVSPropertyOp34
 70
     1
102
RTVSPropertyOp35
 70
     1
102
RTVSPropertyOp36
 70
     1
102
RTVSPropertyOp37
 70
     1
102
RTVSPropertyOp38
 70
     1
102
RTVSPropertyOp39
 70
     1
102
RTVSPropertyOp40
 70
     1
102
RTVSPropertyOp41
 70
     1
102
RTVSPropertyOp42
 70
     1
102
RTVSPropertyOp43
 70
     1
102
RTVSPropertyOp44
 70
     1
102
RTVSPropertyOp45
 70
     1
102
RTVSPropertyOp46
 70
     1
102
RTVSPropertyOp47
 70
     1
102
RTVSPropertyOp48
 70
     1
102
RTVSPropertyOp49
 70
     1
102
RTVSPropertyOp50
 70
     1
102
RTVSPropertyOp51
 70
     0
102
RTVSPropertyOp52
 70
     0
102
RTVSPropertyOp53
 70
     1
102
RTVSPropertyOp54
 70
     1
102
RTVSPropertyOp55
 70
     1
102
RTVSPropertyOp56
 70
     1
102
RTVSPropertyOp57
 70
     1
102
RTVSPropertyOp58
 70
     1
102
RTVSPropertyOp59
 70
     1
102
RTVSPropertyOp60
 70
     1
102
RTVSPropertyOp61
 70
     1
102
RTVSPropertyOp62
 70
     1
  0
XRECORD
  5
129B
102
{ACAD_REACTORS
330
129A
102
}
330
129A
100
AcDbXrecord
280
     1
102
RTVSPost2010Prop28
280
     0
102
RTVSPost2010PropOp28
 70
     1
102
RTVSPost2010Prop29
280
     1
102
RTVSPost2010PropOp29
 70
     1
102
RTVSPost2010Prop30
280
     1
102
RTVSPost2010PropOp30
 70
     1
102
RTVSPost2010Prop31
280
     0
102
RTVSPost2010PropOp31
 70
     1
102
RTVSPost2010Prop32
280
     0
102
RTVSPost2010PropOp32
 70
     1
102
RTVSPost2010Prop33
280
     0
102
RTVSPost2010PropOp33
 70
     1
102
RTVSPost2010Prop34
280
     0
102
RTVSPost2010PropOp34
 70
     1
102
RTVSPost2010Prop35
280
     0
102
RTVSPost2010PropOp35
 70
     1
102
RTVSPost2010Prop36
280
     0
102
RTVSPost2010PropOp36
 70
     1
102
RTVSPost2010Prop37
 90
       50
102
RTVSPost2010PropOp37
 70
     1
102
RTVSPost2010Prop38
140
0.0
102
RTVSPost2010PropOp38
 70
     1
102
RTVSPost2010Prop39
140
1.0
102
RTVSPost2010PropOp39
 70
     1
102
RTVSPost2010Prop40
 90
        0
102
RTVSPost2010PropOp40
 70
     1
102
RTVSPost2010Prop41ColorIndex
 90
       18
102
RTVSPost2010Prop41ColorRGB
 90
        0
102
RTVSPost2010PropOp41
 70
     1
102
RTVSPost2010Prop42
 90
       50
102
RTVSPost2010PropOp42
 70
     1
102
RTVSPost2010Prop43
 90
        3
102
RTVSPost2010PropOp43
 70
     1
102
RTVSPost2010Prop44ColorIndex
 90
        5
102
RTVSPost2010Prop44ColorRGB
 90
      255
102
RTVSPost2010PropOp44
 70
     1
102
RTVSPost2010Prop45
280
     0
102
RTVSPost2010PropOp45
 70
     1
102
RTVSPost2010Prop46
 90
       50
102
RTVSPost2010PropOp46
 70
     1
102
RTVSPost2010Prop47
 90
       50
102
RTVSPost2010PropOp47
 70
     1
102
RTVSPost2010Prop48
 90
       50
102
RTVSPost2010PropOp48
 70
     1
102
RTVSPost2010Prop49
280
     0
102
RTVSPost2010PropOp49
 70
     1
102
RTVSPost2010Prop50
 90
       50
102
RTVSPost2010PropOp50
 70
     1
102
RTVSPost2010Prop51ColorIndex
 90
      256
102
RTVSPost2010Prop51ColorRGB
 90
-16777216
102
RTVSPost2010PropOp51
 70
     0
102
RTVSPost2010Prop52
140
1.0
102
RTVSPost2010PropOp52
 70
     0
102
RTVSPost2010Prop53
 90
        2
102
RTVSPost2010PropOp53
 70
     1
102
RTVSPost2010Prop54
  1
strokes_ogs.tif
102
RTVSPost2010PropOp54
 70
     1
102
RTVSPost2010Prop55
280
     0
102
RTVSPost2010PropOp55
 70
     1
102
RTVSPost2010Prop56
140
1.0
102
RTVSPost2010PropOp56
 70
     1
102
RTVSPost2010Prop57
140
1.0
102
RTVSPost2010PropOp57
 70
     1
102
RTVSPropertyOp0
 70
     1
102
RTVSPropertyOp1
 70
     1
102
RTVSPropertyOp2
 70
     1
102
RTVSPropertyOp3
 70
     1
102
RTVSPropertyOp4
 70
     1
102
RTVSPropertyOp5
 70
     1
102
RTVSPropertyOp6
 70
     1
102
RTVSPropertyOp7
 70
     1
102
RTVSPropertyOp8
 70
     1
102
RTVSPropertyOp9
 70
     1
102
RTVSPropertyOp10
 70
     1
102
RTVSPropertyOp11
 70
     1
102
RTVSPropertyOp12
 70
     1
102
RTVSPropertyOp13
 70
     1
102
RTVSPropertyOp14
 70
     1
102
RTVSPropertyOp15
 70
     1
102
RTVSPropertyOp16
 70
     1
102
RTVSPropertyOp17
 70
     1
102
RTVSPropertyOp18
 70
     1
102
RTVSPropertyOp19
 70
     1
102
RTVSPropertyOp20
 70
     1
102
RTVSPropertyOp21
 70
     1
102
RTVSPropertyOp22
 70
     1
102
RTVSPropertyOp23
 70
     1
102
RTVSPropertyOp24
 70
     1
102
RTVSPropertyOp25
 70
     1
102
RTVSPropertyOp26
 70
     1
102
RTVSPropertyOp27
 70
     1
102
RTVSPropertyOp28
 70
     1
102
RTVSPropertyOp29
 70
     1
102
RTVSPropertyOp30
 70
     1
102
RTVSPropertyOp31
 70
     1
102
RTVSPropertyOp32
 70
     1
102
RTVSPropertyOp33
 70
     1
102
RTVSPropertyOp34
 70
     1
102
RTVSPropertyOp35
 70
     1
102
RTVSPropertyOp36
 70
     1
102
RTVSPropertyOp37
 70
     1
102
RTVSPropertyOp38
 70
     1
102
RTVSPropertyOp39
 70
     1
102
RTVSPropertyOp40
 70
     1
102
RTVSPropertyOp41
 70
     1
102
RTVSPropertyOp42
 70
     1
102
RTVSPropertyOp43
 70
     1
102
RTVSPropertyOp44
 70
     1
102
RTVSPropertyOp45
 70
     1
102
RTVSPropertyOp46
 70
     1
102
RTVSPropertyOp47
 70
     1
102
RTVSPropertyOp48
 70
     1
102
RTVSPropertyOp49
 70
     1
102
RTVSPropertyOp50
 70
     1
102
RTVSPropertyOp51
 70
     0
102
RTVSPropertyOp52
 70
     0
102
RTVSPropertyOp53
 70
     1
102
RTVSPropertyOp54
 70
     1
102
RTVSPropertyOp55
 70
     1
102
RTVSPropertyOp56
 70
     1
102
RTVSPropertyOp57
 70
     1
102
RTVSPropertyOp58
 70
     1
102
RTVSPropertyOp59
 70
     1
102
RTVSPropertyOp60
 70
     1
102
RTVSPropertyOp61
 70
     1
102
RTVSPropertyOp62
 70
     1
  0
XRECORD
  5
12B5
102
{ACAD_REACTORS
330
12B4
102
}
330
12B4
100
AcDbXrecord
280
     1
102
RTVSPost2010Prop28
280
     0
102
RTVSPost2010PropOp28
 70
     1
102
RTVSPost2010Prop29
280
     1
102
RTVSPost2010PropOp29
 70
     1
102
RTVSPost2010Prop30
280
     1
102
RTVSPost2010PropOp30
 70
     1
102
RTVSPost2010Prop31
280
     0
102
RTVSPost2010PropOp31
 70
     1
102
RTVSPost2010Prop32
280
     0
102
RTVSPost2010PropOp32
 70
     1
102
RTVSPost2010Prop33
280
     0
102
RTVSPost2010PropOp33
 70
     1
102
RTVSPost2010Prop34
280
     0
102
RTVSPost2010PropOp34
 70
     1
102
RTVSPost2010Prop35
280
     0
102
RTVSPost2010PropOp35
 70
     1
102
RTVSPost2010Prop36
280
     0
102
RTVSPost2010PropOp36
 70
     1
102
RTVSPost2010Prop37
 90
       50
102
RTVSPost2010PropOp37
 70
     0
102
RTVSPost2010Prop38
140
0.0
102
RTVSPost2010PropOp38
 70
     0
102
RTVSPost2010Prop39
140
1.0
102
RTVSPost2010PropOp39
 70
     0
102
RTVSPost2010Prop40
 90
        0
102
RTVSPost2010PropOp40
 70
     0
102
RTVSPost2010Prop41ColorIndex
 90
       18
102
RTVSPost2010Prop41ColorRGB
 90
        0
102
RTVSPost2010PropOp41
 70
     0
102
RTVSPost2010Prop42
 90
       50
102
RTVSPost2010PropOp42
 70
     0
102
RTVSPost2010Prop43
 90
        3
102
RTVSPost2010PropOp43
 70
     0
102
RTVSPost2010Prop44ColorIndex
 90
        5
102
RTVSPost2010Prop44ColorRGB
 90
      255
102
RTVSPost2010PropOp44
 70
     0
102
RTVSPost2010Prop45
280
     0
102
RTVSPost2010PropOp45
 70
     1
102
RTVSPost2010Prop46
 90
       50
102
RTVSPost2010PropOp46
 70
     0
102
RTVSPost2010Prop47
 90
       50
102
RTVSPost2010PropOp47
 70
     0
102
RTVSPost2010Prop48
 90
       50
102
RTVSPost2010PropOp48
 70
     0
102
RTVSPost2010Prop49
280
     0
102
RTVSPost2010PropOp49
 70
     1
102
RTVSPost2010Prop50
 90
       50
102
RTVSPost2010PropOp50
 70
     0
102
RTVSPost2010Prop51ColorIndex
 90
      256
102
RTVSPost2010Prop51ColorRGB
 90
-16777216
102
RTVSPost2010PropOp51
 70
     0
102
RTVSPost2010Prop52
140
1.0
102
RTVSPost2010PropOp52
 70
     0
102
RTVSPost2010Prop53
 90
        2
102
RTVSPost2010PropOp53
 70
     0
102
RTVSPost2010Prop54
  1
strokes_ogs.tif
102
RTVSPost2010PropOp54
 70
     0
102
RTVSPost2010Prop55
280
     0
102
RTVSPost2010PropOp55
 70
     1
102
RTVSPost2010Prop56
140
1.0
102
RTVSPost2010PropOp56
 70
     0
102
RTVSPost2010Prop57
140
1.0
102
RTVSPost2010PropOp57
 70
     0
102
RTVSPropertyOp0
 70
     0
102
RTVSPropertyOp1
 70
     0
102
RTVSPropertyOp2
 70
     0
102
RTVSPropertyOp3
 70
     0
102
RTVSPropertyOp4
 70
     0
102
RTVSPropertyOp5
 70
     0
102
RTVSPropertyOp6
 70
     0
102
RTVSPropertyOp7
 70
     0
102
RTVSPropertyOp8
 70
     0
102
RTVSPropertyOp9
 70
     0
102
RTVSPropertyOp10
 70
     0
102
RTVSPropertyOp11
 70
     0
102
RTVSPropertyOp12
 70
     0
102
RTVSPropertyOp13
 70
     0
102
RTVSPropertyOp14
 70
     2
102
RTVSPropertyOp15
 70
     0
102
RTVSPropertyOp16
 70
     0
102
RTVSPropertyOp17
 70
     0
102
RTVSPropertyOp18
 70
     0
102
RTVSPropertyOp19
 70
     0
102
RTVSPropertyOp20
 70
     0
102
RTVSPropertyOp21
 70
     0
102
RTVSPropertyOp22
 70
     0
102
RTVSPropertyOp23
 70
     0
102
RTVSPropertyOp24
 70
     0
102
RTVSPropertyOp25
 70
     0
102
RTVSPropertyOp26
 70
     0
102
RTVSPropertyOp27
 70
     0
102
RTVSPropertyOp28
 70
     1
102
RTVSPropertyOp29
 70
     1
102
RTVSPropertyOp30
 70
     1
102
RTVSPropertyOp31
 70
     1
102
RTVSPropertyOp32
 70
     1
102
RTVSPropertyOp33
 70
     1
102
RTVSPropertyOp34
 70
     1
102
RTVSPropertyOp35
 70
     1
102
RTVSPropertyOp36
 70
     1
102
RTVSPropertyOp37
 70
     0
102
RTVSPropertyOp38
 70
     0
102
RTVSPropertyOp39
 70
     0
102
RTVSPropertyOp40
 70
     0
102
RTVSPropertyOp41
 70
     0
102
RTVSPropertyOp42
 70
     0
102
RTVSPropertyOp43
 70
     0
102
RTVSPropertyOp44
 70
     0
102
RTVSPropertyOp45
 70
     1
102
RTVSPropertyOp46
 70
     0
102
RTVSPropertyOp47
 70
     0
102
RTVSPropertyOp48
 70
     0
102
RTVSPropertyOp49
 70
     1
102
RTVSPropertyOp50
 70
     0
102
RTVSPropertyOp51
 70
     0
102
RTVSPropertyOp52
 70
     0
102
RTVSPropertyOp53
 70
     0
102
RTVSPropertyOp54
 70
     0
102
RTVSPropertyOp55
 70
     1
102
RTVSPropertyOp56
 70
     0
102
RTVSPropertyOp57
 70
     0
102
RTVSPropertyOp58
 70
     0
102
RTVSPropertyOp59
 70
     0
102
RTVSPropertyOp60
 70
     0
102
RTVSPropertyOp61
 70
     0
102
RTVSPropertyOp62
 70
     0
  0
XRECORD
  5
12A3
102
{ACAD_REACTORS
330
12A2
102
}
330
12A2
100
AcDbXrecord
280
     1
102
RTVSPost2010Prop28
280
     0
102
RTVSPost2010PropOp28
 70
     1
102
RTVSPost2010Prop29
280
     1
102
RTVSPost2010PropOp29
 70
     1
102
RTVSPost2010Prop30
280
     1
102
RTVSPost2010PropOp30
 70
     1
102
RTVSPost2010Prop31
280
     0
102
RTVSPost2010PropOp31
 70
     1
102
RTVSPost2010Prop32
280
     0
102
RTVSPost2010PropOp32
 70
     1
102
RTVSPost2010Prop33
280
     0
102
RTVSPost2010PropOp33
 70
     1
102
RTVSPost2010Prop34
280
     0
102
RTVSPost2010PropOp34
 70
     1
102
RTVSPost2010Prop35
280
     0
102
RTVSPost2010PropOp35
 70
     1
102
RTVSPost2010Prop36
280
     0
102
RTVSPost2010PropOp36
 70
     1
102
RTVSPost2010Prop37
 90
       50
102
RTVSPost2010PropOp37
 70
     1
102
RTVSPost2010Prop38
140
0.0
102
RTVSPost2010PropOp38
 70
     1
102
RTVSPost2010Prop39
140
1.0
102
RTVSPost2010PropOp39
 70
     1
102
RTVSPost2010Prop40
 90
        0
102
RTVSPost2010PropOp40
 70
     1
102
RTVSPost2010Prop41ColorIndex
 90
       18
102
RTVSPost2010Prop41ColorRGB
 90
        0
102
RTVSPost2010PropOp41
 70
     1
102
RTVSPost2010Prop42
 90
       50
102
RTVSPost2010PropOp42
 70
     1
102
RTVSPost2010Prop43
 90
        3
102
RTVSPost2010PropOp43
 70
     1
102
RTVSPost2010Prop44ColorIndex
 90
        5
102
RTVSPost2010Prop44ColorRGB
 90
      255
102
RTVSPost2010PropOp44
 70
     1
102
RTVSPost2010Prop45
280
     0
102
RTVSPost2010PropOp45
 70
     1
102
RTVSPost2010Prop46
 90
       50
102
RTVSPost2010PropOp46
 70
     1
102
RTVSPost2010Prop47
 90
       50
102
RTVSPost2010PropOp47
 70
     1
102
RTVSPost2010Prop48
 90
       50
102
RTVSPost2010PropOp48
 70
     1
102
RTVSPost2010Prop49
280
     0
102
RTVSPost2010PropOp49
 70
     1
102
RTVSPost2010Prop50
 90
       50
102
RTVSPost2010PropOp50
 70
     1
102
RTVSPost2010Prop51ColorIndex
 90
      256
102
RTVSPost2010Prop51ColorRGB
 90
-16777216
102
RTVSPost2010PropOp51
 70
     0
102
RTVSPost2010Prop52
140
1.0
102
RTVSPost2010PropOp52
 70
     0
102
RTVSPost2010Prop53
 90
        2
102
RTVSPost2010PropOp53
 70
     1
102
RTVSPost2010Prop54
  1
strokes_ogs.tif
102
RTVSPost2010PropOp54
 70
     1
102
RTVSPost2010Prop55
280
     0
102
RTVSPost2010PropOp55
 70
     1
102
RTVSPost2010Prop56
140
1.0
102
RTVSPost2010PropOp56
 70
     1
102
RTVSPost2010Prop57
140
1.0
102
RTVSPost2010PropOp57
 70
     1
102
RTVSPropertyOp0
 70
     1
102
RTVSPropertyOp1
 70
     1
102
RTVSPropertyOp2
 70
     1
102
RTVSPropertyOp3
 70
     1
102
RTVSPropertyOp4
 70
     1
102
RTVSPropertyOp5
 70
     1
102
RTVSPropertyOp6
 70
     1
102
RTVSPropertyOp7
 70
     1
102
RTVSPropertyOp8
 70
     1
102
RTVSPropertyOp9
 70
     1
102
RTVSPropertyOp10
 70
     1
102
RTVSPropertyOp11
 70
     1
102
RTVSPropertyOp12
 70
     1
102
RTVSPropertyOp13
 70
     1
102
RTVSPropertyOp14
 70
     1
102
RTVSPropertyOp15
 70
     1
102
RTVSPropertyOp16
 70
     1
102
RTVSPropertyOp17
 70
     1
102
RTVSPropertyOp18
 70
     1
102
RTVSPropertyOp19
 70
     1
102
RTVSPropertyOp20
 70
     1
102
RTVSPropertyOp21
 70
     1
102
RTVSPropertyOp22
 70
     1
102
RTVSPropertyOp23
 70
     1
102
RTVSPropertyOp24
 70
     1
102
RTVSPropertyOp25
 70
     1
102
RTVSPropertyOp26
 70
     1
102
RTVSPropertyOp27
 70
     1
102
RTVSPropertyOp28
 70
     1
102
RTVSPropertyOp29
 70
     1
102
RTVSPropertyOp30
 70
     1
102
RTVSPropertyOp31
 70
     1
102
RTVSPropertyOp32
 70
     1
102
RTVSPropertyOp33
 70
     1
102
RTVSPropertyOp34
 70
     1
102
RTVSPropertyOp35
 70
     1
102
RTVSPropertyOp36
 70
     1
102
RTVSPropertyOp37
 70
     1
102
RTVSPropertyOp38
 70
     1
102
RTVSPropertyOp39
 70
     1
102
RTVSPropertyOp40
 70
     1
102
RTVSPropertyOp41
 70
     1
102
RTVSPropertyOp42
 70
     1
102
RTVSPropertyOp43
 70
     1
102
RTVSPropertyOp44
 70
     1
102
RTVSPropertyOp45
 70
     1
102
RTVSPropertyOp46
 70
     1
102
RTVSPropertyOp47
 70
     1
102
RTVSPropertyOp48
 70
     1
102
RTVSPropertyOp49
 70
     1
102
RTVSPropertyOp50
 70
     1
102
RTVSPropertyOp51
 70
     0
102
RTVSPropertyOp52
 70
     0
102
RTVSPropertyOp53
 70
     1
102
RTVSPropertyOp54
 70
     1
102
RTVSPropertyOp55
 70
     1
102
RTVSPropertyOp56
 70
     1
102
RTVSPropertyOp57
 70
     1
102
RTVSPropertyOp58
 70
     1
102
RTVSPropertyOp59
 70
     1
102
RTVSPropertyOp60
 70
     1
102
RTVSPropertyOp61
 70
     1
102
RTVSPropertyOp62
 70
     1
  0
XRECORD
  5
1287
102
{ACAD_REACTORS
330
1286
102
}
330
1286
100
AcDbXrecord
280
     1
102
RTVSPost2010Prop28
280
     0
102
RTVSPost2010PropOp28
 70
     1
102
RTVSPost2010Prop29
280
     1
102
RTVSPost2010PropOp29
 70
     1
102
RTVSPost2010Prop30
280
     1
102
RTVSPost2010PropOp30
 70
     1
102
RTVSPost2010Prop31
280
     0
102
RTVSPost2010PropOp31
 70
     1
102
RTVSPost2010Prop32
280
     0
102
RTVSPost2010PropOp32
 70
     1
102
RTVSPost2010Prop33
280
     0
102
RTVSPost2010PropOp33
 70
     1
102
RTVSPost2010Prop34
280
     0
102
RTVSPost2010PropOp34
 70
     1
102
RTVSPost2010Prop35
280
     0
102
RTVSPost2010PropOp35
 70
     1
102
RTVSPost2010Prop36
280
     0
102
RTVSPost2010PropOp36
 70
     1
102
RTVSPost2010Prop37
 90
       50
102
RTVSPost2010PropOp37
 70
     1
102
RTVSPost2010Prop38
140
0.0
102
RTVSPost2010PropOp38
 70
     1
102
RTVSPost2010Prop39
140
1.0
102
RTVSPost2010PropOp39
 70
     1
102
RTVSPost2010Prop40
 90
        0
102
RTVSPost2010PropOp40
 70
     1
102
RTVSPost2010Prop41ColorIndex
 90
       18
102
RTVSPost2010Prop41ColorRGB
 90
        0
102
RTVSPost2010PropOp41
 70
     1
102
RTVSPost2010Prop42
 90
       50
102
RTVSPost2010PropOp42
 70
     1
102
RTVSPost2010Prop43
 90
        3
102
RTVSPost2010PropOp43
 70
     1
102
RTVSPost2010Prop44ColorIndex
 90
        5
102
RTVSPost2010Prop44ColorRGB
 90
      255
102
RTVSPost2010PropOp44
 70
     1
102
RTVSPost2010Prop45
280
     0
102
RTVSPost2010PropOp45
 70
     1
102
RTVSPost2010Prop46
 90
       50
102
RTVSPost2010PropOp46
 70
     1
102
RTVSPost2010Prop47
 90
       50
102
RTVSPost2010PropOp47
 70
     1
102
RTVSPost2010Prop48
 90
       50
102
RTVSPost2010PropOp48
 70
     1
102
RTVSPost2010Prop49
280
     0
102
RTVSPost2010PropOp49
 70
     1
102
RTVSPost2010Prop50
 90
       50
102
RTVSPost2010PropOp50
 70
     1
102
RTVSPost2010Prop51ColorIndex
 90
      256
102
RTVSPost2010Prop51ColorRGB
 90
-16777216
102
RTVSPost2010PropOp51
 70
     0
102
RTVSPost2010Prop52
140
1.0
102
RTVSPost2010PropOp52
 70
     0
102
RTVSPost2010Prop53
 90
        2
102
RTVSPost2010PropOp53
 70
     1
102
RTVSPost2010Prop54
  1
strokes_ogs.tif
102
RTVSPost2010PropOp54
 70
     1
102
RTVSPost2010Prop55
280
     0
102
RTVSPost2010PropOp55
 70
     1
102
RTVSPost2010Prop56
140
1.0
102
RTVSPost2010PropOp56
 70
     1
102
RTVSPost2010Prop57
140
1.0
102
RTVSPost2010PropOp57
 70
     1
102
RTVSPropertyOp0
 70
     1
102
RTVSPropertyOp1
 70
     1
102
RTVSPropertyOp2
 70
     1
102
RTVSPropertyOp3
 70
     1
102
RTVSPropertyOp4
 70
     1
102
RTVSPropertyOp5
 70
     1
102
RTVSPropertyOp6
 70
     1
102
RTVSPropertyOp7
 70
     1
102
RTVSPropertyOp8
 70
     1
102
RTVSPropertyOp9
 70
     1
102
RTVSPropertyOp10
 70
     1
102
RTVSPropertyOp11
 70
     1
102
RTVSPropertyOp12
 70
     1
102
RTVSPropertyOp13
 70
     1
102
RTVSPropertyOp14
 70
     1
102
RTVSPropertyOp15
 70
     1
102
RTVSPropertyOp16
 70
     1
102
RTVSPropertyOp17
 70
     1
102
RTVSPropertyOp18
 70
     1
102
RTVSPropertyOp19
 70
     1
102
RTVSPropertyOp20
 70
     1
102
RTVSPropertyOp21
 70
     1
102
RTVSPropertyOp22
 70
     1
102
RTVSPropertyOp23
 70
     1
102
RTVSPropertyOp24
 70
     1
102
RTVSPropertyOp25
 70
     1
102
RTVSPropertyOp26
 70
     1
102
RTVSPropertyOp27
 70
     1
102
RTVSPropertyOp28
 70
     1
102
RTVSPropertyOp29
 70
     1
102
RTVSPropertyOp30
 70
     1
102
RTVSPropertyOp31
 70
     1
102
RTVSPropertyOp32
 70
     1
102
RTVSPropertyOp33
 70
     1
102
RTVSPropertyOp34
 70
     1
102
RTVSPropertyOp35
 70
     1
102
RTVSPropertyOp36
 70
     1
102
RTVSPropertyOp37
 70
     1
102
RTVSPropertyOp38
 70
     1
102
RTVSPropertyOp39
 70
     1
102
RTVSPropertyOp40
 70
     1
102
RTVSPropertyOp41
 70
     1
102
RTVSPropertyOp42
 70
     1
102
RTVSPropertyOp43
 70
     1
102
RTVSPropertyOp44
 70
     1
102
RTVSPropertyOp45
 70
     1
102
RTVSPropertyOp46
 70
     1
102
RTVSPropertyOp47
 70
     1
102
RTVSPropertyOp48
 70
     1
102
RTVSPropertyOp49
 70
     1
102
RTVSPropertyOp50
 70
     1
102
RTVSPropertyOp51
 70
     0
102
RTVSPropertyOp52
 70
     0
102
RTVSPropertyOp53
 70
     1
102
RTVSPropertyOp54
 70
     1
102
RTVSPropertyOp55
 70
     1
102
RTVSPropertyOp56
 70
     1
102
RTVSPropertyOp57
 70
     1
102
RTVSPropertyOp58
 70
     1
102
RTVSPropertyOp59
 70
     1
102
RTVSPropertyOp60
 70
     1
102
RTVSPropertyOp61
 70
     1
102
RTVSPropertyOp62
 70
     1
  0
XRECORD
  5
1289
102
{ACAD_REACTORS
330
1288
102
}
330
1288
100
AcDbXrecord
280
     1
102
RTVSPost2010Prop28
280
     0
102
RTVSPost2010PropOp28
 70
     1
102
RTVSPost2010Prop29
280
     1
102
RTVSPost2010PropOp29
 70
     1
102
RTVSPost2010Prop30
280
     1
102
RTVSPost2010PropOp30
 70
     1
102
RTVSPost2010Prop31
280
     0
102
RTVSPost2010PropOp31
 70
     1
102
RTVSPost2010Prop32
280
     0
102
RTVSPost2010PropOp32
 70
     1
102
RTVSPost2010Prop33
280
     0
102
RTVSPost2010PropOp33
 70
     1
102
RTVSPost2010Prop34
280
     0
102
RTVSPost2010PropOp34
 70
     1
102
RTVSPost2010Prop35
280
     0
102
RTVSPost2010PropOp35
 70
     1
102
RTVSPost2010Prop36
280
     0
102
RTVSPost2010PropOp36
 70
     1
102
RTVSPost2010Prop37
 90
       50
102
RTVSPost2010PropOp37
 70
     1
102
RTVSPost2010Prop38
140
0.0
102
RTVSPost2010PropOp38
 70
     1
102
RTVSPost2010Prop39
140
1.0
102
RTVSPost2010PropOp39
 70
     1
102
RTVSPost2010Prop40
 90
        0
102
RTVSPost2010PropOp40
 70
     1
102
RTVSPost2010Prop41ColorIndex
 90
       18
102
RTVSPost2010Prop41ColorRGB
 90
        0
102
RTVSPost2010PropOp41
 70
     1
102
RTVSPost2010Prop42
 90
       50
102
RTVSPost2010PropOp42
 70
     1
102
RTVSPost2010Prop43
 90
        3
102
RTVSPost2010PropOp43
 70
     1
102
RTVSPost2010Prop44ColorIndex
 90
        5
102
RTVSPost2010Prop44ColorRGB
 90
      255
102
RTVSPost2010PropOp44
 70
     1
102
RTVSPost2010Prop45
280
     0
102
RTVSPost2010PropOp45
 70
     1
102
RTVSPost2010Prop46
 90
       50
102
RTVSPost2010PropOp46
 70
     1
102
RTVSPost2010Prop47
 90
       50
102
RTVSPost2010PropOp47
 70
     1
102
RTVSPost2010Prop48
 90
       50
102
RTVSPost2010PropOp48
 70
     1
102
RTVSPost2010Prop49
280
     0
102
RTVSPost2010PropOp49
 70
     1
102
RTVSPost2010Prop50
 90
       50
102
RTVSPost2010PropOp50
 70
     1
102
RTVSPost2010Prop51ColorIndex
 90
      256
102
RTVSPost2010Prop51ColorRGB
 90
-16777216
102
RTVSPost2010PropOp51
 70
     0
102
RTVSPost2010Prop52
140
1.0
102
RTVSPost2010PropOp52
 70
     0
102
RTVSPost2010Prop53
 90
        2
102
RTVSPost2010PropOp53
 70
     1
102
RTVSPost2010Prop54
  1
strokes_ogs.tif
102
RTVSPost2010PropOp54
 70
     1
102
RTVSPost2010Prop55
280
     0
102
RTVSPost2010PropOp55
 70
     1
102
RTVSPost2010Prop56
140
1.0
102
RTVSPost2010PropOp56
 70
     1
102
RTVSPost2010Prop57
140
1.0
102
RTVSPost2010PropOp57
 70
     1
102
RTVSPropertyOp0
 70
     1
102
RTVSPropertyOp1
 70
     1
102
RTVSPropertyOp2
 70
     1
102
RTVSPropertyOp3
 70
     1
102
RTVSPropertyOp4
 70
     1
102
RTVSPropertyOp5
 70
     1
102
RTVSPropertyOp6
 70
     1
102
RTVSPropertyOp7
 70
     1
102
RTVSPropertyOp8
 70
     1
102
RTVSPropertyOp9
 70
     1
102
RTVSPropertyOp10
 70
     1
102
RTVSPropertyOp11
 70
     1
102
RTVSPropertyOp12
 70
     1
102
RTVSPropertyOp13
 70
     1
102
RTVSPropertyOp14
 70
     1
102
RTVSPropertyOp15
 70
     1
102
RTVSPropertyOp16
 70
     1
102
RTVSPropertyOp17
 70
     1
102
RTVSPropertyOp18
 70
     1
102
RTVSPropertyOp19
 70
     1
102
RTVSPropertyOp20
 70
     1
102
RTVSPropertyOp21
 70
     1
102
RTVSPropertyOp22
 70
     1
102
RTVSPropertyOp23
 70
     1
102
RTVSPropertyOp24
 70
     1
102
RTVSPropertyOp25
 70
     1
102
RTVSPropertyOp26
 70
     1
102
RTVSPropertyOp27
 70
     1
102
RTVSPropertyOp28
 70
     1
102
RTVSPropertyOp29
 70
     1
102
RTVSPropertyOp30
 70
     1
102
RTVSPropertyOp31
 70
     1
102
RTVSPropertyOp32
 70
     1
102
RTVSPropertyOp33
 70
     1
102
RTVSPropertyOp34
 70
     1
102
RTVSPropertyOp35
 70
     1
102
RTVSPropertyOp36
 70
     1
102
RTVSPropertyOp37
 70
     1
102
RTVSPropertyOp38
 70
     1
102
RTVSPropertyOp39
 70
     1
102
RTVSPropertyOp40
 70
     1
102
RTVSPropertyOp41
 70
     1
102
RTVSPropertyOp42
 70
     1
102
RTVSPropertyOp43
 70
     1
102
RTVSPropertyOp44
 70
     1
102
RTVSPropertyOp45
 70
     1
102
RTVSPropertyOp46
 70
     1
102
RTVSPropertyOp47
 70
     1
102
RTVSPropertyOp48
 70
     1
102
RTVSPropertyOp49
 70
     1
102
RTVSPropertyOp50
 70
     1
102
RTVSPropertyOp51
 70
     0
102
RTVSPropertyOp52
 70
     0
102
RTVSPropertyOp53
 70
     1
102
RTVSPropertyOp54
 70
     1
102
RTVSPropertyOp55
 70
     1
102
RTVSPropertyOp56
 70
     1
102
RTVSPropertyOp57
 70
     1
102
RTVSPropertyOp58
 70
     1
102
RTVSPropertyOp59
 70
     1
102
RTVSPropertyOp60
 70
     1
102
RTVSPropertyOp61
 70
     1
102
RTVSPropertyOp62
 70
     1
  0
XRECORD
  5
128B
102
{ACAD_REACTORS
330
128A
102
}
330
128A
100
AcDbXrecord
280
     1
102
RTVSPost2010Prop28
280
     0
102
RTVSPost2010PropOp28
 70
     1
102
RTVSPost2010Prop29
280
     1
102
RTVSPost2010PropOp29
 70
     1
102
RTVSPost2010Prop30
280
     1
102
RTVSPost2010PropOp30
 70
     1
102
RTVSPost2010Prop31
280
     0
102
RTVSPost2010PropOp31
 70
     1
102
RTVSPost2010Prop32
280
     0
102
RTVSPost2010PropOp32
 70
     1
102
RTVSPost2010Prop33
280
     0
102
RTVSPost2010PropOp33
 70
     1
102
RTVSPost2010Prop34
280
     0
102
RTVSPost2010PropOp34
 70
     1
102
RTVSPost2010Prop35
280
     0
102
RTVSPost2010PropOp35
 70
     1
102
RTVSPost2010Prop36
280
     0
102
RTVSPost2010PropOp36
 70
     1
102
RTVSPost2010Prop37
 90
       50
102
RTVSPost2010PropOp37
 70
     1
102
RTVSPost2010Prop38
140
0.0
102
RTVSPost2010PropOp38
 70
     1
102
RTVSPost2010Prop39
140
1.0
102
RTVSPost2010PropOp39
 70
     1
102
RTVSPost2010Prop40
 90
        0
102
RTVSPost2010PropOp40
 70
     1
102
RTVSPost2010Prop41ColorIndex
 90
       18
102
RTVSPost2010Prop41ColorRGB
 90
        0
102
RTVSPost2010PropOp41
 70
     1
102
RTVSPost2010Prop42
 90
       50
102
RTVSPost2010PropOp42
 70
     1
102
RTVSPost2010Prop43
 90
        3
102
RTVSPost2010PropOp43
 70
     1
102
RTVSPost2010Prop44ColorIndex
 90
        5
102
RTVSPost2010Prop44ColorRGB
 90
      255
102
RTVSPost2010PropOp44
 70
     1
102
RTVSPost2010Prop45
280
     0
102
RTVSPost2010PropOp45
 70
     1
102
RTVSPost2010Prop46
 90
       50
102
RTVSPost2010PropOp46
 70
     1
102
RTVSPost2010Prop47
 90
       50
102
RTVSPost2010PropOp47
 70
     1
102
RTVSPost2010Prop48
 90
       50
102
RTVSPost2010PropOp48
 70
     1
102
RTVSPost2010Prop49
280
     0
102
RTVSPost2010PropOp49
 70
     1
102
RTVSPost2010Prop50
 90
       50
102
RTVSPost2010PropOp50
 70
     1
102
RTVSPost2010Prop51ColorIndex
 90
      256
102
RTVSPost2010Prop51ColorRGB
 90
-16777216
102
RTVSPost2010PropOp51
 70
     0
102
RTVSPost2010Prop52
140
1.0
102
RTVSPost2010PropOp52
 70
     0
102
RTVSPost2010Prop53
 90
        2
102
RTVSPost2010PropOp53
 70
     1
102
RTVSPost2010Prop54
  1
strokes_ogs.tif
102
RTVSPost2010PropOp54
 70
     1
102
RTVSPost2010Prop55
280
     0
102
RTVSPost2010PropOp55
 70
     1
102
RTVSPost2010Prop56
140
1.0
102
RTVSPost2010PropOp56
 70
     1
102
RTVSPost2010Prop57
140
1.0
102
RTVSPost2010PropOp57
 70
     1
102
RTVSPropertyOp0
 70
     1
102
RTVSPropertyOp1
 70
     1
102
RTVSPropertyOp2
 70
     1
102
RTVSPropertyOp3
 70
     1
102
RTVSPropertyOp4
 70
     1
102
RTVSPropertyOp5
 70
     1
102
RTVSPropertyOp6
 70
     1
102
RTVSPropertyOp7
 70
     1
102
RTVSPropertyOp8
 70
     1
102
RTVSPropertyOp9
 70
     1
102
RTVSPropertyOp10
 70
     1
102
RTVSPropertyOp11
 70
     1
102
RTVSPropertyOp12
 70
     1
102
RTVSPropertyOp13
 70
     1
102
RTVSPropertyOp14
 70
     1
102
RTVSPropertyOp15
 70
     1
102
RTVSPropertyOp16
 70
     1
102
RTVSPropertyOp17
 70
     1
102
RTVSPropertyOp18
 70
     1
102
RTVSPropertyOp19
 70
     1
102
RTVSPropertyOp20
 70
     1
102
RTVSPropertyOp21
 70
     1
102
RTVSPropertyOp22
 70
     1
102
RTVSPropertyOp23
 70
     1
102
RTVSPropertyOp24
 70
     1
102
RTVSPropertyOp25
 70
     1
102
RTVSPropertyOp26
 70
     1
102
RTVSPropertyOp27
 70
     1
102
RTVSPropertyOp28
 70
     1
102
RTVSPropertyOp29
 70
     1
102
RTVSPropertyOp30
 70
     1
102
RTVSPropertyOp31
 70
     1
102
RTVSPropertyOp32
 70
     1
102
RTVSPropertyOp33
 70
     1
102
RTVSPropertyOp34
 70
     1
102
RTVSPropertyOp35
 70
     1
102
RTVSPropertyOp36
 70
     1
102
RTVSPropertyOp37
 70
     1
102
RTVSPropertyOp38
 70
     1
102
RTVSPropertyOp39
 70
     1
102
RTVSPropertyOp40
 70
     1
102
RTVSPropertyOp41
 70
     1
102
RTVSPropertyOp42
 70
     1
102
RTVSPropertyOp43
 70
     1
102
RTVSPropertyOp44
 70
     1
102
RTVSPropertyOp45
 70
     1
102
RTVSPropertyOp46
 70
     1
102
RTVSPropertyOp47
 70
     1
102
RTVSPropertyOp48
 70
     1
102
RTVSPropertyOp49
 70
     1
102
RTVSPropertyOp50
 70
     1
102
RTVSPropertyOp51
 70
     0
102
RTVSPropertyOp52
 70
     0
102
RTVSPropertyOp53
 70
     1
102
RTVSPropertyOp54
 70
     1
102
RTVSPropertyOp55
 70
     1
102
RTVSPropertyOp56
 70
     1
102
RTVSPropertyOp57
 70
     1
102
RTVSPropertyOp58
 70
     1
102
RTVSPropertyOp59
 70
     1
102
RTVSPropertyOp60
 70
     1
102
RTVSPropertyOp61
 70
     1
102
RTVSPropertyOp62
 70
     1
  0
XRECORD
  5
128D
102
{ACAD_REACTORS
330
128C
102
}
330
128C
100
AcDbXrecord
280
     1
102
RTVSPost2010Prop28
280
     0
102
RTVSPost2010PropOp28
 70
     1
102
RTVSPost2010Prop29
280
     1
102
RTVSPost2010PropOp29
 70
     1
102
RTVSPost2010Prop30
280
     1
102
RTVSPost2010PropOp30
 70
     1
102
RTVSPost2010Prop31
280
     0
102
RTVSPost2010PropOp31
 70
     1
102
RTVSPost2010Prop32
280
     0
102
RTVSPost2010PropOp32
 70
     1
102
RTVSPost2010Prop33
280
     0
102
RTVSPost2010PropOp33
 70
     1
102
RTVSPost2010Prop34
280
     0
102
RTVSPost2010PropOp34
 70
     1
102
RTVSPost2010Prop35
280
     0
102
RTVSPost2010PropOp35
 70
     1
102
RTVSPost2010Prop36
280
     0
102
RTVSPost2010PropOp36
 70
     1
102
RTVSPost2010Prop37
 90
       50
102
RTVSPost2010PropOp37
 70
     1
102
RTVSPost2010Prop38
140
0.0
102
RTVSPost2010PropOp38
 70
     1
102
RTVSPost2010Prop39
140
1.0
102
RTVSPost2010PropOp39
 70
     1
102
RTVSPost2010Prop40
 90
        0
102
RTVSPost2010PropOp40
 70
     1
102
RTVSPost2010Prop41ColorIndex
 90
       18
102
RTVSPost2010Prop41ColorRGB
 90
        0
102
RTVSPost2010PropOp41
 70
     1
102
RTVSPost2010Prop42
 90
       50
102
RTVSPost2010PropOp42
 70
     1
102
RTVSPost2010Prop43
 90
        3
102
RTVSPost2010PropOp43
 70
     1
102
RTVSPost2010Prop44ColorIndex
 90
        5
102
RTVSPost2010Prop44ColorRGB
 90
      255
102
RTVSPost2010PropOp44
 70
     1
102
RTVSPost2010Prop45
280
     0
102
RTVSPost2010PropOp45
 70
     1
102
RTVSPost2010Prop46
 90
       50
102
RTVSPost2010PropOp46
 70
     1
102
RTVSPost2010Prop47
 90
       50
102
RTVSPost2010PropOp47
 70
     1
102
RTVSPost2010Prop48
 90
       50
102
RTVSPost2010PropOp48
 70
     1
102
RTVSPost2010Prop49
280
     0
102
RTVSPost2010PropOp49
 70
     1
102
RTVSPost2010Prop50
 90
       50
102
RTVSPost2010PropOp50
 70
     1
102
RTVSPost2010Prop51ColorIndex
 90
      256
102
RTVSPost2010Prop51ColorRGB
 90
-16777216
102
RTVSPost2010PropOp51
 70
     0
102
RTVSPost2010Prop52
140
1.0
102
RTVSPost2010PropOp52
 70
     0
102
RTVSPost2010Prop53
 90
        2
102
RTVSPost2010PropOp53
 70
     1
102
RTVSPost2010Prop54
  1
strokes_ogs.tif
102
RTVSPost2010PropOp54
 70
     1
102
RTVSPost2010Prop55
280
     0
102
RTVSPost2010PropOp55
 70
     1
102
RTVSPost2010Prop56
140
1.0
102
RTVSPost2010PropOp56
 70
     1
102
RTVSPost2010Prop57
140
1.0
102
RTVSPost2010PropOp57
 70
     1
102
RTVSPropertyOp0
 70
     1
102
RTVSPropertyOp1
 70
     1
102
RTVSPropertyOp2
 70
     1
102
RTVSPropertyOp3
 70
     1
102
RTVSPropertyOp4
 70
     1
102
RTVSPropertyOp5
 70
     1
102
RTVSPropertyOp6
 70
     1
102
RTVSPropertyOp7
 70
     1
102
RTVSPropertyOp8
 70
     1
102
RTVSPropertyOp9
 70
     1
102
RTVSPropertyOp10
 70
     1
102
RTVSPropertyOp11
 70
     1
102
RTVSPropertyOp12
 70
     1
102
RTVSPropertyOp13
 70
     1
102
RTVSPropertyOp14
 70
     1
102
RTVSPropertyOp15
 70
     1
102
RTVSPropertyOp16
 70
     1
102
RTVSPropertyOp17
 70
     1
102
RTVSPropertyOp18
 70
     1
102
RTVSPropertyOp19
 70
     1
102
RTVSPropertyOp20
 70
     1
102
RTVSPropertyOp21
 70
     1
102
RTVSPropertyOp22
 70
     1
102
RTVSPropertyOp23
 70
     1
102
RTVSPropertyOp24
 70
     1
102
RTVSPropertyOp25
 70
     1
102
RTVSPropertyOp26
 70
     1
102
RTVSPropertyOp27
 70
     1
102
RTVSPropertyOp28
 70
     1
102
RTVSPropertyOp29
 70
     1
102
RTVSPropertyOp30
 70
     1
102
RTVSPropertyOp31
 70
     1
102
RTVSPropertyOp32
 70
     1
102
RTVSPropertyOp33
 70
     1
102
RTVSPropertyOp34
 70
     1
102
RTVSPropertyOp35
 70
     1
102
RTVSPropertyOp36
 70
     1
102
RTVSPropertyOp37
 70
     1
102
RTVSPropertyOp38
 70
     1
102
RTVSPropertyOp39
 70
     1
102
RTVSPropertyOp40
 70
     1
102
RTVSPropertyOp41
 70
     1
102
RTVSPropertyOp42
 70
     1
102
RTVSPropertyOp43
 70
     1
102
RTVSPropertyOp44
 70
     1
102
RTVSPropertyOp45
 70
     1
102
RTVSPropertyOp46
 70
     1
102
RTVSPropertyOp47
 70
     1
102
RTVSPropertyOp48
 70
     1
102
RTVSPropertyOp49
 70
     1
102
RTVSPropertyOp50
 70
     1
102
RTVSPropertyOp51
 70
     0
102
RTVSPropertyOp52
 70
     0
102
RTVSPropertyOp53
 70
     1
102
RTVSPropertyOp54
 70
     1
102
RTVSPropertyOp55
 70
     1
102
RTVSPropertyOp56
 70
     1
102
RTVSPropertyOp57
 70
     1
102
RTVSPropertyOp58
 70
     1
102
RTVSPropertyOp59
 70
     1
102
RTVSPropertyOp60
 70
     1
102
RTVSPropertyOp61
 70
     1
102
RTVSPropertyOp62
 70
     1
  0
XRECORD
  5
1295
102
{ACAD_REACTORS
330
1294
102
}
330
1294
100
AcDbXrecord
280
     1
102
RTVSPost2010Prop28
280
     0
102
RTVSPost2010PropOp28
 70
     1
102
RTVSPost2010Prop29
280
     1
102
RTVSPost2010PropOp29
 70
     1
102
RTVSPost2010Prop30
280
     1
102
RTVSPost2010PropOp30
 70
     1
102
RTVSPost2010Prop31
280
     0
102
RTVSPost2010PropOp31
 70
     1
102
RTVSPost2010Prop32
280
     0
102
RTVSPost2010PropOp32
 70
     1
102
RTVSPost2010Prop33
280
     0
102
RTVSPost2010PropOp33
 70
     1
102
RTVSPost2010Prop34
280
     0
102
RTVSPost2010PropOp34
 70
     1
102
RTVSPost2010Prop35
280
     0
102
RTVSPost2010PropOp35
 70
     1
102
RTVSPost2010Prop36
280
     0
102
RTVSPost2010PropOp36
 70
     1
102
RTVSPost2010Prop37
 90
       50
102
RTVSPost2010PropOp37
 70
     1
102
RTVSPost2010Prop38
140
0.0
102
RTVSPost2010PropOp38
 70
     1
102
RTVSPost2010Prop39
140
1.0
102
RTVSPost2010PropOp39
 70
     1
102
RTVSPost2010Prop40
 90
        0
102
RTVSPost2010PropOp40
 70
     1
102
RTVSPost2010Prop41ColorIndex
 90
       18
102
RTVSPost2010Prop41ColorRGB
 90
        0
102
RTVSPost2010PropOp41
 70
     1
102
RTVSPost2010Prop42
 90
       50
102
RTVSPost2010PropOp42
 70
     1
102
RTVSPost2010Prop43
 90
        3
102
RTVSPost2010PropOp43
 70
     1
102
RTVSPost2010Prop44ColorIndex
 90
        5
102
RTVSPost2010Prop44ColorRGB
 90
      255
102
RTVSPost2010PropOp44
 70
     1
102
RTVSPost2010Prop45
280
     0
102
RTVSPost2010PropOp45
 70
     1
102
RTVSPost2010Prop46
 90
       50
102
RTVSPost2010PropOp46
 70
     1
102
RTVSPost2010Prop47
 90
       50
102
RTVSPost2010PropOp47
 70
     1
102
RTVSPost2010Prop48
 90
       50
102
RTVSPost2010PropOp48
 70
     1
102
RTVSPost2010Prop49
280
     0
102
RTVSPost2010PropOp49
 70
     1
102
RTVSPost2010Prop50
 90
       50
102
RTVSPost2010PropOp50
 70
     1
102
RTVSPost2010Prop51ColorIndex
 90
      256
102
RTVSPost2010Prop51ColorRGB
 90
-16777216
102
RTVSPost2010PropOp51
 70
     0
102
RTVSPost2010Prop52
140
1.0
102
RTVSPost2010PropOp52
 70
     0
102
RTVSPost2010Prop53
 90
        2
102
RTVSPost2010PropOp53
 70
     1
102
RTVSPost2010Prop54
  1
strokes_ogs.tif
102
RTVSPost2010PropOp54
 70
     1
102
RTVSPost2010Prop55
280
     0
102
RTVSPost2010PropOp55
 70
     1
102
RTVSPost2010Prop56
140
1.0
102
RTVSPost2010PropOp56
 70
     1
102
RTVSPost2010Prop57
140
1.0
102
RTVSPost2010PropOp57
 70
     1
102
RTVSPropertyOp0
 70
     1
102
RTVSPropertyOp1
 70
     1
102
RTVSPropertyOp2
 70
     1
102
RTVSPropertyOp3
 70
     1
102
RTVSPropertyOp4
 70
     1
102
RTVSPropertyOp5
 70
     1
102
RTVSPropertyOp6
 70
     1
102
RTVSPropertyOp7
 70
     1
102
RTVSPropertyOp8
 70
     1
102
RTVSPropertyOp9
 70
     1
102
RTVSPropertyOp10
 70
     1
102
RTVSPropertyOp11
 70
     1
102
RTVSPropertyOp12
 70
     1
102
RTVSPropertyOp13
 70
     1
102
RTVSPropertyOp14
 70
     1
102
RTVSPropertyOp15
 70
     1
102
RTVSPropertyOp16
 70
     1
102
RTVSPropertyOp17
 70
     1
102
RTVSPropertyOp18
 70
     1
102
RTVSPropertyOp19
 70
     1
102
RTVSPropertyOp20
 70
     1
102
RTVSPropertyOp21
 70
     1
102
RTVSPropertyOp22
 70
     1
102
RTVSPropertyOp23
 70
     1
102
RTVSPropertyOp24
 70
     1
102
RTVSPropertyOp25
 70
     1
102
RTVSPropertyOp26
 70
     1
102
RTVSPropertyOp27
 70
     1
102
RTVSPropertyOp28
 70
     1
102
RTVSPropertyOp29
 70
     1
102
RTVSPropertyOp30
 70
     1
102
RTVSPropertyOp31
 70
     1
102
RTVSPropertyOp32
 70
     1
102
RTVSPropertyOp33
 70
     1
102
RTVSPropertyOp34
 70
     1
102
RTVSPropertyOp35
 70
     1
102
RTVSPropertyOp36
 70
     1
102
RTVSPropertyOp37
 70
     1
102
RTVSPropertyOp38
 70
     1
102
RTVSPropertyOp39
 70
     1
102
RTVSPropertyOp40
 70
     1
102
RTVSPropertyOp41
 70
     1
102
RTVSPropertyOp42
 70
     1
102
RTVSPropertyOp43
 70
     1
102
RTVSPropertyOp44
 70
     1
102
RTVSPropertyOp45
 70
     1
102
RTVSPropertyOp46
 70
     1
102
RTVSPropertyOp47
 70
     1
102
RTVSPropertyOp48
 70
     1
102
RTVSPropertyOp49
 70
     1
102
RTVSPropertyOp50
 70
     1
102
RTVSPropertyOp51
 70
     0
102
RTVSPropertyOp52
 70
     0
102
RTVSPropertyOp53
 70
     1
102
RTVSPropertyOp54
 70
     1
102
RTVSPropertyOp55
 70
     1
102
RTVSPropertyOp56
 70
     1
102
RTVSPropertyOp57
 70
     1
102
RTVSPropertyOp58
 70
     1
102
RTVSPropertyOp59
 70
     1
102
RTVSPropertyOp60
 70
     1
102
RTVSPropertyOp61
 70
     1
102
RTVSPropertyOp62
 70
     1
  0
XRECORD
  5
12B1
102
{ACAD_REACTORS
330
12B0
102
}
330
12B0
100
AcDbXrecord
280
     1
102
RTVSPost2010Prop28
280
     0
102
RTVSPost2010PropOp28
 70
     1
102
RTVSPost2010Prop29
280
     1
102
RTVSPost2010PropOp29
 70
     1
102
RTVSPost2010Prop30
280
     1
102
RTVSPost2010PropOp30
 70
     1
102
RTVSPost2010Prop31
280
     0
102
RTVSPost2010PropOp31
 70
     1
102
RTVSPost2010Prop32
280
     0
102
RTVSPost2010PropOp32
 70
     1
102
RTVSPost2010Prop33
280
     0
102
RTVSPost2010PropOp33
 70
     1
102
RTVSPost2010Prop34
280
     0
102
RTVSPost2010PropOp34
 70
     1
102
RTVSPost2010Prop35
280
     0
102
RTVSPost2010PropOp35
 70
     1
102
RTVSPost2010Prop36
280
     0
102
RTVSPost2010PropOp36
 70
     1
102
RTVSPost2010Prop37
 90
       50
102
RTVSPost2010PropOp37
 70
     0
102
RTVSPost2010Prop38
140
0.0
102
RTVSPost2010PropOp38
 70
     0
102
RTVSPost2010Prop39
140
1.0
102
RTVSPost2010PropOp39
 70
     0
102
RTVSPost2010Prop40
 90
        0
102
RTVSPost2010PropOp40
 70
     0
102
RTVSPost2010Prop41ColorIndex
 90
       18
102
RTVSPost2010Prop41ColorRGB
 90
        0
102
RTVSPost2010PropOp41
 70
     0
102
RTVSPost2010Prop42
 90
       50
102
RTVSPost2010PropOp42
 70
     0
102
RTVSPost2010Prop43
 90
        3
102
RTVSPost2010PropOp43
 70
     0
102
RTVSPost2010Prop44ColorIndex
 90
        5
102
RTVSPost2010Prop44ColorRGB
 90
      255
102
RTVSPost2010PropOp44
 70
     0
102
RTVSPost2010Prop45
280
     0
102
RTVSPost2010PropOp45
 70
     1
102
RTVSPost2010Prop46
 90
       50
102
RTVSPost2010PropOp46
 70
     0
102
RTVSPost2010Prop47
 90
       50
102
RTVSPost2010PropOp47
 70
     0
102
RTVSPost2010Prop48
 90
       50
102
RTVSPost2010PropOp48
 70
     0
102
RTVSPost2010Prop49
280
     0
102
RTVSPost2010PropOp49
 70
     1
102
RTVSPost2010Prop50
 90
       50
102
RTVSPost2010PropOp50
 70
     0
102
RTVSPost2010Prop51ColorIndex
 90
      256
102
RTVSPost2010Prop51ColorRGB
 90
-16777216
102
RTVSPost2010PropOp51
 70
     0
102
RTVSPost2010Prop52
140
1.0
102
RTVSPost2010PropOp52
 70
     0
102
RTVSPost2010Prop53
 90
        2
102
RTVSPost2010PropOp53
 70
     0
102
RTVSPost2010Prop54
  1
strokes_ogs.tif
102
RTVSPost2010PropOp54
 70
     0
102
RTVSPost2010Prop55
280
     0
102
RTVSPost2010PropOp55
 70
     1
102
RTVSPost2010Prop56
140
1.0
102
RTVSPost2010PropOp56
 70
     0
102
RTVSPost2010Prop57
140
1.0
102
RTVSPost2010PropOp57
 70
     0
102
RTVSPropertyOp0
 70
     0
102
RTVSPropertyOp1
 70
     0
102
RTVSPropertyOp2
 70
     0
102
RTVSPropertyOp3
 70
     0
102
RTVSPropertyOp4
 70
     0
102
RTVSPropertyOp5
 70
     0
102
RTVSPropertyOp6
 70
     0
102
RTVSPropertyOp7
 70
     0
102
RTVSPropertyOp8
 70
     0
102
RTVSPropertyOp9
 70
     0
102
RTVSPropertyOp10
 70
     0
102
RTVSPropertyOp11
 70
     0
102
RTVSPropertyOp12
 70
     0
102
RTVSPropertyOp13
 70
     0
102
RTVSPropertyOp14
 70
     2
102
RTVSPropertyOp15
 70
     0
102
RTVSPropertyOp16
 70
     0
102
RTVSPropertyOp17
 70
     0
102
RTVSPropertyOp18
 70
     0
102
RTVSPropertyOp19
 70
     0
102
RTVSPropertyOp20
 70
     0
102
RTVSPropertyOp21
 70
     0
102
RTVSPropertyOp22
 70
     0
102
RTVSPropertyOp23
 70
     0
102
RTVSPropertyOp24
 70
     0
102
RTVSPropertyOp25
 70
     0
102
RTVSPropertyOp26
 70
     0
102
RTVSPropertyOp27
 70
     0
102
RTVSPropertyOp28
 70
     1
102
RTVSPropertyOp29
 70
     1
102
RTVSPropertyOp30
 70
     1
102
RTVSPropertyOp31
 70
     1
102
RTVSPropertyOp32
 70
     1
102
RTVSPropertyOp33
 70
     1
102
RTVSPropertyOp34
 70
     1
102
RTVSPropertyOp35
 70
     1
102
RTVSPropertyOp36
 70
     1
102
RTVSPropertyOp37
 70
     0
102
RTVSPropertyOp38
 70
     0
102
RTVSPropertyOp39
 70
     0
102
RTVSPropertyOp40
 70
     0
102
RTVSPropertyOp41
 70
     0
102
RTVSPropertyOp42
 70
     0
102
RTVSPropertyOp43
 70
     0
102
RTVSPropertyOp44
 70
     0
102
RTVSPropertyOp45
 70
     1
102
RTVSPropertyOp46
 70
     0
102
RTVSPropertyOp47
 70
     0
102
RTVSPropertyOp48
 70
     0
102
RTVSPropertyOp49
 70
     1
102
RTVSPropertyOp50
 70
     0
102
RTVSPropertyOp51
 70
     0
102
RTVSPropertyOp52
 70
     0
102
RTVSPropertyOp53
 70
     0
102
RTVSPropertyOp54
 70
     0
102
RTVSPropertyOp55
 70
     1
102
RTVSPropertyOp56
 70
     0
102
RTVSPropertyOp57
 70
     0
102
RTVSPropertyOp58
 70
     0
102
RTVSPropertyOp59
 70
     0
102
RTVSPropertyOp60
 70
     0
102
RTVSPropertyOp61
 70
     0
102
RTVSPropertyOp62
 70
     0
  0
XRECORD
  5
12A1
102
{ACAD_REACTORS
330
12A0
102
}
330
12A0
100
AcDbXrecord
280
     1
102
RTVSPost2010Prop28
280
     0
102
RTVSPost2010PropOp28
 70
     1
102
RTVSPost2010Prop29
280
     1
102
RTVSPost2010PropOp29
 70
     1
102
RTVSPost2010Prop30
280
     1
102
RTVSPost2010PropOp30
 70
     1
102
RTVSPost2010Prop31
280
     0
102
RTVSPost2010PropOp31
 70
     1
102
RTVSPost2010Prop32
280
     0
102
RTVSPost2010PropOp32
 70
     1
102
RTVSPost2010Prop33
280
     0
102
RTVSPost2010PropOp33
 70
     1
102
RTVSPost2010Prop34
280
     0
102
RTVSPost2010PropOp34
 70
     1
102
RTVSPost2010Prop35
280
     0
102
RTVSPost2010PropOp35
 70
     1
102
RTVSPost2010Prop36
280
     0
102
RTVSPost2010PropOp36
 70
     1
102
RTVSPost2010Prop37
 90
       50
102
RTVSPost2010PropOp37
 70
     1
102
RTVSPost2010Prop38
140
0.0
102
RTVSPost2010PropOp38
 70
     1
102
RTVSPost2010Prop39
140
1.0
102
RTVSPost2010PropOp39
 70
     1
102
RTVSPost2010Prop40
 90
        0
102
RTVSPost2010PropOp40
 70
     1
102
RTVSPost2010Prop41ColorIndex
 90
       18
102
RTVSPost2010Prop41ColorRGB
 90
        0
102
RTVSPost2010PropOp41
 70
     1
102
RTVSPost2010Prop42
 90
       50
102
RTVSPost2010PropOp42
 70
     1
102
RTVSPost2010Prop43
 90
        3
102
RTVSPost2010PropOp43
 70
     1
102
RTVSPost2010Prop44ColorIndex
 90
        5
102
RTVSPost2010Prop44ColorRGB
 90
      255
102
RTVSPost2010PropOp44
 70
     1
102
RTVSPost2010Prop45
280
     0
102
RTVSPost2010PropOp45
 70
     1
102
RTVSPost2010Prop46
 90
       50
102
RTVSPost2010PropOp46
 70
     1
102
RTVSPost2010Prop47
 90
       50
102
RTVSPost2010PropOp47
 70
     1
102
RTVSPost2010Prop48
 90
       50
102
RTVSPost2010PropOp48
 70
     1
102
RTVSPost2010Prop49
280
     0
102
RTVSPost2010PropOp49
 70
     1
102
RTVSPost2010Prop50
 90
       50
102
RTVSPost2010PropOp50
 70
     1
102
RTVSPost2010Prop51ColorIndex
 90
      256
102
RTVSPost2010Prop51ColorRGB
 90
-16777216
102
RTVSPost2010PropOp51
 70
     0
102
RTVSPost2010Prop52
140
1.0
102
RTVSPost2010PropOp52
 70
     0
102
RTVSPost2010Prop53
 90
        2
102
RTVSPost2010PropOp53
 70
     1
102
RTVSPost2010Prop54
  1
strokes_ogs.tif
102
RTVSPost2010PropOp54
 70
     1
102
RTVSPost2010Prop55
280
     0
102
RTVSPost2010PropOp55
 70
     1
102
RTVSPost2010Prop56
140
1.0
102
RTVSPost2010PropOp56
 70
     1
102
RTVSPost2010Prop57
140
1.0
102
RTVSPost2010PropOp57
 70
     1
102
RTVSPropertyOp0
 70
     1
102
RTVSPropertyOp1
 70
     1
102
RTVSPropertyOp2
 70
     1
102
RTVSPropertyOp3
 70
     1
102
RTVSPropertyOp4
 70
     1
102
RTVSPropertyOp5
 70
     1
102
RTVSPropertyOp6
 70
     1
102
RTVSPropertyOp7
 70
     1
102
RTVSPropertyOp8
 70
     1
102
RTVSPropertyOp9
 70
     1
102
RTVSPropertyOp10
 70
     1
102
RTVSPropertyOp11
 70
     1
102
RTVSPropertyOp12
 70
     1
102
RTVSPropertyOp13
 70
     1
102
RTVSPropertyOp14
 70
     1
102
RTVSPropertyOp15
 70
     1
102
RTVSPropertyOp16
 70
     1
102
RTVSPropertyOp17
 70
     1
102
RTVSPropertyOp18
 70
     1
102
RTVSPropertyOp19
 70
     1
102
RTVSPropertyOp20
 70
     1
102
RTVSPropertyOp21
 70
     1
102
RTVSPropertyOp22
 70
     1
102
RTVSPropertyOp23
 70
     1
102
RTVSPropertyOp24
 70
     1
102
RTVSPropertyOp25
 70
     1
102
RTVSPropertyOp26
 70
     1
102
RTVSPropertyOp27
 70
     1
102
RTVSPropertyOp28
 70
     1
102
RTVSPropertyOp29
 70
     1
102
RTVSPropertyOp30
 70
     1
102
RTVSPropertyOp31
 70
     1
102
RTVSPropertyOp32
 70
     1
102
RTVSPropertyOp33
 70
     1
102
RTVSPropertyOp34
 70
     1
102
RTVSPropertyOp35
 70
     1
102
RTVSPropertyOp36
 70
     1
102
RTVSPropertyOp37
 70
     1
102
RTVSPropertyOp38
 70
     1
102
RTVSPropertyOp39
 70
     1
102
RTVSPropertyOp40
 70
     1
102
RTVSPropertyOp41
 70
     1
102
RTVSPropertyOp42
 70
     1
102
RTVSPropertyOp43
 70
     1
102
RTVSPropertyOp44
 70
     1
102
RTVSPropertyOp45
 70
     1
102
RTVSPropertyOp46
 70
     1
102
RTVSPropertyOp47
 70
     1
102
RTVSPropertyOp48
 70
     1
102
RTVSPropertyOp49
 70
     1
102
RTVSPropertyOp50
 70
     1
102
RTVSPropertyOp51
 70
     0
102
RTVSPropertyOp52
 70
     0
102
RTVSPropertyOp53
 70
     1
102
RTVSPropertyOp54
 70
     1
102
RTVSPropertyOp55
 70
     1
102
RTVSPropertyOp56
 70
     1
102
RTVSPropertyOp57
 70
     1
102
RTVSPropertyOp58
 70
     1
102
RTVSPropertyOp59
 70
     1
102
RTVSPropertyOp60
 70
     1
102
RTVSPropertyOp61
 70
     1
102
RTVSPropertyOp62
 70
     1
  0
XRECORD
  5
12B3
102
{ACAD_REACTORS
330
12B2
102
}
330
12B2
100
AcDbXrecord
280
     1
102
RTVSPost2010Prop28
280
     0
102
RTVSPost2010PropOp28
 70
     1
102
RTVSPost2010Prop29
280
     1
102
RTVSPost2010PropOp29
 70
     1
102
RTVSPost2010Prop30
280
     1
102
RTVSPost2010PropOp30
 70
     1
102
RTVSPost2010Prop31
280
     0
102
RTVSPost2010PropOp31
 70
     1
102
RTVSPost2010Prop32
280
     0
102
RTVSPost2010PropOp32
 70
     1
102
RTVSPost2010Prop33
280
     0
102
RTVSPost2010PropOp33
 70
     1
102
RTVSPost2010Prop34
280
     0
102
RTVSPost2010PropOp34
 70
     1
102
RTVSPost2010Prop35
280
     0
102
RTVSPost2010PropOp35
 70
     1
102
RTVSPost2010Prop36
280
     0
102
RTVSPost2010PropOp36
 70
     1
102
RTVSPost2010Prop37
 90
       50
102
RTVSPost2010PropOp37
 70
     0
102
RTVSPost2010Prop38
140
0.0
102
RTVSPost2010PropOp38
 70
     0
102
RTVSPost2010Prop39
140
1.0
102
RTVSPost2010PropOp39
 70
     0
102
RTVSPost2010Prop40
 90
        0
102
RTVSPost2010PropOp40
 70
     0
102
RTVSPost2010Prop41ColorIndex
 90
       18
102
RTVSPost2010Prop41ColorRGB
 90
        0
102
RTVSPost2010PropOp41
 70
     0
102
RTVSPost2010Prop42
 90
       50
102
RTVSPost2010PropOp42
 70
     0
102
RTVSPost2010Prop43
 90
        3
102
RTVSPost2010PropOp43
 70
     0
102
RTVSPost2010Prop44ColorIndex
 90
        5
102
RTVSPost2010Prop44ColorRGB
 90
      255
102
RTVSPost2010PropOp44
 70
     0
102
RTVSPost2010Prop45
280
     0
102
RTVSPost2010PropOp45
 70
     1
102
RTVSPost2010Prop46
 90
       50
102
RTVSPost2010PropOp46
 70
     0
102
RTVSPost2010Prop47
 90
       50
102
RTVSPost2010PropOp47
 70
     0
102
RTVSPost2010Prop48
 90
       50
102
RTVSPost2010PropOp48
 70
     0
102
RTVSPost2010Prop49
280
     0
102
RTVSPost2010PropOp49
 70
     1
102
RTVSPost2010Prop50
 90
       50
102
RTVSPost2010PropOp50
 70
     0
102
RTVSPost2010Prop51ColorIndex
 90
      256
102
RTVSPost2010Prop51ColorRGB
 90
-16777216
102
RTVSPost2010PropOp51
 70
     0
102
RTVSPost2010Prop52
140
1.0
102
RTVSPost2010PropOp52
 70
     0
102
RTVSPost2010Prop53
 90
        2
102
RTVSPost2010PropOp53
 70
     0
102
RTVSPost2010Prop54
  1
strokes_ogs.tif
102
RTVSPost2010PropOp54
 70
     0
102
RTVSPost2010Prop55
280
     0
102
RTVSPost2010PropOp55
 70
     1
102
RTVSPost2010Prop56
140
1.0
102
RTVSPost2010PropOp56
 70
     0
102
RTVSPost2010Prop57
140
1.0
102
RTVSPost2010PropOp57
 70
     0
102
RTVSPropertyOp0
 70
     0
102
RTVSPropertyOp1
 70
     0
102
RTVSPropertyOp2
 70
     0
102
RTVSPropertyOp3
 70
     0
102
RTVSPropertyOp4
 70
     0
102
RTVSPropertyOp5
 70
     0
102
RTVSPropertyOp6
 70
     0
102
RTVSPropertyOp7
 70
     0
102
RTVSPropertyOp8
 70
     0
102
RTVSPropertyOp9
 70
     0
102
RTVSPropertyOp10
 70
     0
102
RTVSPropertyOp11
 70
     0
102
RTVSPropertyOp12
 70
     0
102
RTVSPropertyOp13
 70
     0
102
RTVSPropertyOp14
 70
     2
102
RTVSPropertyOp15
 70
     0
102
RTVSPropertyOp16
 70
     0
102
RTVSPropertyOp17
 70
     0
102
RTVSPropertyOp18
 70
     0
102
RTVSPropertyOp19
 70
     0
102
RTVSPropertyOp20
 70
     0
102
RTVSPropertyOp21
 70
     0
102
RTVSPropertyOp22
 70
     0
102
RTVSPropertyOp23
 70
     0
102
RTVSPropertyOp24
 70
     0
102
RTVSPropertyOp25
 70
     0
102
RTVSPropertyOp26
 70
     0
102
RTVSPropertyOp27
 70
     0
102
RTVSPropertyOp28
 70
     1
102
RTVSPropertyOp29
 70
     1
102
RTVSPropertyOp30
 70
     1
102
RTVSPropertyOp31
 70
     1
102
RTVSPropertyOp32
 70
     1
102
RTVSPropertyOp33
 70
     1
102
RTVSPropertyOp34
 70
     1
102
RTVSPropertyOp35
 70
     1
102
RTVSPropertyOp36
 70
     1
102
RTVSPropertyOp37
 70
     0
102
RTVSPropertyOp38
 70
     0
102
RTVSPropertyOp39
 70
     0
102
RTVSPropertyOp40
 70
     0
102
RTVSPropertyOp41
 70
     0
102
RTVSPropertyOp42
 70
     0
102
RTVSPropertyOp43
 70
     0
102
RTVSPropertyOp44
 70
     0
102
RTVSPropertyOp45
 70
     1
102
RTVSPropertyOp46
 70
     0
102
RTVSPropertyOp47
 70
     0
102
RTVSPropertyOp48
 70
     0
102
RTVSPropertyOp49
 70
     1
102
RTVSPropertyOp50
 70
     0
102
RTVSPropertyOp51
 70
     0
102
RTVSPropertyOp52
 70
     0
102
RTVSPropertyOp53
 70
     0
102
RTVSPropertyOp54
 70
     0
102
RTVSPropertyOp55
 70
     1
102
RTVSPropertyOp56
 70
     0
102
RTVSPropertyOp57
 70
     0
102
RTVSPropertyOp58
 70
     0
102
RTVSPropertyOp59
 70
     0
102
RTVSPropertyOp60
 70
     0
102
RTVSPropertyOp61
 70
     0
102
RTVSPropertyOp62
 70
     0
  0
XRECORD
  5
1299
102
{ACAD_REACTORS
330
1298
102
}
330
1298
100
AcDbXrecord
280
     1
102
RTVSPost2010Prop28
280
     0
102
RTVSPost2010PropOp28
 70
     1
102
RTVSPost2010Prop29
280
     1
102
RTVSPost2010PropOp29
 70
     1
102
RTVSPost2010Prop30
280
     1
102
RTVSPost2010PropOp30
 70
     1
102
RTVSPost2010Prop31
280
     0
102
RTVSPost2010PropOp31
 70
     1
102
RTVSPost2010Prop32
280
     0
102
RTVSPost2010PropOp32
 70
     1
102
RTVSPost2010Prop33
280
     0
102
RTVSPost2010PropOp33
 70
     1
102
RTVSPost2010Prop34
280
     0
102
RTVSPost2010PropOp34
 70
     1
102
RTVSPost2010Prop35
280
     0
102
RTVSPost2010PropOp35
 70
     1
102
RTVSPost2010Prop36
280
     0
102
RTVSPost2010PropOp36
 70
     1
102
RTVSPost2010Prop37
 90
       50
102
RTVSPost2010PropOp37
 70
     1
102
RTVSPost2010Prop38
140
0.0
102
RTVSPost2010PropOp38
 70
     1
102
RTVSPost2010Prop39
140
1.0
102
RTVSPost2010PropOp39
 70
     1
102
RTVSPost2010Prop40
 90
        0
102
RTVSPost2010PropOp40
 70
     1
102
RTVSPost2010Prop41ColorIndex
 90
       18
102
RTVSPost2010Prop41ColorRGB
 90
        0
102
RTVSPost2010PropOp41
 70
     1
102
RTVSPost2010Prop42
 90
       50
102
RTVSPost2010PropOp42
 70
     1
102
RTVSPost2010Prop43
 90
        3
102
RTVSPost2010PropOp43
 70
     1
102
RTVSPost2010Prop44ColorIndex
 90
        5
102
RTVSPost2010Prop44ColorRGB
 90
      255
102
RTVSPost2010PropOp44
 70
     1
102
RTVSPost2010Prop45
280
     0
102
RTVSPost2010PropOp45
 70
     1
102
RTVSPost2010Prop46
 90
       50
102
RTVSPost2010PropOp46
 70
     1
102
RTVSPost2010Prop47
 90
       50
102
RTVSPost2010PropOp47
 70
     1
102
RTVSPost2010Prop48
 90
       50
102
RTVSPost2010PropOp48
 70
     1
102
RTVSPost2010Prop49
280
     0
102
RTVSPost2010PropOp49
 70
     1
102
RTVSPost2010Prop50
 90
       50
102
RTVSPost2010PropOp50
 70
     1
102
RTVSPost2010Prop51ColorIndex
 90
      256
102
RTVSPost2010Prop51ColorRGB
 90
-16777216
102
RTVSPost2010PropOp51
 70
     0
102
RTVSPost2010Prop52
140
1.0
102
RTVSPost2010PropOp52
 70
     0
102
RTVSPost2010Prop53
 90
        2
102
RTVSPost2010PropOp53
 70
     1
102
RTVSPost2010Prop54
  1
strokes_ogs.tif
102
RTVSPost2010PropOp54
 70
     1
102
RTVSPost2010Prop55
280
     0
102
RTVSPost2010PropOp55
 70
     1
102
RTVSPost2010Prop56
140
1.0
102
RTVSPost2010PropOp56
 70
     1
102
RTVSPost2010Prop57
140
1.0
102
RTVSPost2010PropOp57
 70
     1
102
RTVSPropertyOp0
 70
     1
102
RTVSPropertyOp1
 70
     1
102
RTVSPropertyOp2
 70
     1
102
RTVSPropertyOp3
 70
     1
102
RTVSPropertyOp4
 70
     1
102
RTVSPropertyOp5
 70
     1
102
RTVSPropertyOp6
 70
     1
102
RTVSPropertyOp7
 70
     1
102
RTVSPropertyOp8
 70
     1
102
RTVSPropertyOp9
 70
     1
102
RTVSPropertyOp10
 70
     1
102
RTVSPropertyOp11
 70
     1
102
RTVSPropertyOp12
 70
     1
102
RTVSPropertyOp13
 70
     1
102
RTVSPropertyOp14
 70
     1
102
RTVSPropertyOp15
 70
     1
102
RTVSPropertyOp16
 70
     1
102
RTVSPropertyOp17
 70
     1
102
RTVSPropertyOp18
 70
     1
102
RTVSPropertyOp19
 70
     1
102
RTVSPropertyOp20
 70
     1
102
RTVSPropertyOp21
 70
     1
102
RTVSPropertyOp22
 70
     1
102
RTVSPropertyOp23
 70
     1
102
RTVSPropertyOp24
 70
     1
102
RTVSPropertyOp25
 70
     1
102
RTVSPropertyOp26
 70
     1
102
RTVSPropertyOp27
 70
     1
102
RTVSPropertyOp28
 70
     1
102
RTVSPropertyOp29
 70
     1
102
RTVSPropertyOp30
 70
     1
102
RTVSPropertyOp31
 70
     1
102
RTVSPropertyOp32
 70
     1
102
RTVSPropertyOp33
 70
     1
102
RTVSPropertyOp34
 70
     1
102
RTVSPropertyOp35
 70
     1
102
RTVSPropertyOp36
 70
     1
102
RTVSPropertyOp37
 70
     1
102
RTVSPropertyOp38
 70
     1
102
RTVSPropertyOp39
 70
     1
102
RTVSPropertyOp40
 70
     1
102
RTVSPropertyOp41
 70
     1
102
RTVSPropertyOp42
 70
     1
102
RTVSPropertyOp43
 70
     1
102
RTVSPropertyOp44
 70
     1
102
RTVSPropertyOp45
 70
     1
102
RTVSPropertyOp46
 70
     1
102
RTVSPropertyOp47
 70
     1
102
RTVSPropertyOp48
 70
     1
102
RTVSPropertyOp49
 70
     1
102
RTVSPropertyOp50
 70
     1
102
RTVSPropertyOp51
 70
     0
102
RTVSPropertyOp52
 70
     0
102
RTVSPropertyOp53
 70
     1
102
RTVSPropertyOp54
 70
     1
102
RTVSPropertyOp55
 70
     1
102
RTVSPropertyOp56
 70
     1
102
RTVSPropertyOp57
 70
     1
102
RTVSPropertyOp58
 70
     1
102
RTVSPropertyOp59
 70
     1
102
RTVSPropertyOp60
 70
     1
102
RTVSPropertyOp61
 70
     1
102
RTVSPropertyOp62
 70
     1
  0
XRECORD
  5
12AF
102
{ACAD_REACTORS
330
12AE
102
}
330
12AE
100
AcDbXrecord
280
     1
102
RTVSPost2010Prop28
280
     0
102
RTVSPost2010PropOp28
 70
     1
102
RTVSPost2010Prop29
280
     1
102
RTVSPost2010PropOp29
 70
     1
102
RTVSPost2010Prop30
280
     1
102
RTVSPost2010PropOp30
 70
     1
102
RTVSPost2010Prop31
280
     0
102
RTVSPost2010PropOp31
 70
     1
102
RTVSPost2010Prop32
280
     0
102
RTVSPost2010PropOp32
 70
     1
102
RTVSPost2010Prop33
280
     0
102
RTVSPost2010PropOp33
 70
     1
102
RTVSPost2010Prop34
280
     0
102
RTVSPost2010PropOp34
 70
     1
102
RTVSPost2010Prop35
280
     0
102
RTVSPost2010PropOp35
 70
     1
102
RTVSPost2010Prop36
280
     0
102
RTVSPost2010PropOp36
 70
     1
102
RTVSPost2010Prop37
 90
       50
102
RTVSPost2010PropOp37
 70
     1
102
RTVSPost2010Prop38
140
0.0
102
RTVSPost2010PropOp38
 70
     1
102
RTVSPost2010Prop39
140
1.0
102
RTVSPost2010PropOp39
 70
     1
102
RTVSPost2010Prop40
 90
        0
102
RTVSPost2010PropOp40
 70
     1
102
RTVSPost2010Prop41ColorIndex
 90
       18
102
RTVSPost2010Prop41ColorRGB
 90
        0
102
RTVSPost2010PropOp41
 70
     1
102
RTVSPost2010Prop42
 90
       50
102
RTVSPost2010PropOp42
 70
     1
102
RTVSPost2010Prop43
 90
        3
102
RTVSPost2010PropOp43
 70
     1
102
RTVSPost2010Prop44ColorIndex
 90
        5
102
RTVSPost2010Prop44ColorRGB
 90
      255
102
RTVSPost2010PropOp44
 70
     1
102
RTVSPost2010Prop45
280
     0
102
RTVSPost2010PropOp45
 70
     1
102
RTVSPost2010Prop46
 90
       50
102
RTVSPost2010PropOp46
 70
     1
102
RTVSPost2010Prop47
 90
       50
102
RTVSPost2010PropOp47
 70
     1
102
RTVSPost2010Prop48
 90
       50
102
RTVSPost2010PropOp48
 70
     1
102
RTVSPost2010Prop49
280
     0
102
RTVSPost2010PropOp49
 70
     1
102
RTVSPost2010Prop50
 90
       50
102
RTVSPost2010PropOp50
 70
     1
102
RTVSPost2010Prop51ColorIndex
 90
      256
102
RTVSPost2010Prop51ColorRGB
 90
-16777216
102
RTVSPost2010PropOp51
 70
     0
102
RTVSPost2010Prop52
140
1.0
102
RTVSPost2010PropOp52
 70
     0
102
RTVSPost2010Prop53
 90
        2
102
RTVSPost2010PropOp53
 70
     1
102
RTVSPost2010Prop54
  1
strokes_ogs.tif
102
RTVSPost2010PropOp54
 70
     1
102
RTVSPost2010Prop55
280
     0
102
RTVSPost2010PropOp55
 70
     1
102
RTVSPost2010Prop56
140
1.0
102
RTVSPost2010PropOp56
 70
     1
102
RTVSPost2010Prop57
140
1.0
102
RTVSPost2010PropOp57
 70
     1
102
RTVSPropertyOp0
 70
     1
102
RTVSPropertyOp1
 70
     1
102
RTVSPropertyOp2
 70
     1
102
RTVSPropertyOp3
 70
     1
102
RTVSPropertyOp4
 70
     1
102
RTVSPropertyOp5
 70
     1
102
RTVSPropertyOp6
 70
     1
102
RTVSPropertyOp7
 70
     1
102
RTVSPropertyOp8
 70
     1
102
RTVSPropertyOp9
 70
     1
102
RTVSPropertyOp10
 70
     1
102
RTVSPropertyOp11
 70
     1
102
RTVSPropertyOp12
 70
     1
102
RTVSPropertyOp13
 70
     1
102
RTVSPropertyOp14
 70
     1
102
RTVSPropertyOp15
 70
     1
102
RTVSPropertyOp16
 70
     1
102
RTVSPropertyOp17
 70
     1
102
RTVSPropertyOp18
 70
     1
102
RTVSPropertyOp19
 70
     1
102
RTVSPropertyOp20
 70
     1
102
RTVSPropertyOp21
 70
     1
102
RTVSPropertyOp22
 70
     1
102
RTVSPropertyOp23
 70
     1
102
RTVSPropertyOp24
 70
     1
102
RTVSPropertyOp25
 70
     1
102
RTVSPropertyOp26
 70
     1
102
RTVSPropertyOp27
 70
     1
102
RTVSPropertyOp28
 70
     1
102
RTVSPropertyOp29
 70
     1
102
RTVSPropertyOp30
 70
     1
102
RTVSPropertyOp31
 70
     1
102
RTVSPropertyOp32
 70
     1
102
RTVSPropertyOp33
 70
     1
102
RTVSPropertyOp34
 70
     1
102
RTVSPropertyOp35
 70
     1
102
RTVSPropertyOp36
 70
     1
102
RTVSPropertyOp37
 70
     1
102
RTVSPropertyOp38
 70
     1
102
RTVSPropertyOp39
 70
     1
102
RTVSPropertyOp40
 70
     1
102
RTVSPropertyOp41
 70
     1
102
RTVSPropertyOp42
 70
     1
102
RTVSPropertyOp43
 70
     1
102
RTVSPropertyOp44
 70
     1
102
RTVSPropertyOp45
 70
     1
102
RTVSPropertyOp46
 70
     1
102
RTVSPropertyOp47
 70
     1
102
RTVSPropertyOp48
 70
     1
102
RTVSPropertyOp49
 70
     1
102
RTVSPropertyOp50
 70
     1
102
RTVSPropertyOp51
 70
     0
102
RTVSPropertyOp52
 70
     0
102
RTVSPropertyOp53
 70
     1
102
RTVSPropertyOp54
 70
     1
102
RTVSPropertyOp55
 70
     1
102
RTVSPropertyOp56
 70
     1
102
RTVSPropertyOp57
 70
     1
102
RTVSPropertyOp58
 70
     1
102
RTVSPropertyOp59
 70
     1
102
RTVSPropertyOp60
 70
     1
102
RTVSPropertyOp61
 70
     1
102
RTVSPropertyOp62
 70
     1
  0
XRECORD
  5
12AD
102
{ACAD_REACTORS
330
12AC
102
}
330
12AC
100
AcDbXrecord
280
     1
102
RTVSPost2010Prop28
280
     0
102
RTVSPost2010PropOp28
 70
     1
102
RTVSPost2010Prop29
280
     1
102
RTVSPost2010PropOp29
 70
     1
102
RTVSPost2010Prop30
280
     1
102
RTVSPost2010PropOp30
 70
     1
102
RTVSPost2010Prop31
280
     0
102
RTVSPost2010PropOp31
 70
     1
102
RTVSPost2010Prop32
280
     0
102
RTVSPost2010PropOp32
 70
     1
102
RTVSPost2010Prop33
280
     0
102
RTVSPost2010PropOp33
 70
     1
102
RTVSPost2010Prop34
280
     0
102
RTVSPost2010PropOp34
 70
     1
102
RTVSPost2010Prop35
280
     0
102
RTVSPost2010PropOp35
 70
     1
102
RTVSPost2010Prop36
280
     0
102
RTVSPost2010PropOp36
 70
     1
102
RTVSPost2010Prop37
 90
       50
102
RTVSPost2010PropOp37
 70
     1
102
RTVSPost2010Prop38
140
0.0
102
RTVSPost2010PropOp38
 70
     1
102
RTVSPost2010Prop39
140
1.0
102
RTVSPost2010PropOp39
 70
     1
102
RTVSPost2010Prop40
 90
        0
102
RTVSPost2010PropOp40
 70
     1
102
RTVSPost2010Prop41ColorIndex
 90
       18
102
RTVSPost2010Prop41ColorRGB
 90
        0
102
RTVSPost2010PropOp41
 70
     1
102
RTVSPost2010Prop42
 90
       50
102
RTVSPost2010PropOp42
 70
     1
102
RTVSPost2010Prop43
 90
        3
102
RTVSPost2010PropOp43
 70
     1
102
RTVSPost2010Prop44ColorIndex
 90
        5
102
RTVSPost2010Prop44ColorRGB
 90
      255
102
RTVSPost2010PropOp44
 70
     1
102
RTVSPost2010Prop45
280
     0
102
RTVSPost2010PropOp45
 70
     1
102
RTVSPost2010Prop46
 90
       50
102
RTVSPost2010PropOp46
 70
     1
102
RTVSPost2010Prop47
 90
       50
102
RTVSPost2010PropOp47
 70
     1
102
RTVSPost2010Prop48
 90
       50
102
RTVSPost2010PropOp48
 70
     1
102
RTVSPost2010Prop49
280
     0
102
RTVSPost2010PropOp49
 70
     1
102
RTVSPost2010Prop50
 90
       50
102
RTVSPost2010PropOp50
 70
     1
102
RTVSPost2010Prop51ColorIndex
 90
      256
102
RTVSPost2010Prop51ColorRGB
 90
-16777216
102
RTVSPost2010PropOp51
 70
     0
102
RTVSPost2010Prop52
140
1.0
102
RTVSPost2010PropOp52
 70
     0
102
RTVSPost2010Prop53
 90
        2
102
RTVSPost2010PropOp53
 70
     1
102
RTVSPost2010Prop54
  1
strokes_ogs.tif
102
RTVSPost2010PropOp54
 70
     1
102
RTVSPost2010Prop55
280
     0
102
RTVSPost2010PropOp55
 70
     1
102
RTVSPost2010Prop56
140
1.0
102
RTVSPost2010PropOp56
 70
     1
102
RTVSPost2010Prop57
140
1.0
102
RTVSPost2010PropOp57
 70
     1
102
RTVSPropertyOp0
 70
     1
102
RTVSPropertyOp1
 70
     1
102
RTVSPropertyOp2
 70
     1
102
RTVSPropertyOp3
 70
     1
102
RTVSPropertyOp4
 70
     1
102
RTVSPropertyOp5
 70
     1
102
RTVSPropertyOp6
 70
     1
102
RTVSPropertyOp7
 70
     1
102
RTVSPropertyOp8
 70
     1
102
RTVSPropertyOp9
 70
     1
102
RTVSPropertyOp10
 70
     1
102
RTVSPropertyOp11
 70
     1
102
RTVSPropertyOp12
 70
     1
102
RTVSPropertyOp13
 70
     1
102
RTVSPropertyOp14
 70
     1
102
RTVSPropertyOp15
 70
     1
102
RTVSPropertyOp16
 70
     1
102
RTVSPropertyOp17
 70
     1
102
RTVSPropertyOp18
 70
     1
102
RTVSPropertyOp19
 70
     1
102
RTVSPropertyOp20
 70
     1
102
RTVSPropertyOp21
 70
     1
102
RTVSPropertyOp22
 70
     1
102
RTVSPropertyOp23
 70
     1
102
RTVSPropertyOp24
 70
     1
102
RTVSPropertyOp25
 70
     1
102
RTVSPropertyOp26
 70
     1
102
RTVSPropertyOp27
 70
     1
102
RTVSPropertyOp28
 70
     1
102
RTVSPropertyOp29
 70
     1
102
RTVSPropertyOp30
 70
     1
102
RTVSPropertyOp31
 70
     1
102
RTVSPropertyOp32
 70
     1
102
RTVSPropertyOp33
 70
     1
102
RTVSPropertyOp34
 70
     1
102
RTVSPropertyOp35
 70
     1
102
RTVSPropertyOp36
 70
     1
102
RTVSPropertyOp37
 70
     1
102
RTVSPropertyOp38
 70
     1
102
RTVSPropertyOp39
 70
     1
102
RTVSPropertyOp40
 70
     1
102
RTVSPropertyOp41
 70
     1
102
RTVSPropertyOp42
 70
     1
102
RTVSPropertyOp43
 70
     1
102
RTVSPropertyOp44
 70
     1
102
RTVSPropertyOp45
 70
     1
102
RTVSPropertyOp46
 70
     1
102
RTVSPropertyOp47
 70
     1
102
RTVSPropertyOp48
 70
     1
102
RTVSPropertyOp49
 70
     1
102
RTVSPropertyOp50
 70
     1
102
RTVSPropertyOp51
 70
     0
102
RTVSPropertyOp52
 70
     0
102
RTVSPropertyOp53
 70
     1
102
RTVSPropertyOp54
 70
     1
102
RTVSPropertyOp55
 70
     1
102
RTVSPropertyOp56
 70
     1
102
RTVSPropertyOp57
 70
     1
102
RTVSPropertyOp58
 70
     1
102
RTVSPropertyOp59
 70
     1
102
RTVSPropertyOp60
 70
     1
102
RTVSPropertyOp61
 70
     1
102
RTVSPropertyOp62
 70
     1
  0
XRECORD
  5
12A7
102
{ACAD_REACTORS
330
12A6
102
}
330
12A6
100
AcDbXrecord
280
     1
102
RTVSPost2010Prop28
280
     0
102
RTVSPost2010PropOp28
 70
     1
102
RTVSPost2010Prop29
280
     1
102
RTVSPost2010PropOp29
 70
     1
102
RTVSPost2010Prop30
280
     1
102
RTVSPost2010PropOp30
 70
     1
102
RTVSPost2010Prop31
280
     0
102
RTVSPost2010PropOp31
 70
     1
102
RTVSPost2010Prop32
280
     0
102
RTVSPost2010PropOp32
 70
     1
102
RTVSPost2010Prop33
280
     0
102
RTVSPost2010PropOp33
 70
     1
102
RTVSPost2010Prop34
280
     0
102
RTVSPost2010PropOp34
 70
     1
102
RTVSPost2010Prop35
280
     0
102
RTVSPost2010PropOp35
 70
     1
102
RTVSPost2010Prop36
280
     0
102
RTVSPost2010PropOp36
 70
     1
102
RTVSPost2010Prop37
 90
       50
102
RTVSPost2010PropOp37
 70
     1
102
RTVSPost2010Prop38
140
0.0
102
RTVSPost2010PropOp38
 70
     1
102
RTVSPost2010Prop39
140
1.0
102
RTVSPost2010PropOp39
 70
     1
102
RTVSPost2010Prop40
 90
        0
102
RTVSPost2010PropOp40
 70
     1
102
RTVSPost2010Prop41ColorIndex
 90
       18
102
RTVSPost2010Prop41ColorRGB
 90
        0
102
RTVSPost2010PropOp41
 70
     1
102
RTVSPost2010Prop42
 90
       50
102
RTVSPost2010PropOp42
 70
     1
102
RTVSPost2010Prop43
 90
        3
102
RTVSPost2010PropOp43
 70
     1
102
RTVSPost2010Prop44ColorIndex
 90
        5
102
RTVSPost2010Prop44ColorRGB
 90
      255
102
RTVSPost2010PropOp44
 70
     1
102
RTVSPost2010Prop45
280
     0
102
RTVSPost2010PropOp45
 70
     1
102
RTVSPost2010Prop46
 90
       50
102
RTVSPost2010PropOp46
 70
     1
102
RTVSPost2010Prop47
 90
       50
102
RTVSPost2010PropOp47
 70
     1
102
RTVSPost2010Prop48
 90
       50
102
RTVSPost2010PropOp48
 70
     1
102
RTVSPost2010Prop49
280
     0
102
RTVSPost2010PropOp49
 70
     1
102
RTVSPost2010Prop50
 90
       50
102
RTVSPost2010PropOp50
 70
     1
102
RTVSPost2010Prop51ColorIndex
 90
      256
102
RTVSPost2010Prop51ColorRGB
 90
-16777216
102
RTVSPost2010PropOp51
 70
     0
102
RTVSPost2010Prop52
140
1.0
102
RTVSPost2010PropOp52
 70
     0
102
RTVSPost2010Prop53
 90
        2
102
RTVSPost2010PropOp53
 70
     1
102
RTVSPost2010Prop54
  1
strokes_ogs.tif
102
RTVSPost2010PropOp54
 70
     1
102
RTVSPost2010Prop55
280
     0
102
RTVSPost2010PropOp55
 70
     1
102
RTVSPost2010Prop56
140
1.0
102
RTVSPost2010PropOp56
 70
     1
102
RTVSPost2010Prop57
140
1.0
102
RTVSPost2010PropOp57
 70
     1
102
RTVSPropertyOp0
 70
     1
102
RTVSPropertyOp1
 70
     1
102
RTVSPropertyOp2
 70
     1
102
RTVSPropertyOp3
 70
     1
102
RTVSPropertyOp4
 70
     1
102
RTVSPropertyOp5
 70
     1
102
RTVSPropertyOp6
 70
     1
102
RTVSPropertyOp7
 70
     1
102
RTVSPropertyOp8
 70
     1
102
RTVSPropertyOp9
 70
     1
102
RTVSPropertyOp10
 70
     1
102
RTVSPropertyOp11
 70
     1
102
RTVSPropertyOp12
 70
     1
102
RTVSPropertyOp13
 70
     1
102
RTVSPropertyOp14
 70
     1
102
RTVSPropertyOp15
 70
     1
102
RTVSPropertyOp16
 70
     1
102
RTVSPropertyOp17
 70
     1
102
RTVSPropertyOp18
 70
     1
102
RTVSPropertyOp19
 70
     1
102
RTVSPropertyOp20
 70
     1
102
RTVSPropertyOp21
 70
     1
102
RTVSPropertyOp22
 70
     1
102
RTVSPropertyOp23
 70
     1
102
RTVSPropertyOp24
 70
     1
102
RTVSPropertyOp25
 70
     1
102
RTVSPropertyOp26
 70
     1
102
RTVSPropertyOp27
 70
     1
102
RTVSPropertyOp28
 70
     1
102
RTVSPropertyOp29
 70
     1
102
RTVSPropertyOp30
 70
     1
102
RTVSPropertyOp31
 70
     1
102
RTVSPropertyOp32
 70
     1
102
RTVSPropertyOp33
 70
     1
102
RTVSPropertyOp34
 70
     1
102
RTVSPropertyOp35
 70
     1
102
RTVSPropertyOp36
 70
     1
102
RTVSPropertyOp37
 70
     1
102
RTVSPropertyOp38
 70
     1
102
RTVSPropertyOp39
 70
     1
102
RTVSPropertyOp40
 70
     1
102
RTVSPropertyOp41
 70
     1
102
RTVSPropertyOp42
 70
     1
102
RTVSPropertyOp43
 70
     1
102
RTVSPropertyOp44
 70
     1
102
RTVSPropertyOp45
 70
     1
102
RTVSPropertyOp46
 70
     1
102
RTVSPropertyOp47
 70
     1
102
RTVSPropertyOp48
 70
     1
102
RTVSPropertyOp49
 70
     1
102
RTVSPropertyOp50
 70
     1
102
RTVSPropertyOp51
 70
     0
102
RTVSPropertyOp52
 70
     0
102
RTVSPropertyOp53
 70
     1
102
RTVSPropertyOp54
 70
     1
102
RTVSPropertyOp55
 70
     1
102
RTVSPropertyOp56
 70
     1
102
RTVSPropertyOp57
 70
     1
102
RTVSPropertyOp58
 70
     1
102
RTVSPropertyOp59
 70
     1
102
RTVSPropertyOp60
 70
     1
102
RTVSPropertyOp61
 70
     1
102
RTVSPropertyOp62
 70
     1
  0
XRECORD
  5
12A9
102
{ACAD_REACTORS
330
12A8
102
}
330
12A8
100
AcDbXrecord
280
     1
102
RTVSPost2010Prop28
280
     0
102
RTVSPost2010PropOp28
 70
     1
102
RTVSPost2010Prop29
280
     1
102
RTVSPost2010PropOp29
 70
     1
102
RTVSPost2010Prop30
280
     1
102
RTVSPost2010PropOp30
 70
     1
102
RTVSPost2010Prop31
280
     0
102
RTVSPost2010PropOp31
 70
     1
102
RTVSPost2010Prop32
280
     0
102
RTVSPost2010PropOp32
 70
     1
102
RTVSPost2010Prop33
280
     0
102
RTVSPost2010PropOp33
 70
     1
102
RTVSPost2010Prop34
280
     0
102
RTVSPost2010PropOp34
 70
     1
102
RTVSPost2010Prop35
280
     0
102
RTVSPost2010PropOp35
 70
     1
102
RTVSPost2010Prop36
280
     0
102
RTVSPost2010PropOp36
 70
     1
102
RTVSPost2010Prop37
 90
       50
102
RTVSPost2010PropOp37
 70
     1
102
RTVSPost2010Prop38
140
0.0
102
RTVSPost2010PropOp38
 70
     1
102
RTVSPost2010Prop39
140
1.0
102
RTVSPost2010PropOp39
 70
     1
102
RTVSPost2010Prop40
 90
        0
102
RTVSPost2010PropOp40
 70
     1
102
RTVSPost2010Prop41ColorIndex
 90
       18
102
RTVSPost2010Prop41ColorRGB
 90
        0
102
RTVSPost2010PropOp41
 70
     1
102
RTVSPost2010Prop42
 90
       50
102
RTVSPost2010PropOp42
 70
     1
102
RTVSPost2010Prop43
 90
        3
102
RTVSPost2010PropOp43
 70
     1
102
RTVSPost2010Prop44ColorIndex
 90
        5
102
RTVSPost2010Prop44ColorRGB
 90
      255
102
RTVSPost2010PropOp44
 70
     1
102
RTVSPost2010Prop45
280
     0
102
RTVSPost2010PropOp45
 70
     1
102
RTVSPost2010Prop46
 90
       50
102
RTVSPost2010PropOp46
 70
     1
102
RTVSPost2010Prop47
 90
       50
102
RTVSPost2010PropOp47
 70
     1
102
RTVSPost2010Prop48
 90
       50
102
RTVSPost2010PropOp48
 70
     1
102
RTVSPost2010Prop49
280
     0
102
RTVSPost2010PropOp49
 70
     1
102
RTVSPost2010Prop50
 90
       50
102
RTVSPost2010PropOp50
 70
     1
102
RTVSPost2010Prop51ColorIndex
 90
      256
102
RTVSPost2010Prop51ColorRGB
 90
-16777216
102
RTVSPost2010PropOp51
 70
     0
102
RTVSPost2010Prop52
140
1.0
102
RTVSPost2010PropOp52
 70
     0
102
RTVSPost2010Prop53
 90
        2
102
RTVSPost2010PropOp53
 70
     1
102
RTVSPost2010Prop54
  1
strokes_ogs.tif
102
RTVSPost2010PropOp54
 70
     1
102
RTVSPost2010Prop55
280
     0
102
RTVSPost2010PropOp55
 70
     1
102
RTVSPost2010Prop56
140
1.0
102
RTVSPost2010PropOp56
 70
     1
102
RTVSPost2010Prop57
140
1.0
102
RTVSPost2010PropOp57
 70
     1
102
RTVSPropertyOp0
 70
     1
102
RTVSPropertyOp1
 70
     1
102
RTVSPropertyOp2
 70
     1
102
RTVSPropertyOp3
 70
     1
102
RTVSPropertyOp4
 70
     1
102
RTVSPropertyOp5
 70
     1
102
RTVSPropertyOp6
 70
     1
102
RTVSPropertyOp7
 70
     1
102
RTVSPropertyOp8
 70
     1
102
RTVSPropertyOp9
 70
     1
102
RTVSPropertyOp10
 70
     1
102
RTVSPropertyOp11
 70
     1
102
RTVSPropertyOp12
 70
     1
102
RTVSPropertyOp13
 70
     1
102
RTVSPropertyOp14
 70
     1
102
RTVSPropertyOp15
 70
     1
102
RTVSPropertyOp16
 70
     1
102
RTVSPropertyOp17
 70
     1
102
RTVSPropertyOp18
 70
     1
102
RTVSPropertyOp19
 70
     1
102
RTVSPropertyOp20
 70
     1
102
RTVSPropertyOp21
 70
     1
102
RTVSPropertyOp22
 70
     1
102
RTVSPropertyOp23
 70
     1
102
RTVSPropertyOp24
 70
     1
102
RTVSPropertyOp25
 70
     1
102
RTVSPropertyOp26
 70
     1
102
RTVSPropertyOp27
 70
     1
102
RTVSPropertyOp28
 70
     1
102
RTVSPropertyOp29
 70
     1
102
RTVSPropertyOp30
 70
     1
102
RTVSPropertyOp31
 70
     1
102
RTVSPropertyOp32
 70
     1
102
RTVSPropertyOp33
 70
     1
102
RTVSPropertyOp34
 70
     1
102
RTVSPropertyOp35
 70
     1
102
RTVSPropertyOp36
 70
     1
102
RTVSPropertyOp37
 70
     1
102
RTVSPropertyOp38
 70
     1
102
RTVSPropertyOp39
 70
     1
102
RTVSPropertyOp40
 70
     1
102
RTVSPropertyOp41
 70
     1
102
RTVSPropertyOp42
 70
     1
102
RTVSPropertyOp43
 70
     1
102
RTVSPropertyOp44
 70
     1
102
RTVSPropertyOp45
 70
     1
102
RTVSPropertyOp46
 70
     1
102
RTVSPropertyOp47
 70
     1
102
RTVSPropertyOp48
 70
     1
102
RTVSPropertyOp49
 70
     1
102
RTVSPropertyOp50
 70
     1
102
RTVSPropertyOp51
 70
     0
102
RTVSPropertyOp52
 70
     0
102
RTVSPropertyOp53
 70
     1
102
RTVSPropertyOp54
 70
     1
102
RTVSPropertyOp55
 70
     1
102
RTVSPropertyOp56
 70
     1
102
RTVSPropertyOp57
 70
     1
102
RTVSPropertyOp58
 70
     1
102
RTVSPropertyOp59
 70
     1
102
RTVSPropertyOp60
 70
     1
102
RTVSPropertyOp61
 70
     1
102
RTVSPropertyOp62
 70
     1
  0
XRECORD
  5
129F
102
{ACAD_REACTORS
330
129E
102
}
330
129E
100
AcDbXrecord
280
     1
102
RTVSPost2010Prop28
280
     0
102
RTVSPost2010PropOp28
 70
     1
102
RTVSPost2010Prop29
280
     1
102
RTVSPost2010PropOp29
 70
     1
102
RTVSPost2010Prop30
280
     1
102
RTVSPost2010PropOp30
 70
     1
102
RTVSPost2010Prop31
280
     0
102
RTVSPost2010PropOp31
 70
     1
102
RTVSPost2010Prop32
280
     0
102
RTVSPost2010PropOp32
 70
     1
102
RTVSPost2010Prop33
280
     0
102
RTVSPost2010PropOp33
 70
     1
102
RTVSPost2010Prop34
280
     0
102
RTVSPost2010PropOp34
 70
     1
102
RTVSPost2010Prop35
280
     0
102
RTVSPost2010PropOp35
 70
     1
102
RTVSPost2010Prop36
280
     0
102
RTVSPost2010PropOp36
 70
     1
102
RTVSPost2010Prop37
 90
       50
102
RTVSPost2010PropOp37
 70
     1
102
RTVSPost2010Prop38
140
0.0
102
RTVSPost2010PropOp38
 70
     1
102
RTVSPost2010Prop39
140
1.0
102
RTVSPost2010PropOp39
 70
     1
102
RTVSPost2010Prop40
 90
        0
102
RTVSPost2010PropOp40
 70
     1
102
RTVSPost2010Prop41ColorIndex
 90
       18
102
RTVSPost2010Prop41ColorRGB
 90
        0
102
RTVSPost2010PropOp41
 70
     1
102
RTVSPost2010Prop42
 90
       50
102
RTVSPost2010PropOp42
 70
     1
102
RTVSPost2010Prop43
 90
        3
102
RTVSPost2010PropOp43
 70
     1
102
RTVSPost2010Prop44ColorIndex
 90
        5
102
RTVSPost2010Prop44ColorRGB
 90
      255
102
RTVSPost2010PropOp44
 70
     1
102
RTVSPost2010Prop45
280
     0
102
RTVSPost2010PropOp45
 70
     1
102
RTVSPost2010Prop46
 90
       50
102
RTVSPost2010PropOp46
 70
     1
102
RTVSPost2010Prop47
 90
       50
102
RTVSPost2010PropOp47
 70
     1
102
RTVSPost2010Prop48
 90
       50
102
RTVSPost2010PropOp48
 70
     1
102
RTVSPost2010Prop49
280
     0
102
RTVSPost2010PropOp49
 70
     1
102
RTVSPost2010Prop50
 90
       50
102
RTVSPost2010PropOp50
 70
     1
102
RTVSPost2010Prop51ColorIndex
 90
      256
102
RTVSPost2010Prop51ColorRGB
 90
-16777216
102
RTVSPost2010PropOp51
 70
     0
102
RTVSPost2010Prop52
140
1.0
102
RTVSPost2010PropOp52
 70
     0
102
RTVSPost2010Prop53
 90
        2
102
RTVSPost2010PropOp53
 70
     1
102
RTVSPost2010Prop54
  1
strokes_ogs.tif
102
RTVSPost2010PropOp54
 70
     1
102
RTVSPost2010Prop55
280
     0
102
RTVSPost2010PropOp55
 70
     1
102
RTVSPost2010Prop56
140
1.0
102
RTVSPost2010PropOp56
 70
     1
102
RTVSPost2010Prop57
140
1.0
102
RTVSPost2010PropOp57
 70
     1
102
RTVSPropertyOp0
 70
     1
102
RTVSPropertyOp1
 70
     1
102
RTVSPropertyOp2
 70
     1
102
RTVSPropertyOp3
 70
     1
102
RTVSPropertyOp4
 70
     1
102
RTVSPropertyOp5
 70
     1
102
RTVSPropertyOp6
 70
     1
102
RTVSPropertyOp7
 70
     1
102
RTVSPropertyOp8
 70
     1
102
RTVSPropertyOp9
 70
     1
102
RTVSPropertyOp10
 70
     1
102
RTVSPropertyOp11
 70
     1
102
RTVSPropertyOp12
 70
     1
102
RTVSPropertyOp13
 70
     1
102
RTVSPropertyOp14
 70
     1
102
RTVSPropertyOp15
 70
     1
102
RTVSPropertyOp16
 70
     1
102
RTVSPropertyOp17
 70
     1
102
RTVSPropertyOp18
 70
     1
102
RTVSPropertyOp19
 70
     1
102
RTVSPropertyOp20
 70
     1
102
RTVSPropertyOp21
 70
     1
102
RTVSPropertyOp22
 70
     1
102
RTVSPropertyOp23
 70
     1
102
RTVSPropertyOp24
 70
     1
102
RTVSPropertyOp25
 70
     1
102
RTVSPropertyOp26
 70
     1
102
RTVSPropertyOp27
 70
     1
102
RTVSPropertyOp28
 70
     1
102
RTVSPropertyOp29
 70
     1
102
RTVSPropertyOp30
 70
     1
102
RTVSPropertyOp31
 70
     1
102
RTVSPropertyOp32
 70
     1
102
RTVSPropertyOp33
 70
     1
102
RTVSPropertyOp34
 70
     1
102
RTVSPropertyOp35
 70
     1
102
RTVSPropertyOp36
 70
     1
102
RTVSPropertyOp37
 70
     1
102
RTVSPropertyOp38
 70
     1
102
RTVSPropertyOp39
 70
     1
102
RTVSPropertyOp40
 70
     1
102
RTVSPropertyOp41
 70
     1
102
RTVSPropertyOp42
 70
     1
102
RTVSPropertyOp43
 70
     1
102
RTVSPropertyOp44
 70
     1
102
RTVSPropertyOp45
 70
     1
102
RTVSPropertyOp46
 70
     1
102
RTVSPropertyOp47
 70
     1
102
RTVSPropertyOp48
 70
     1
102
RTVSPropertyOp49
 70
     1
102
RTVSPropertyOp50
 70
     1
102
RTVSPropertyOp51
 70
     0
102
RTVSPropertyOp52
 70
     0
102
RTVSPropertyOp53
 70
     1
102
RTVSPropertyOp54
 70
     1
102
RTVSPropertyOp55
 70
     1
102
RTVSPropertyOp56
 70
     1
102
RTVSPropertyOp57
 70
     1
102
RTVSPropertyOp58
 70
     1
102
RTVSPropertyOp59
 70
     1
102
RTVSPropertyOp60
 70
     1
102
RTVSPropertyOp61
 70
     1
102
RTVSPropertyOp62
 70
     1
  0
XRECORD
  5
1293
102
{ACAD_REACTORS
330
1292
102
}
330
1292
100
AcDbXrecord
280
     1
102
RTVSPost2010Prop28
280
     0
102
RTVSPost2010PropOp28
 70
     1
102
RTVSPost2010Prop29
280
     1
102
RTVSPost2010PropOp29
 70
     1
102
RTVSPost2010Prop30
280
     1
102
RTVSPost2010PropOp30
 70
     1
102
RTVSPost2010Prop31
280
     0
102
RTVSPost2010PropOp31
 70
     1
102
RTVSPost2010Prop32
280
     0
102
RTVSPost2010PropOp32
 70
     1
102
RTVSPost2010Prop33
280
     0
102
RTVSPost2010PropOp33
 70
     1
102
RTVSPost2010Prop34
280
     0
102
RTVSPost2010PropOp34
 70
     1
102
RTVSPost2010Prop35
280
     0
102
RTVSPost2010PropOp35
 70
     1
102
RTVSPost2010Prop36
280
     0
102
RTVSPost2010PropOp36
 70
     1
102
RTVSPost2010Prop37
 90
       50
102
RTVSPost2010PropOp37
 70
     1
102
RTVSPost2010Prop38
140
0.0
102
RTVSPost2010PropOp38
 70
     1
102
RTVSPost2010Prop39
140
1.0
102
RTVSPost2010PropOp39
 70
     1
102
RTVSPost2010Prop40
 90
        0
102
RTVSPost2010PropOp40
 70
     1
102
RTVSPost2010Prop41ColorIndex
 90
       18
102
RTVSPost2010Prop41ColorRGB
 90
        0
102
RTVSPost2010PropOp41
 70
     1
102
RTVSPost2010Prop42
 90
       50
102
RTVSPost2010PropOp42
 70
     1
102
RTVSPost2010Prop43
 90
        3
102
RTVSPost2010PropOp43
 70
     1
102
RTVSPost2010Prop44ColorIndex
 90
        5
102
RTVSPost2010Prop44ColorRGB
 90
      255
102
RTVSPost2010PropOp44
 70
     1
102
RTVSPost2010Prop45
280
     0
102
RTVSPost2010PropOp45
 70
     1
102
RTVSPost2010Prop46
 90
       50
102
RTVSPost2010PropOp46
 70
     1
102
RTVSPost2010Prop47
 90
       50
102
RTVSPost2010PropOp47
 70
     1
102
RTVSPost2010Prop48
 90
       50
102
RTVSPost2010PropOp48
 70
     1
102
RTVSPost2010Prop49
280
     0
102
RTVSPost2010PropOp49
 70
     1
102
RTVSPost2010Prop50
 90
       50
102
RTVSPost2010PropOp50
 70
     1
102
RTVSPost2010Prop51ColorIndex
 90
      256
102
RTVSPost2010Prop51ColorRGB
 90
-16777216
102
RTVSPost2010PropOp51
 70
     0
102
RTVSPost2010Prop52
140
1.0
102
RTVSPost2010PropOp52
 70
     0
102
RTVSPost2010Prop53
 90
        2
102
RTVSPost2010PropOp53
 70
     1
102
RTVSPost2010Prop54
  1
strokes_ogs.tif
102
RTVSPost2010PropOp54
 70
     1
102
RTVSPost2010Prop55
280
     0
102
RTVSPost2010PropOp55
 70
     1
102
RTVSPost2010Prop56
140
1.0
102
RTVSPost2010PropOp56
 70
     1
102
RTVSPost2010Prop57
140
1.0
102
RTVSPost2010PropOp57
 70
     1
102
RTVSPropertyOp0
 70
     1
102
RTVSPropertyOp1
 70
     1
102
RTVSPropertyOp2
 70
     1
102
RTVSPropertyOp3
 70
     1
102
RTVSPropertyOp4
 70
     1
102
RTVSPropertyOp5
 70
     1
102
RTVSPropertyOp6
 70
     1
102
RTVSPropertyOp7
 70
     1
102
RTVSPropertyOp8
 70
     1
102
RTVSPropertyOp9
 70
     1
102
RTVSPropertyOp10
 70
     1
102
RTVSPropertyOp11
 70
     1
102
RTVSPropertyOp12
 70
     1
102
RTVSPropertyOp13
 70
     1
102
RTVSPropertyOp14
 70
     1
102
RTVSPropertyOp15
 70
     1
102
RTVSPropertyOp16
 70
     1
102
RTVSPropertyOp17
 70
     1
102
RTVSPropertyOp18
 70
     1
102
RTVSPropertyOp19
 70
     1
102
RTVSPropertyOp20
 70
     1
102
RTVSPropertyOp21
 70
     1
102
RTVSPropertyOp22
 70
     1
102
RTVSPropertyOp23
 70
     1
102
RTVSPropertyOp24
 70
     1
102
RTVSPropertyOp25
 70
     1
102
RTVSPropertyOp26
 70
     1
102
RTVSPropertyOp27
 70
     1
102
RTVSPropertyOp28
 70
     1
102
RTVSPropertyOp29
 70
     1
102
RTVSPropertyOp30
 70
     1
102
RTVSPropertyOp31
 70
     1
102
RTVSPropertyOp32
 70
     1
102
RTVSPropertyOp33
 70
     1
102
RTVSPropertyOp34
 70
     1
102
RTVSPropertyOp35
 70
     1
102
RTVSPropertyOp36
 70
     1
102
RTVSPropertyOp37
 70
     1
102
RTVSPropertyOp38
 70
     1
102
RTVSPropertyOp39
 70
     1
102
RTVSPropertyOp40
 70
     1
102
RTVSPropertyOp41
 70
     1
102
RTVSPropertyOp42
 70
     1
102
RTVSPropertyOp43
 70
     1
102
RTVSPropertyOp44
 70
     1
102
RTVSPropertyOp45
 70
     1
102
RTVSPropertyOp46
 70
     1
102
RTVSPropertyOp47
 70
     1
102
RTVSPropertyOp48
 70
     1
102
RTVSPropertyOp49
 70
     1
102
RTVSPropertyOp50
 70
     1
102
RTVSPropertyOp51
 70
     0
102
RTVSPropertyOp52
 70
     0
102
RTVSPropertyOp53
 70
     1
102
RTVSPropertyOp54
 70
     1
102
RTVSPropertyOp55
 70
     1
102
RTVSPropertyOp56
 70
     1
102
RTVSPropertyOp57
 70
     1
102
RTVSPropertyOp58
 70
     1
102
RTVSPropertyOp59
 70
     1
102
RTVSPropertyOp60
 70
     1
102
RTVSPropertyOp61
 70
     1
102
RTVSPropertyOp62
 70
     1
  0
XRECORD
  5
12AB
102
{ACAD_REACTORS
330
12AA
102
}
330
12AA
100
AcDbXrecord
280
     1
102
RTVSPost2010Prop28
280
     0
102
RTVSPost2010PropOp28
 70
     1
102
RTVSPost2010Prop29
280
     1
102
RTVSPost2010PropOp29
 70
     1
102
RTVSPost2010Prop30
280
     1
102
RTVSPost2010PropOp30
 70
     1
102
RTVSPost2010Prop31
280
     0
102
RTVSPost2010PropOp31
 70
     1
102
RTVSPost2010Prop32
280
     0
102
RTVSPost2010PropOp32
 70
     1
102
RTVSPost2010Prop33
280
     0
102
RTVSPost2010PropOp33
 70
     1
102
RTVSPost2010Prop34
280
     0
102
RTVSPost2010PropOp34
 70
     1
102
RTVSPost2010Prop35
280
     0
102
RTVSPost2010PropOp35
 70
     1
102
RTVSPost2010Prop36
280
     0
102
RTVSPost2010PropOp36
 70
     1
102
RTVSPost2010Prop37
 90
       50
102
RTVSPost2010PropOp37
 70
     1
102
RTVSPost2010Prop38
140
0.0
102
RTVSPost2010PropOp38
 70
     1
102
RTVSPost2010Prop39
140
1.0
102
RTVSPost2010PropOp39
 70
     1
102
RTVSPost2010Prop40
 90
        0
102
RTVSPost2010PropOp40
 70
     1
102
RTVSPost2010Prop41ColorIndex
 90
       18
102
RTVSPost2010Prop41ColorRGB
 90
        0
102
RTVSPost2010PropOp41
 70
     1
102
RTVSPost2010Prop42
 90
       50
102
RTVSPost2010PropOp42
 70
     1
102
RTVSPost2010Prop43
 90
        3
102
RTVSPost2010PropOp43
 70
     1
102
RTVSPost2010Prop44ColorIndex
 90
        5
102
RTVSPost2010Prop44ColorRGB
 90
      255
102
RTVSPost2010PropOp44
 70
     1
102
RTVSPost2010Prop45
280
     0
102
RTVSPost2010PropOp45
 70
     1
102
RTVSPost2010Prop46
 90
       50
102
RTVSPost2010PropOp46
 70
     1
102
RTVSPost2010Prop47
 90
       50
102
RTVSPost2010PropOp47
 70
     1
102
RTVSPost2010Prop48
 90
       50
102
RTVSPost2010PropOp48
 70
     1
102
RTVSPost2010Prop49
280
     0
102
RTVSPost2010PropOp49
 70
     1
102
RTVSPost2010Prop50
 90
       50
102
RTVSPost2010PropOp50
 70
     1
102
RTVSPost2010Prop51ColorIndex
 90
      256
102
RTVSPost2010Prop51ColorRGB
 90
-16777216
102
RTVSPost2010PropOp51
 70
     0
102
RTVSPost2010Prop52
140
1.0
102
RTVSPost2010PropOp52
 70
     0
102
RTVSPost2010Prop53
 90
        2
102
RTVSPost2010PropOp53
 70
     1
102
RTVSPost2010Prop54
  1
strokes_ogs.tif
102
RTVSPost2010PropOp54
 70
     1
102
RTVSPost2010Prop55
280
     0
102
RTVSPost2010PropOp55
 70
     1
102
RTVSPost2010Prop56
140
1.0
102
RTVSPost2010PropOp56
 70
     1
102
RTVSPost2010Prop57
140
1.0
102
RTVSPost2010PropOp57
 70
     1
102
RTVSPropertyOp0
 70
     1
102
RTVSPropertyOp1
 70
     1
102
RTVSPropertyOp2
 70
     1
102
RTVSPropertyOp3
 70
     1
102
RTVSPropertyOp4
 70
     1
102
RTVSPropertyOp5
 70
     1
102
RTVSPropertyOp6
 70
     1
102
RTVSPropertyOp7
 70
     1
102
RTVSPropertyOp8
 70
     1
102
RTVSPropertyOp9
 70
     1
102
RTVSPropertyOp10
 70
     1
102
RTVSPropertyOp11
 70
     1
102
RTVSPropertyOp12
 70
     1
102
RTVSPropertyOp13
 70
     1
102
RTVSPropertyOp14
 70
     1
102
RTVSPropertyOp15
 70
     1
102
RTVSPropertyOp16
 70
     1
102
RTVSPropertyOp17
 70
     1
102
RTVSPropertyOp18
 70
     1
102
RTVSPropertyOp19
 70
     1
102
RTVSPropertyOp20
 70
     1
102
RTVSPropertyOp21
 70
     1
102
RTVSPropertyOp22
 70
     1
102
RTVSPropertyOp23
 70
     1
102
RTVSPropertyOp24
 70
     1
102
RTVSPropertyOp25
 70
     1
102
RTVSPropertyOp26
 70
     1
102
RTVSPropertyOp27
 70
     1
102
RTVSPropertyOp28
 70
     1
102
RTVSPropertyOp29
 70
     1
102
RTVSPropertyOp30
 70
     1
102
RTVSPropertyOp31
 70
     1
102
RTVSPropertyOp32
 70
     1
102
RTVSPropertyOp33
 70
     1
102
RTVSPropertyOp34
 70
     1
102
RTVSPropertyOp35
 70
     1
102
RTVSPropertyOp36
 70
     1
102
RTVSPropertyOp37
 70
     1
102
RTVSPropertyOp38
 70
     1
102
RTVSPropertyOp39
 70
     1
102
RTVSPropertyOp40
 70
     1
102
RTVSPropertyOp41
 70
     1
102
RTVSPropertyOp42
 70
     1
102
RTVSPropertyOp43
 70
     1
102
RTVSPropertyOp44
 70
     1
102
RTVSPropertyOp45
 70
     1
102
RTVSPropertyOp46
 70
     1
102
RTVSPropertyOp47
 70
     1
102
RTVSPropertyOp48
 70
     1
102
RTVSPropertyOp49
 70
     1
102
RTVSPropertyOp50
 70
     1
102
RTVSPropertyOp51
 70
     0
102
RTVSPropertyOp52
 70
     0
102
RTVSPropertyOp53
 70
     1
102
RTVSPropertyOp54
 70
     1
102
RTVSPropertyOp55
 70
     1
102
RTVSPropertyOp56
 70
     1
102
RTVSPropertyOp57
 70
     1
102
RTVSPropertyOp58
 70
     1
102
RTVSPropertyOp59
 70
     1
102
RTVSPropertyOp60
 70
     1
102
RTVSPropertyOp61
 70
     1
102
RTVSPropertyOp62
 70
     1
  0
ENDSEC
  0
EOF
